osu file format v14

[General]
AudioFilename: audio.mp3
AudioLeadIn: 0
PreviewTime: 140843
Countdown: 1
SampleSet: Normal
StackLeniency: 0.7
Mode: 0
LetterboxInBreaks: 0
WidescreenStoryboard: 0

[Editor]
Bookmarks: 6949,12002,32212,37265,42318,47370,52423,54949,59370,65055,70107,81476,89055,94107,101686,114318,118107,119370,124423,129476,139580,142107,157265,165159,168634,175580,187580,192633,197686,202737,207789,215351,217897,233054,244423,252002
DistanceSpacing: 1
BeatDivisor: 4
GridSize: 32
TimelineZoom: 2.4

[Metadata]
Title:Redo
TitleUnicode:Redo
Artist:Suzuki Konomi
ArtistUnicode:Suzuki Konomi
Creator:DjLolko123
Version:Extra
Source:
Tags:
BeatmapID:1991388
BeatmapSetID:953757

[Difficulty]
HPDrainRate:7
CircleSize:3.8
OverallDifficulty:9
ApproachRate:9.3
SliderMultiplier:1.7
SliderTickRate:1

[Events]
//Background and Video events
0,0,"59119704_p0.jpg",0,0
//Break Periods
2,187780,192079
//Storyboard Layer 0 (Background)
//Storyboard Layer 1 (Fail)
//Storyboard Layer 2 (Pass)
//Storyboard Layer 3 (Foreground)
//Storyboard Sound Samples

[TimingPoints]
634,315.789473684211,4,1,2,55,1,0
634,-200,4,1,2,5,0,0
791,-200,4,1,2,10,0,0
949,-200,4,1,2,15,0,0
1107,-200,4,1,2,20,0,0
1265,-200,4,1,2,25,0,0
1423,-200,4,1,2,30,0,0
1581,-200,4,1,2,35,0,0
1897,-100,4,1,2,55,0,0
19581,-125,4,1,2,55,0,0
22107,-100,4,1,2,55,0,0
24634,-125,4,1,2,55,0,0
26528,-100,4,1,2,55,0,0
29686,-125,4,1,2,55,0,0
30949,-90.9090909090909,4,1,2,55,0,0
32212,-142.857142857143,4,1,2,40,0,0
36002,-111.111111111111,4,1,2,40,0,0
37265,-100,4,1,2,55,0,0
42318,-142.857142857143,4,1,2,40,0,0
47370,-100,4,1,2,55,0,0
54949,-90.9090909090909,4,1,2,60,0,1
70107,-90.9090909090909,4,1,2,55,0,0
81476,-90.9090909090909,4,1,2,55,0,1
86528,-111.111111111111,4,1,2,55,0,1
89055,-100,4,1,2,55,0,0
92212,-111.111111111111,4,1,2,55,0,0
92844,-125,4,1,2,55,0,0
93318,-142.857142857143,4,1,2,55,0,0
93791,-200,4,1,2,55,0,0
94107,-125,4,1,2,55,0,0
96002,-100,4,1,2,55,0,0
101686,-125,4,1,2,55,0,0
104212,-100,4,1,2,55,0,0
106739,-125,4,1,2,55,0,0
108634,-100,4,1,2,55,0,0
111791,-125,4,1,2,55,0,0
113055,-100,4,1,2,55,0,0
114318,-111.111111111111,4,1,2,55,0,0
119370,-100,4,1,2,55,0,0
124423,-125,4,1,2,55,0,0
129476,-100,4,1,2,55,0,0
131967,315.789473684211,4,1,2,55,1,0
132467,315.789473684211,4,1,2,55,1,0
132634,315.789473684211,4,1,2,55,1,0
133265,315.789473684211,4,1,2,55,1,0
139265,-263.157894736842,4,1,2,55,0,0
139580,-263.157894736842,4,1,2,10,0,0
139896,-263.157894736842,4,1,2,15,0,0
140212,-263.157894736842,4,1,2,20,0,0
140528,-263.157894736842,4,1,2,25,0,0
140843,-263.157894736842,4,1,2,30,0,0
141159,-263.157894736842,4,1,2,35,0,0
141475,-263.157894736842,4,1,2,40,0,0
141791,-263.157894736842,4,1,2,45,0,0
142107,-86.9565217391304,4,1,2,55,0,1
152212,-86.9565217391304,4,1,2,55,0,1
156001,-86.9565217391304,4,1,2,55,0,0
168633,-86.9565217391304,4,1,2,55,0,1
173686,-125,4,1,2,55,0,1
175580,-86.9565217391304,4,1,2,55,0,0
192633,-100,4,1,2,55,0,0
200195,315.789473684211,4,1,2,55,1,0
201765,315.789473684211,4,1,2,55,1,0
202737,315.789473684211,4,1,2,55,1,0
202737,-111.111111111111,4,1,2,55,0,0
207789,-125,4,1,2,55,0,0
212825,315.789473684211,4,1,2,55,1,0
214088,-100,4,1,2,20,0,0
215351,-250,4,1,2,20,0,0
215667,-250,4,1,2,25,0,0
215982,-250,4,1,2,30,0,0
216298,-250,4,1,2,35,0,0
216614,-250,4,1,2,40,0,0
216930,-250,4,1,2,45,0,0
217246,-250,4,1,2,50,0,0
217561,-250,4,1,2,55,0,0
217798,-250,4,1,2,5,0,0
217897,315.789473684211,4,1,2,55,1,0
217897,-83.3333333333333,4,1,2,55,0,1
252002,-100,4,1,2,55,0,0
254528,-250,4,1,2,30,0,0

[HitObjects]
266,103,634,6,0,B|267:146|229:174|229:174|186:207|191:254|191:254|243:272|275:231,1,255
131,311,1897,6,0,P|109:261|115:208,1,85
39,96,2370,2,0,P|100:144|108:232,1,170
36,193,2844,1,0,0:0:0:0:
191,254,3002,1,0,0:0:0:0:
279,17,3160,6,0,L|268:119,1,85
288,270,3634,2,0,L|266:74,1,170
192,43,4107,1,0,0:0:0:0:
352,100,4265,1,0,0:0:0:0:
297,357,4423,6,0,P|340:345|375:302,1,85
384,154,4897,2,0,B|333:219|414:258|357:334,1,170
449,203,5370,1,0,0:0:0:0:
296,273,5528,1,0,0:0:0:0:
119,364,5686,6,0,L|83:268,1,85
95,126,6160,2,0,B|61:205|61:205|93:294,1,170
156,207,6634,1,0,0:0:0:0:
34,59,6791,1,0,0:0:0:0:
281,113,6949,6,0,P|240:124|199:113,2,85,2|0|0,0:0|0:0|0:0,0:0:0:0:
236,35,7423,1,0,0:0:0:0:
372,144,7581,2,0,P|377:102|361:60,1,85,2|0,0:0|0:0,0:0:0:0:
301,205,7897,2,0,P|296:247|312:289,1,85
181,349,8212,5,0,0:0:0:0:
61,224,8370,1,2,0:0:0:0:
62,341,8528,1,0,0:0:0:0:
224,244,8686,1,0,0:0:0:0:
224,244,8765,1,0,0:0:0:0:
224,244,8844,2,0,P|282:219|323:221,1,85,2|0,0:0|0:0,0:0:0:0:
409,289,9160,2,0,P|351:314|310:312,1,85
456,172,9476,6,0,L|493:88,2,85,2|0|0,0:0|0:0|0:0,0:0:0:0:
371,76,9949,1,0,0:0:0:0:
246,102,10107,2,0,L|165:76,1,85,2|0,0:0|0:0,0:0:0:0:
334,195,10423,2,0,L|293:207,2,42.5
377,71,10739,5,2,0:0:0:0:
178,160,10897,1,0,0:0:0:0:
226,16,11055,1,0,0:0:0:0:
85,19,11212,1,0,0:0:0:0:
85,19,11291,1,0,0:0:0:0:
85,19,11370,2,0,P|67:82|86:133,1,85,2|0,0:0|0:0,0:0:0:0:
175,171,11686,2,0,P|176:214|159:252,1,85
11,313,12002,6,0,P|21:228|96:197,1,170,2|0,0:0|0:0,0:0:0:0:
16,322,12476,1,0,0:0:0:0:
175,379,12634,2,0,L|334:321,1,170,2|0,0:0|0:0,0:0:0:0:
171,369,13107,1,0,0:0:0:0:
236,237,13265,6,0,B|238:163|293:165|297:68,1,170,2|0,0:0|0:0,0:0:0:0:
333,222,13739,1,0,0:0:0:0:
333,222,13818,1,0,0:0:0:0:
333,222,13897,1,2,0:0:0:0:
204,94,14055,1,0,0:0:0:0:
414,38,14212,1,0,0:0:0:0:
194,83,14370,1,0,0:0:0:0:
116,193,14528,6,0,P|119:106|206:74,1,170,2|0,0:0|0:0,0:0:0:0:
305,116,15002,1,0,0:0:0:0:
439,53,15160,2,0,P|392:126|301:111,1,170,2|0,0:0|0:0,0:0:0:0:
228,197,15634,1,0,0:0:0:0:
270,374,15791,6,0,L|231:207,1,170,2|0,0:0|0:0,0:0:0:0:
342,272,16265,1,0,0:0:0:0:
440,191,16423,2,0,P|479:140|483:101,1,85,2|0,0:0|0:0,0:0:0:0:
373,16,16739,2,0,L|389:113,1,85
425,296,17055,5,2,0:0:0:0:
290,136,17212,1,0,0:0:0:0:
440,299,17370,1,0,0:0:0:0:
388,110,17528,1,0,0:0:0:0:
264,234,17686,2,0,L|234:268,2,42.5,2|0|0,0:0|0:0|0:0,0:0:0:0:
270,49,18002,2,0,P|222:63|173:46,1,85
62,5,18318,6,0,L|32:180,1,170,2|0,0:0|0:0,0:0:0:0:
11,298,18791,1,0,0:0:0:0:
131,255,18949,2,0,P|176:241|226:245,1,85,2|0,0:0|0:0,0:0:0:0:
344,316,19265,2,0,P|386:316|426:303,1,85
358,93,19581,6,0,P|310:138|396:228,1,204,2|0,0:0|0:0,0:0:0:0:
512,26,20212,2,0,B|453:56|411:28|411:28|368:-2|318:17,1,204,2|0,0:0|0:0,0:0:0:0:
163,116,20844,2,0,P|66:122|26:31,1,204,2|0,0:0|0:0,0:0:0:0:
231,54,21476,2,0,B|270:100|246:156|246:156|222:211|257:261,1,204,2|0,0:0|0:0,0:0:0:0:
383,225,22107,2,0,P|334:275|236:221,1,170,2|0,0:0|0:0,0:0:0:0:
390,205,22581,1,0,0:0:0:0:
198,322,22739,2,0,L|104:352,1,85,2|0,0:0|0:0,0:0:0:0:
36,214,23055,2,0,L|119:242,1,85
168,160,23370,5,2,0:0:0:0:
104,353,23528,1,0,0:0:0:0:
247,127,23686,1,0,0:0:0:0:
27,214,23844,1,0,0:0:0:0:
27,214,23923,1,0,0:0:0:0:
27,214,24002,2,0,P|11:174|29:123,1,85,2|0,0:0|0:0,0:0:0:0:
160,79,24318,2,0,P|176:39|158:-12,1,85
305,69,24634,6,0,P|393:85|407:198,1,204,2|0,0:0|0:0,0:0:0:0:
338,346,25265,2,0,B|369:298|339:247|339:247|305:190|333:143,1,204,2|0,0:0|0:0,0:0:0:0:
261,296,25897,2,0,P|176:264|120:352,1,204,2|0,0:0|0:0,0:0:0:0:
34,265,26528,2,0,L|3:164,1,85,2|0,0:0|0:0,0:0:0:0:
141,115,26844,2,0,L|172:14,1,85
223,221,27160,5,2,0:0:0:0:
172,4,27318,1,0,0:0:0:0:
230,248,27476,1,0,0:0:0:0:
130,89,27634,1,0,0:0:0:0:
317,81,27791,2,0,P|394:97|417:195,1,170,2|0,0:0|0:0,0:0:0:0:
375,351,28265,5,0,0:0:0:0:
340,161,28423,1,2,0:0:0:0:
472,235,28581,1,0,0:0:0:0:
243,277,28739,1,0,0:0:0:0:
470,224,28897,1,0,0:0:0:0:
289,349,29055,2,0,P|254:373|212:376,1,85,2|0,0:0|0:0,0:0:0:0:
19,299,29370,2,0,P|53:275|95:272,1,85
312,128,29686,6,0,P|317:217|225:273,1,204,2|0,0:0|0:0,0:0:0:0:
45,116,30318,2,0,B|105:102|145:146|145:146|185:189|259:175,1,204,2|0,0:0|0:0,0:0:0:0:
219,84,30949,1,2,0:0:0:0:
219,84,31107,1,0,0:0:0:0:
69,204,31265,2,0,P|105:249|160:269,1,93.5000028533936
318,276,31581,2,0,B|261:247|214:263|214:263|162:282|110:252,1,187.000005706787,2|0,0:0|0:0,0:0:0:0:
249,349,32212,6,0,P|319:373|385:354,1,118.999996368408,2|0,0:0|0:0,0:0:0:0:
427,224,32686,2,0,L|447:281,2,59.4999981842042
476,115,33160,1,0,0:0:0:0:
356,127,33318,1,0,0:0:0:0:
285,29,33476,2,0,B|212:22|226:68|151:57,1,118.999996368408,2|0,0:0|0:0,0:0:0:0:
57,28,33949,1,0,0:0:0:0:
88,143,34107,2,0,B|77:183|91:245|116:266,1,118.999996368408
213,178,34581,1,0,0:0:0:0:
216,293,34739,6,0,P|178:342|113:365,1,118.999996368408,2|0,0:0|0:0,0:0:0:0:
29,244,35212,2,0,L|2:189,2,59.4999981842042
5,353,35686,2,0,L|66:348,1,59.4999981842042
205,368,36002,6,0,B|284:321|294:383|375:344,1,152.999995330811,2|0,0:0|0:0,0:0:0:0:
393,199,36476,2,0,P|351:210|328:261,1,76.4999976654053
329,258,36791,1,8,0:0:0:0:
504,193,36949,1,4,0:0:0:0:
480,368,37265,5,0,0:0:0:0:
506,172,37423,1,0,0:0:0:0:
368,198,37581,1,8,0:0:0:0:
414,65,37739,2,0,P|453:32|503:22,2,85
294,16,38212,2,0,L|205:43,1,85,8|0,0:0|0:0,0:0:0:0:
218,194,38528,5,0,0:0:0:0:
146,8,38686,1,0,0:0:0:0:
208,174,38844,1,8,0:0:0:0:
37,60,39002,2,0,L|21:156,1,85
178,93,39318,1,0,0:0:0:0:
157,336,39476,2,0,L|143:252,1,85,8|0,0:0|0:0,0:0:0:0:
76,378,39791,5,0,0:0:0:0:
113,163,39949,1,0,0:0:0:0:
280,302,40107,1,8,0:0:0:0:
417,237,40265,2,0,P|459:230|502:249,2,85
443,13,40739,2,0,P|426:75|439:117,1,85,8|0,0:0|0:0,0:0:0:0:
509,258,41055,5,4,0:0:0:0:
505,70,41212,1,0,0:0:0:0:
508,278,41370,1,8,0:0:0:0:
351,126,41528,1,0,0:0:0:0:
413,332,41686,1,8,0:0:0:0:
499,88,41844,1,0,0:0:0:0:
408,349,42002,1,8,0:0:0:0:
238,231,42160,5,0,0:0:0:0:
238,231,42239,1,0,0:0:0:0:
238,231,42318,2,0,P|159:199|121:212,2,118.999996368408
169,286,43107,1,0,0:0:0:0:
45,270,43265,2,0,L|22:190,1,59.4999981842042
0,89,43581,6,0,B|69:62|105:120|191:95,1,178.499994552612
248,13,44212,2,0,L|319:25,1,59.4999981842042
386,109,44528,2,0,L|444:99,1,59.4999981842042
415,237,44844,2,0,B|346:210|310:268|224:243,1,178.499994552612
226,241,45476,1,0,0:0:0:0:
143,351,45791,1,0,0:0:0:0:
92,227,46107,2,0,P|86:167|31:136,1,118.999996368408
19,150,46739,2,0,L|38:26,1,118.999996368408
143,26,47370,5,0,0:0:0:0:
231,226,47528,1,0,0:0:0:0:
282,110,47686,1,8,0:0:0:0:
96,200,47844,2,0,P|55:232|42:282,2,85
195,345,48318,2,0,L|129:275,1,85,8|0,0:0|0:0,0:0:0:0:
60,370,48634,5,0,0:0:0:0:
307,307,48791,1,0,0:0:0:0:
225,237,48949,1,8,0:0:0:0:
412,298,49107,2,0,L|461:215,1,85
312,181,49423,1,0,0:0:0:0:
463,214,49581,1,8,0:0:0:0:
510,67,49739,1,0,0:0:0:0:
313,192,49897,5,0,0:0:0:0:
359,34,50055,1,0,0:0:0:0:
196,129,50212,2,0,L|110:177,1,85,8|0,0:0|0:0,0:0:0:0:
12,225,50528,1,0,0:0:0:0:
1,68,50686,1,2,0:0:0:0:
33,78,50765,1,2,0:0:0:0:
65,87,50844,1,2,0:0:0:0:
114,291,51002,1,2,0:0:0:0:
146,301,51081,1,2,0:0:0:0:
178,309,51160,2,0,B|222:293|240:322|290:306|290:306|345:313|376:293,1,170,2|8,0:0|0:0,0:0:0:0:
449,286,51634,5,0,0:0:0:0:
258,227,51791,1,8,0:0:0:0:
506,194,51949,1,0,0:0:0:0:
246,235,52107,1,8,0:0:0:0:
257,47,52423,5,2,0:0:0:0:
505,182,52581,1,2,0:0:0:0:
505,182,52897,5,2,0:0:0:0:
260,332,53055,1,2,0:0:0:0:
250,45,53370,5,2,0:0:0:0:
270,337,53528,1,2,0:0:0:0:
62,290,53686,5,2,0:0:0:0:
62,290,53765,1,2,0:0:0:0:
62,290,53844,1,2,0:0:0:0:
267,177,54002,1,2,0:0:0:0:
62,64,54160,5,2,0:0:0:0:
62,64,54239,1,2,0:0:0:0:
62,64,54318,2,0,L|133:55,1,42.5,2|2,0:0|0:0,0:0:0:0:
239,43,54476,1,2,0:0:0:0:
76,162,54634,6,0,L|38:168,6,21.25
83,172,54949,2,0,B|126:204|176:193|176:193|233:180|285:197,1,187.000005706787,4|8,0:0|0:0,0:0:0:0:
341,263,55423,1,0,0:0:0:0:
151,96,55581,1,0,0:0:0:0:
223,275,55739,2,0,L|266:364,1,93.5000028533936,0|8,0:0|0:0,0:0:0:0:
448,304,56055,2,0,P|455:247|434:202,1,93.5000028533936
322,72,56370,5,0,0:0:0:0:
344,272,56528,1,8,0:0:0:0:
426,113,56686,2,0,P|461:68|504:46,1,93.5000028533936
344,179,57002,2,0,P|283:173|243:147,2,93.5000028533936,0|8|0,0:0|0:0|0:0,0:0:0:0:
220,284,57476,5,0,0:0:0:0:
318,78,57634,1,0,0:0:0:0:
216,302,57791,1,8,0:0:0:0:
196,59,57949,1,0,0:0:0:0:
90,203,58107,2,0,P|51:242|3:254,1,93.5000028533936
89,108,58423,2,0,P|142:123|177:160,1,93.5000028533936,8|0,0:0|0:0,0:0:0:0:
178,244,58739,5,0,0:0:0:0:
7,156,58897,1,0,0:0:0:0:
119,343,59055,2,0,P|173:362|229:343,1,93.5000028533936,8|0,0:0|0:0,0:0:0:0:
361,261,59370,2,0,P|439:234|462:323,1,187.000005706787,0|8,0:0|0:0,0:0:0:0:
383,384,59844,2,0,L|375:326,1,46.7500014266968,2|2,0:0|0:0,0:0:0:0:
339,147,60002,5,8,0:0:0:0:
459,330,60160,1,8,0:0:0:0:
261,369,60476,5,8,0:0:0:0:
344,131,60634,1,0,0:0:0:0:
124,306,60791,1,8,0:0:0:0:
357,116,60949,1,0,0:0:0:0:
108,162,61107,2,0,B|63:165|35:130|35:130|69:96|106:98|106:98|180:106|229:79,1,280.500008560181,4|8,0:0|0:0,0:0:0:0:
357,51,61739,1,0,0:0:0:0:
240,220,61897,1,0,0:0:0:0:
414,343,62055,1,0,0:0:0:0:
305,147,62212,2,0,P|321:89|366:57,1,93.5000028533936,8|0,0:0|0:0,0:0:0:0:
492,61,62528,5,2,0:0:0:0:
479,105,62606,1,2,0:0:0:0:
445,136,62685,1,2,0:0:0:0:
414,171,62764,1,2,0:0:0:0:
409,217,62843,1,2,0:0:0:0:
387,51,63002,1,4,0:0:0:0:
507,217,63160,1,8,0:0:0:0:
507,217,63239,1,8,0:0:0:0:
507,217,63318,2,0,L|500:278,1,46.7500014266968,8|0,0:0|0:0,0:0:0:0:
323,336,63476,2,0,L|318:290,1,46.7500014266968,8|0,0:0|0:0,0:0:0:0:
130,229,63634,6,0,P|54:190|137:141,1,187.000005706787,4|0,0:0|0:0,0:0:0:0:
314,197,64107,1,8,0:0:0:0:
153,315,64265,2,0,P|113:324|77:320,1,46.7500014266968,2|2,0:0|0:0,0:0:0:0:
79,319,64423,1,2,0:0:0:0:
76,140,64581,1,0,0:0:0:0:
125,128,64659,1,0,0:0:0:0:
175,139,64738,1,0,0:0:0:0:
216,170,64817,1,0,0:0:0:0:
261,194,64896,1,0,0:0:0:0:
311,190,64975,1,0,0:0:0:0:
351,157,65055,6,0,B|417:93|376:31|328:21|281:57|290:96,1,187.000005706787,4|8,0:0|0:0,0:0:0:0:
300,273,65528,1,0,0:0:0:0:
214,55,65686,1,8,0:0:0:0:
297,288,65844,1,0,0:0:0:0:
69,150,66002,1,8,0:0:0:0:
178,384,66160,1,0,0:0:0:0:
178,384,66239,1,0,0:0:0:0:
178,384,66318,1,0,0:0:0:0:
384,309,66476,5,0,0:0:0:0:
75,375,66634,1,8,0:0:0:0:
328,140,66791,1,0,0:0:0:0:
51,208,66949,1,8,0:0:0:0:
367,308,67107,1,0,0:0:0:0:
160,83,67265,1,8,0:0:0:0:
475,170,67423,5,0,0:0:0:0:
475,170,67502,1,0,0:0:0:0:
475,170,67581,2,0,L|436:255,1,93.5000028533936
378,88,67897,2,0,L|339:2,1,93.5000028533936,8|0,0:0|0:0,0:0:0:0:
313,241,68212,2,0,L|305:294,1,46.7500014266968
211,98,68370,2,0,L|204:51,1,46.7500014266968
139,258,68528,1,2,0:0:0:0:
135,271,68607,1,2,0:0:0:0:
131,284,68686,1,2,0:0:0:0:
126,297,68765,1,2,0:0:0:0:
122,310,68844,6,0,B|103:350|103:350|39:205,1,187.000005706787,4|0,0:0|0:0,0:0:0:0:
67,9,69318,2,0,L|137:192,1,187.000005706787,2|0,0:0|0:0,0:0:0:0:
199,339,69791,1,0,0:0:0:0:
240,197,69949,1,0,0:0:0:0:
396,324,70107,5,2,0:0:0:0:
396,324,70265,1,2,0:0:0:0:
442,71,70423,1,2,0:0:0:0:
229,209,70739,5,8,0:0:0:0:
453,65,70897,1,0,0:0:0:0:
250,35,71055,2,0,L|144:21,1,93.5000028533936
32,9,71370,5,2,0:0:0:0:
32,9,71528,1,2,0:0:0:0:
343,138,71686,1,2,0:0:0:0:
133,105,71844,1,0,0:0:0:0:
357,38,72002,2,0,P|431:88|436:179,1,187.000005706787,8|0,0:0|0:0,0:0:0:0:
309,353,72476,1,2,0:0:0:0:
309,353,72555,1,2,0:0:0:0:
309,353,72634,1,0,0:0:0:0:
241,121,72791,5,2,0:0:0:0:
313,369,72949,1,2,0:0:0:0:
412,228,73107,2,0,P|439:183|504:170,1,93.5000028533936,0|8,0:0|0:0,0:0:0:0:
491,169,73344,1,0,0:0:0:0:
491,169,73423,1,0,0:0:0:0:
313,102,73581,2,0,P|267:127|204:106,1,93.5000028533936
136,27,73897,5,0,0:0:0:0:
136,27,74055,1,0,0:0:0:0:
248,249,74212,2,0,B|263:279|259:308|259:308|216:343|153:318,1,140.25000428009
169,319,74528,1,0,0:0:0:0:
55,193,74686,1,0,0:0:0:0:
24,158,74764,1,0,0:0:0:0:
19,112,74843,1,0,0:0:0:0:
40,71,74922,1,0,0:0:0:0:
80,49,75001,1,0,0:0:0:0:
126,53,75080,1,0,0:0:0:0:
172,64,75160,6,0,P|228:69|286:46,1,93.5000028533936,2|2,0:0|0:0,0:0:0:0:
473,165,75476,2,0,P|427:132|365:123,1,93.5000028533936,2|0,0:0|0:0,0:0:0:0:
272,202,75791,1,8,0:0:0:0:
476,43,75949,1,0,0:0:0:0:
387,223,76107,2,0,L|343:310,1,93.5000028533936
307,378,76423,5,2,0:0:0:0:
307,378,76581,1,2,0:0:0:0:
153,160,76739,2,0,P|109:117|56:111,1,93.5000028533936,2|0,0:0|0:0,0:0:0:0:
270,124,77055,1,8,0:0:0:0:
270,124,77212,2,0,P|280:174|258:228,1,93.5000028533936
192,41,77528,1,0,0:0:0:0:
163,285,77686,6,0,L|150:377,1,93.5000028533936,2|2,0:0|0:0,0:0:0:0:
99,149,78002,2,0,L|86:56,1,93.5000028533936,2|0,0:0|0:0,0:0:0:0:
0,121,78318,1,12,0:0:0:0:
188,10,78476,1,0,0:0:0:0:
328,90,78634,2,0,P|397:125|437:123,1,93.5000028533936
506,94,78949,5,0,0:0:0:0:
506,94,79107,1,0,0:0:0:0:
342,219,79265,2,0,P|323:280|327:318,1,93.5000028533936,2|0,0:0|0:0,0:0:0:0:
318,100,79581,2,0,P|303:37|281:6,1,93.5000028533936,2|0,0:0|0:0,0:0:0:0:
426,141,79897,2,0,P|488:155|519:177,1,93.5000028533936,2|0,0:0|0:0,0:0:0:0:
331,334,80212,5,0,0:0:0:0:
200,209,80370,1,0,0:0:0:0:
190,172,80449,1,0,0:0:0:0:
205,137,80528,2,0,L|228:86,1,46.7500014266968
271,3,80686,1,0,0:0:0:0:
70,0,80844,5,0,0:0:0:0:
81,45,80923,1,0,0:0:0:0:
71,90,81002,1,0,0:0:0:0:
42,127,81081,1,0,0:0:0:0:
40,173,81160,1,0,0:0:0:0:
76,341,81318,1,0,0:0:0:0:
76,341,81397,1,0,0:0:0:0:
76,341,81476,6,0,P|147:358|190:351,1,93.5000028533936
304,309,81791,1,8,0:0:0:0:
120,222,81949,6,0,P|163:204|209:196,1,93.5000028533936
375,223,82265,1,8,0:0:0:0:
209,17,82423,6,0,P|266:38|301:63,1,93.5000028533936
443,166,82739,1,8,0:0:0:0:
311,61,82897,6,0,L|206:81,1,93.5000028533936
21,118,83212,1,8,0:0:0:0:
276,167,83370,2,0,L|381:187,1,93.5000028533936,2|0,0:0|0:0,0:0:0:0:
146,230,83686,2,0,L|41:250,1,93.5000028533936,2|0,0:0|0:0,0:0:0:0:
266,312,84002,5,4,0:0:0:0:
157,85,84160,1,2,0:0:0:0:
157,85,84318,1,2,0:0:0:0:
105,322,84476,5,8,0:0:0:0:
345,97,84634,1,2,0:0:0:0:
345,97,84791,1,2,0:0:0:0:
35,122,84949,5,8,0:0:0:0:
426,164,85107,1,2,0:0:0:0:
426,164,85265,1,2,0:0:0:0:
43,318,85423,5,12,0:0:0:0:
441,280,85581,1,2,0:0:0:0:
441,280,85739,1,2,0:0:0:0:
155,54,85897,6,0,B|108:182|209:195|166:326,1,280.500008560181,4|0,0:0|0:0,0:0:0:0:
231,128,86528,2,0,P|284:38|382:77,1,229.499992996216,4|0,0:0|0:0,0:0:0:0:
385,88,87160,2,0,B|432:166|317:218|366:322,1,229.499992996216,2|0,0:0|0:0,0:0:0:0:
373,325,87712,1,2,0:0:0:0:
373,325,87791,1,2,0:0:0:0:
309,126,87949,5,2,0:0:0:0:
247,359,88107,1,2,0:0:0:0:
444,267,88265,1,2,0:0:0:0:
161,214,88423,1,2,0:0:0:0:
381,72,88581,5,8,0:0:0:0:
210,90,89055,6,0,P|163:108|103:103,1,85,2|0,0:0|0:0,0:0:0:0:
20,41,89370,1,2,0:0:0:0:
96,199,89528,1,0,0:0:0:0:
256,171,89686,2,0,P|300:128|308:85,1,85,2|0,0:0|0:0,0:0:0:0:
281,258,90002,2,0,L|263:296,2,42.5,2|2|2,0:0|0:0|0:0,0:0:0:0:
165,284,90318,6,0,L|73:307,1,85,2|0,0:0|0:0,0:0:0:0:
323,359,90634,2,0,L|415:382,1,85,2|0,0:0|0:0,0:0:0:0:
434,384,90870,1,0,0:0:0:0:
434,384,90949,1,2,0:0:0:0:
402,250,91107,1,0,0:0:0:0:
500,179,91265,2,0,L|513:131,2,42.5,2|2|2,0:0|0:0|0:0,0:0:0:0:
423,16,91581,6,0,P|413:58|429:106,1,85,2|0,0:0|0:0,0:0:0:0:
300,197,91897,2,0,P|309:155|294:107,1,85,2|0,0:0|0:0,0:0:0:0:
225,14,92212,2,0,L|172:9,2,38.2499988327027,2|2|2,0:0|0:0|0:0,0:0:0:0:
36,87,92528,2,0,L|84:84,2,38.2499988327027,2|2|2,0:0|0:0|0:0,0:0:0:0:
209,164,92844,5,0,0:0:0:0:
209,164,92923,1,0,0:0:0:0:
209,164,93002,2,0,L|191:214,2,34
14,230,93318,5,0,0:0:0:0:
14,230,93397,1,0,0:0:0:0:
14,230,93476,2,0,L|31:275,2,29.7499990921021
169,361,93791,2,0,L|155:337,3,21.25
178,371,94107,6,0,B|221:341|246:374|294:369|321:339,1,136,2|2,0:0|0:0,0:0:0:0:
315,341,94581,1,0,0:0:0:0:
415,109,94739,2,0,B|448:129|456:167|456:167|450:199|413:224,1,136,0|2,0:0|0:0,0:0:0:0:
410,226,95212,1,0,0:0:0:0:
242,90,95370,2,0,P|234:176|279:231,1,136,0|2,0:0|0:0,0:0:0:0:
270,222,95844,1,0,0:0:0:0:
174,265,96002,5,2,0:0:0:0:
316,145,96160,1,0,0:0:0:0:
156,273,96318,1,2,0:0:0:0:
248,75,96476,1,0,0:0:0:0:
51,220,96634,6,0,B|34:127|105:121|89:22,1,170,2|2,0:0|0:0,0:0:0:0:
61,230,97107,1,0,0:0:0:0:
74,322,97265,2,0,P|147:252|125:159,1,170,2|2,0:0|0:0,0:0:0:0:
59,328,97739,1,0,0:0:0:0:
240,257,97897,6,0,P|327:256|398:321,1,170,2|2,0:0|0:0,0:0:0:0:
289,347,98370,1,0,0:0:0:0:
434,227,98528,2,0,L|466:136,1,85,2|0,0:0|0:0,0:0:0:0:
337,104,98844,2,0,L|305:13,1,85,2|0,0:0|0:0,0:0:0:0:
443,20,99160,5,2,0:0:0:0:
347,194,99318,1,0,0:0:0:0:
455,11,99476,1,2,0:0:0:0:
235,89,99634,1,0,0:0:0:0:
466,134,99791,1,2,0:0:0:0:
241,183,99949,1,0,0:0:0:0:
480,124,100107,1,2,0:0:0:0:
362,287,100265,1,0,0:0:0:0:
131,301,100423,6,0,P|109:244|120:193,1,85,2|0,0:0|0:0,0:0:0:0:
220,100,100739,2,0,P|232:59|227:17,1,85,2|0,0:0|0:0,0:0:0:0:
30,86,101055,2,0,L|123:60,1,85,2|0,0:0|0:0,0:0:0:0:
277,214,101370,2,0,L|195:236,1,85,2|0,0:0|0:0,0:0:0:0:
276,127,101686,6,0,P|356:172|341:278,1,204,2|0,0:0|0:0,0:0:0:0:
181,329,102318,2,0,B|239:303|281:335|281:335|327:373|385:351,1,204,2|0,0:0|0:0,0:0:0:0:
456,275,102949,2,0,L|493:66,1,204,2|0,0:0|0:0,0:0:0:0:
399,42,103581,2,0,P|328:105|369:192,1,204,2|0,0:0|0:0,0:0:0:0:
247,186,104212,6,0,P|221:143|216:90,1,85,2|0,0:0|0:0,0:0:0:0:
82,19,104528,2,0,P|108:62|113:115,1,85,2|0,0:0|0:0,0:0:0:0:
48,214,104844,1,2,0:0:0:0:
48,214,105002,1,0,0:0:0:0:
67,351,105160,2,0,P|104:372|173:372,1,85,2|0,0:0|0:0,0:0:0:0:
269,238,105476,6,0,P|181:224|136:290,1,170,2|2,0:0|0:0,0:0:0:0:
218,312,105949,1,0,0:0:0:0:
320,152,106107,1,2,0:0:0:0:
325,365,106265,1,0,0:0:0:0:
433,182,106423,1,2,0:0:0:0:
319,378,106581,1,0,0:0:0:0:
239,200,106739,6,0,P|227:131|287:65,1,136,2|2,0:0|0:0,0:0:0:0:
252,213,107212,1,0,0:0:0:0:
346,64,107370,2,0,P|303:10|224:3,1,136,2|0,0:0|0:0,0:0:0:0:
351,81,107844,1,0,0:0:0:0:
490,180,108002,6,0,B|444:149|387:161|387:161|334:173|291:139,1,204,2|0,0:0|0:0,0:0:0:0:
421,256,108634,2,0,P|439:309|431:365,1,85,2|0,0:0|0:0,0:0:0:0:
305,214,108949,2,0,P|287:161|295:105,1,85,2|0,0:0|0:0,0:0:0:0:
196,271,109265,6,0,P|174:319|140:356,1,85,2|0,0:0|0:0,0:0:0:0:
307,349,109581,1,2,0:0:0:0:
89,269,109739,1,0,0:0:0:0:
318,349,109897,1,2,0:0:0:0:
147,170,110055,1,0,0:0:0:0:
153,363,110212,1,2,0:0:0:0:
145,153,110370,1,0,0:0:0:0:
252,41,110528,6,0,P|315:23|362:32,1,85,2|0,0:0|0:0,0:0:0:0:
430,163,110844,2,0,P|472:161|511:146,1,85,2|0,0:0|0:0,0:0:0:0:
311,112,111160,2,0,L|294:201,1,85,2|0,0:0|0:0,0:0:0:0:
452,83,111476,2,0,L|436:0,1,85,2|0,0:0|0:0,0:0:0:0:
241,45,111791,6,0,B|186:39|154:91|154:91|123:137|60:136,1,204,2|0,0:0|0:0,0:0:0:0:
235,127,112423,2,0,L|185:328,1,204,2|0,0:0|0:0,0:0:0:0:
73,304,113055,2,0,L|93:221,1,85,2|0,0:0|0:0,0:0:0:0:
325,190,113370,2,0,L|304:272,1,85,2|0,0:0|0:0,0:0:0:0:
441,373,113686,2,0,B|470:316|450:246|450:246|425:178|452:125,1,255,2|0,0:0|0:0,0:0:0:0:
338,57,114318,6,0,L|174:94,1,152.999995330811
161,205,114791,2,0,P|157:251|168:301,1,76.4999976654053
76,124,115107,2,0,P|80:78|69:29,1,76.4999976654053
39,235,115423,1,0,0:0:0:0:
33,371,115581,6,0,B|105:321|128:391|205:352,1,152.999995330811
325,275,116055,2,0,L|250:245,2,76.4999976654053
394,145,116528,2,0,L|470:115,1,76.4999976654053
490,266,116844,2,0,B|508:302|495:348|495:348|455:360|402:338,1,152.999995330811
260,236,117318,2,0,P|227:201|178:188,1,76.4999976654053
23,283,117634,2,0,P|65:304|117:298,1,76.4999976654053
45,147,117949,1,0,0:0:0:0:
163,34,118107,6,0,B|249:14|247:80|336:57,1,152.999995330811,0|8,0:0|0:0,0:0:0:0:
459,12,118581,1,2,0:0:0:0:
453,54,118660,1,2,0:0:0:0:
448,96,118739,1,2,0:0:0:0:
362,203,118897,1,2,0:0:0:0:
198,209,119055,2,0,P|186:164|192:120,1,76.4999976654053,12|0,0:0|0:0,0:0:0:0:
279,333,119370,5,2,0:0:0:0:
279,333,119528,1,2,0:0:0:0:
373,195,119686,2,0,P|425:182|477:195,1,85,8|0,0:0|0:0,0:0:0:0:
279,333,120002,2,0,P|227:346|175:333,1,85
67,213,120318,1,8,0:0:0:0:
226,246,120476,1,0,0:0:0:0:
50,363,120634,5,2,0:0:0:0:
296,325,120791,1,2,0:0:0:0:
34,354,120949,1,8,0:0:0:0:
16,160,121107,2,0,L|2:67,2,85
171,6,121581,2,0,L|158:90,1,85,8|0,0:0|0:0,0:0:0:0:
151,244,121897,5,2,0:0:0:0:
280,38,122055,1,2,0:0:0:0:
381,214,122212,2,0,P|437:241|486:236,1,85,8|0,0:0|0:0,0:0:0:0:
451,140,122528,1,0,0:0:0:0:
451,140,122686,1,0,0:0:0:0:
337,324,122844,2,0,P|281:351|232:346,1,85,8|0,0:0|0:0,0:0:0:0:
13,294,123160,5,6,0:0:0:0:
263,233,123318,1,2,0:0:0:0:
0,299,123476,1,8,0:0:0:0:
138,384,123634,1,0,0:0:0:0:
66,154,123791,1,8,0:0:0:0:
49,115,123869,1,0,0:0:0:0:
57,74,123948,1,0,0:0:0:0:
88,45,124027,1,0,0:0:0:0:
129,39,124106,1,0,0:0:0:0:
169,54,124186,1,0,0:0:0:0:
206,72,124264,1,0,0:0:0:0:
248,76,124343,1,0,0:0:0:0:
289,64,124423,6,0,B|317:39|384:52|394:110|356:138,1,136
277,217,124897,2,0,P|265:282|295:342,1,136
359,268,125370,2,0,L|446:248,1,68
372,168,125686,2,0,P|285:114|187:156,1,204
29,224,126318,2,0,P|26:168|39:139,1,68
143,0,126634,2,0,P|147:47|133:85,1,68
118,187,126949,6,0,B|154:281|69:296|102:410,1,204
202,352,127581,2,0,L|230:278,1,68
360,321,127897,2,0,L|384:384,1,68
450,241,128212,2,0,B|481:209|478:174|478:174|417:151|396:203|334:174,1,204
240,103,128844,2,0,P|281:34|368:108,1,204
225,246,129476,5,2,0:0:0:0:
163,13,129634,1,2,0:0:0:0:
25,155,129791,2,0,L|34:260,1,85,8|0,0:0|0:0,0:0:0:0:
65,66,130107,1,0,0:0:0:0:
65,66,130265,1,0,0:0:0:0:
131,249,130423,2,0,L|122:354,1,85,8|0,0:0|0:0,0:0:0:0:
195,150,130739,5,2,0:0:0:0:
195,150,130897,1,2,0:0:0:0:
296,298,131055,2,0,L|305:403,1,85,8|0,0:0|0:0,0:0:0:0:
341,180,131370,1,0,0:0:0:0:
341,180,131528,1,0,0:0:0:0:
466,321,131686,2,0,L|473:236,1,85,8|0,0:0|0:0,0:0:0:0:
483,56,131967,5,4,0:0:0:0:
381,281,132124,1,2,0:0:0:0:
306,105,132282,1,2,0:0:0:0:
140,175,132467,2,0,P|85:191|32:181,1,85,4|0,0:0|0:0,0:0:0:0:
79,7,132791,1,2,0:0:0:0:
112,24,132870,1,2,0:0:0:0:
144,42,132949,2,0,L|203:74,1,42.5,2|2,0:0|0:0,0:0:0:0:
301,124,133107,1,2,0:0:0:0:
303,122,133186,1,2,0:0:0:0:
303,122,133265,2,0,P|330:178|325:232,1,85,2|0,0:0|0:0,0:0:0:0:
230,356,133581,5,8,0:0:0:0:
133,149,133739,1,0,0:0:0:0:
243,377,133897,1,8,0:0:0:0:
25,157,134055,1,0,0:0:0:0:
116,384,134212,1,8,0:0:0:0:
126,119,134370,1,0,0:0:0:0:
322,310,134528,6,0,L|408:257,1,85,4|0,0:0|0:0,0:0:0:0:
493,209,134844,1,2,0:0:0:0:
238,174,135002,2,0,L|336:153,1,85,8|0,0:0|0:0,0:0:0:0:
476,128,135318,1,2,0:0:0:0:
219,9,135476,2,0,L|318:23,1,85,8|0,0:0|0:0,0:0:0:0:
482,45,135792,5,0,0:0:0:0:
231,95,135949,1,8,0:0:0:0:
231,95,136107,1,0,0:0:0:0:
500,43,136265,1,0,0:0:0:0:
326,162,136422,2,0,P|276:184|216:186,1,85,4|0,0:0|0:0,0:0:0:0:
85,109,136738,2,0,P|43:116|5:135,1,85,8|0,0:0|0:0,0:0:0:0:
23,329,137055,5,2,0:0:0:0:
111,108,137212,1,2,0:0:0:0:
109,93,137528,5,2,0:0:0:0:
178,363,137686,1,2,0:0:0:0:
183,379,138002,5,2,0:0:0:0:
304,83,138160,1,2,0:0:0:0:
347,231,138318,5,2,0:0:0:0:
357,267,138397,1,2,0:0:0:0:
350,304,138476,1,2,0:0:0:0:
338,340,138555,1,2,0:0:0:0:
341,378,138634,1,2,0:0:0:0:
461,239,138791,1,2,0:0:0:0:
461,239,138870,1,2,0:0:0:0:
461,239,138949,2,0,L|443:178,1,42.5,2|2,0:0|0:0,0:0:0:0:
425,107,139107,1,2,0:0:0:0:
261,271,139265,6,0,B|215:316|144:319|144:319|146:242|216:205|216:205|294:165|348:117|320:25|231:26|201:74|204:116,1,565.249993099976,12|0,0:0|0:0,0:0:0:0:
117,89,142107,6,0,B|123:147|91:194|91:194|57:239|59:294,1,195.500003728867,4|8,0:0|0:0,0:0:0:0:
105,375,142581,1,0,0:0:0:0:
195,169,142739,1,0,0:0:0:0:
311,357,142897,2,0,P|371:376|413:368,1,97.7500018644333,0|8,0:0|0:0,0:0:0:0:
500,168,143212,2,0,P|440:149|398:157,1,97.7500018644333
176,195,143528,2,0,P|171:243|188:288,1,97.7500018644333,0|8,0:0|0:0,0:0:0:0:
270,104,143844,2,0,P|274:55|257:10,1,97.7500018644333
301,230,144160,1,0,0:0:0:0:
149,71,144318,2,0,L|58:115,1,97.7500018644333,8|0,0:0|0:0,0:0:0:0:
193,302,144634,5,0,0:0:0:0:
274,85,144791,1,0,0:0:0:0:
49,253,144949,1,8,0:0:0:0:
62,16,145107,1,0,0:0:0:0:
188,285,145265,1,0,0:0:0:0:
280,65,145423,1,0,0:0:0:0:
338,268,145581,2,0,L|367:368,1,97.7500018644333,8|0,0:0|0:0,0:0:0:0:
478,198,145897,5,0,0:0:0:0:
478,198,146054,2,0,L|450:104,1,97.7500018644333,0|8,0:0|0:0,0:0:0:0:
309,170,146370,1,2,0:0:0:0:
309,170,146449,1,2,0:0:0:0:
309,170,146528,1,2,0:0:0:0:
269,349,146686,1,2,0:0:0:0:
495,355,146843,1,4,0:0:0:0:
502,306,146923,1,8,0:0:0:0:
486,259,147002,1,8,0:0:0:0:
448,227,147081,1,8,0:0:0:0:
424,183,147160,6,0,L|417:134,1,48.8750009322167,4|0,0:0|0:0,0:0:0:0:
475,0,147318,2,0,L|482:49,1,48.8750009322167,4|0,0:0|0:0,0:0:0:0:
488,89,147475,1,2,0:0:0:0:
314,60,147633,5,8,0:0:0:0:
406,317,147949,5,8,0:0:0:0:
249,322,148265,6,0,B|197:349|145:332|145:332|109:292|119:244,1,195.500003728867,8|0,0:0|0:0,0:0:0:0:
121,16,148738,2,0,P|181:54|189:100,1,97.7500018644333,8|2,0:0|0:0,0:0:0:0:
190,115,148975,1,0,0:0:0:0:
190,115,149054,1,2,0:0:0:0:
199,255,149212,1,2,0:0:0:0:
297,121,149370,2,0,L|312:24,1,97.7500018644333,8|0,0:0|0:0,0:0:0:0:
433,89,149686,5,2,0:0:0:0:
438,137,149764,1,2,0:0:0:0:
427,184,149843,1,2,0:0:0:0:
409,230,149922,1,2,0:0:0:0:
401,278,150001,1,2,0:0:0:0:
408,326,150080,1,2,0:0:0:0:
420,347,150159,2,0,L|358:334,1,48.8750009322167,4|2,0:0|0:0,0:0:0:0:
142,325,150317,5,2,0:0:0:0:
142,325,150395,1,2,0:0:0:0:
142,325,150475,2,0,L|199:293,1,48.8750009322167,2|2,0:0|0:0,0:0:0:0:
323,155,150633,1,2,0:0:0:0:
329,132,150712,1,2,0:0:0:0:
335,101,150791,2,0,P|267:65|191:141,1,195.500003728867,4|0,0:0|0:0,0:0:0:0:
214,247,151265,1,8,0:0:0:0:
163,17,151422,1,0,0:0:0:0:
23,78,151580,5,2,0:0:0:0:
16,126,151659,1,2,0:0:0:0:
24,174,151738,1,2,0:0:0:0:
42,220,151817,1,2,0:0:0:0:
53,267,151896,1,2,0:0:0:0:
41,313,151974,1,2,0:0:0:0:
57,359,152054,1,2,0:0:0:0:
103,373,152133,1,2,0:0:0:0:
145,348,152212,6,0,P|176:311|175:242,1,97.7500018644333,4|0,0:0|0:0,0:0:0:0:
35,64,152528,1,8,0:0:0:0:
181,245,152686,1,0,0:0:0:0:
141,16,152843,1,8,0:0:0:0:
266,195,153001,1,0,0:0:0:0:
20,59,153159,1,8,0:0:0:0:
292,183,153317,5,2,0:0:0:0:
292,183,153396,1,2,0:0:0:0:
292,183,153475,2,0,L|392:151,1,97.7500018644333,8|0,0:0|0:0,0:0:0:0:
506,114,153791,1,8,0:0:0:0:
377,269,153949,1,0,0:0:0:0:
385,22,154107,1,8,0:0:0:0:
370,288,154265,1,0,0:0:0:0:
512,93,154422,1,8,0:0:0:0:
489,345,154580,5,2,0:0:0:0:
489,345,154659,1,2,0:0:0:0:
489,345,154738,2,0,P|436:369|387:363,1,97.7500018644333,8|0,0:0|0:0,0:0:0:0:
202,157,155054,1,8,0:0:0:0:
426,280,155212,1,0,0:0:0:0:
139,286,155370,1,8,0:0:0:0:
424,186,155528,1,2,0:0:0:0:
446,142,155607,1,2,0:0:0:0:
461,100,155686,2,0,L|486:49,1,48.8750009322167,2|2,0:0|0:0,0:0:0:0:
340,77,155843,5,2,0:0:0:0:
340,77,155922,1,2,0:0:0:0:
340,77,156001,2,0,B|238:45|236:119|145:91,1,195.500003728867,4|0,0:0|0:0,0:0:0:0:
10,12,156475,2,0,L|63:213,1,195.500003728867,8|0,0:0|0:0,0:0:0:0:
169,314,156949,2,0,P|199:268|201:225,1,97.7500018644333,8|0,0:0|0:0,0:0:0:0:
291,338,157265,5,2,0:0:0:0:
49,314,157422,1,2,0:0:0:0:
49,314,157580,1,2,0:0:0:0:
315,122,157896,2,0,L|291:326,1,195.500003728867,4|0,0:0|0:0,0:0:0:0:
231,137,158528,5,2,0:0:0:0:
372,357,158686,1,2,0:0:0:0:
372,357,158843,1,2,0:0:0:0:
186,64,159159,6,0,B|269:33|265:100|376:70,1,195.500003728867,4|0,0:0|0:0,0:0:0:0:
229,154,159633,1,0,0:0:0:0:
229,154,159712,1,0,0:0:0:0:
229,154,159791,1,2,0:0:0:0:
468,35,159949,1,2,0:0:0:0:
468,35,160107,1,2,0:0:0:0:
284,5,160265,1,0,0:0:0:0:
113,0,160422,6,0,P|84:74|154:161,1,195.500003728867,4|0,0:0|0:0,0:0:0:0:
31,194,160896,1,0,0:0:0:0:
31,194,160975,1,0,0:0:0:0:
31,194,161054,1,2,0:0:0:0:
17,310,161212,1,2,0:0:0:0:
120,366,161370,1,2,0:0:0:0:
211,292,161528,1,2,0:0:0:0:
160,169,161686,6,0,P|247:159|336:236,1,195.500003728867,4|0,0:0|0:0,0:0:0:0:
350,372,162159,1,2,0:0:0:0:
350,372,162238,1,2,0:0:0:0:
350,372,162317,1,2,0:0:0:0:
437,293,162475,1,2,0:0:0:0:
392,184,162633,1,2,0:0:0:0:
437,75,162791,1,2,0:0:0:0:
320,86,162949,2,0,P|263:75|224:48,1,97.7500018644333,4|0,0:0|0:0,0:0:0:0:
20,38,163265,2,0,P|77:49|116:76,1,97.7500018644333
84,196,163580,5,6,0:0:0:0:
73,243,163659,1,2,0:0:0:0:
62,290,163738,1,2,0:0:0:0:
52,337,163817,1,2,0:0:0:0:
40,384,163896,1,2,0:0:0:0:
146,313,164054,1,2,0:0:0:0:
274,384,164212,6,0,L|317:193,1,195.500003728867,4|0,0:0|0:0,0:0:0:0:
320,172,164686,1,0,0:0:0:0:
403,90,164843,1,2,0:0:0:0:
432,202,165001,1,2,0:0:0:0:
403,314,165159,1,2,0:0:0:0:
432,202,165317,1,0,0:0:0:0:
512,119,165475,2,0,P|515:71|492:19,2,97.7500018644333,0|0|8,0:0|0:0|0:0,0:0:0:0:
403,84,165949,1,0,0:0:0:0:
260,50,166107,6,0,P|206:28|139:32,1,97.7500018644333
15,171,166422,2,0,P|69:193|136:189,1,97.7500018644333,8|0,0:0|0:0,0:0:0:0:
65,8,166738,2,0,L|91:121,1,97.7500018644333,8|0,0:0|0:0,0:0:0:0:
225,197,167054,2,0,L|199:310,1,97.7500018644333,4|0,0:0|0:0,0:0:0:0:
95,344,167370,1,2,0:0:0:0:
80,348,167449,1,2,0:0:0:0:
65,347,167528,1,2,0:0:0:0:
50,343,167607,1,2,0:0:0:0:
24,328,167686,5,2,0:0:0:0:
49,298,167765,1,0,0:0:0:0:
89,282,167843,1,2,0:0:0:0:
137,285,167922,1,0,0:0:0:0:
188,302,168001,1,2,0:0:0:0:
226,339,168080,1,0,0:0:0:0:
275,360,168159,1,2,0:0:0:0:
326,342,168238,1,0,0:0:0:0:
353,295,168317,1,2,0:0:0:0:
344,241,168396,1,0,0:0:0:0:
301,208,168475,1,2,0:0:0:0:
247,212,168554,1,0,0:0:0:0:
208,250,168633,5,4,0:0:0:0:
256,62,168791,1,2,0:0:0:0:
256,62,168949,1,2,0:0:0:0:
276,283,169107,5,8,0:0:0:0:
178,31,169265,1,2,0:0:0:0:
178,31,169422,1,2,0:0:0:0:
378,169,169580,5,4,0:0:0:0:
58,72,169738,1,2,0:0:0:0:
58,72,169896,1,2,0:0:0:0:
350,79,170054,2,0,L|459:57,1,97.7500018644333,2|0,0:0|0:0,0:0:0:0:
213,151,170370,1,2,0:0:0:0:
375,257,170528,2,0,P|419:302|434:348,1,97.7500018644333,8|0,0:0|0:0,0:0:0:0:
208,139,170843,2,0,P|164:94|149:48,1,97.7500018644333,8|0,0:0|0:0,0:0:0:0:
93,254,171159,5,4,0:0:0:0:
261,44,171317,1,2,0:0:0:0:
261,44,171475,1,2,0:0:0:0:
200,333,171633,5,12,0:0:0:0:
147,32,171791,1,2,0:0:0:0:
147,32,171949,1,2,0:0:0:0:
335,314,172107,5,8,0:0:0:0:
39,110,172265,1,2,0:0:0:0:
39,110,172422,1,2,0:0:0:0:
344,111,172580,5,4,0:0:0:0:
33,324,172738,1,2,0:0:0:0:
33,324,172896,1,2,0:0:0:0:
355,206,173054,2,0,P|426:198|372:279,1,195.500003728867,8|0,0:0|0:0,0:0:0:0:
126,70,173686,6,0,B|89:162|158:174|119:283,1,204,4|0,0:0|0:0,0:0:0:0:
306,156,174317,2,0,P|284:83|201:140,1,204,0|2,0:0|0:0,0:0:0:0:
202,157,174870,1,2,0:0:0:0:
202,157,174949,1,2,0:0:0:0:
214,348,175107,1,2,0:0:0:0:
266,98,175265,1,2,0:0:0:0:
201,368,175422,1,2,0:0:0:0:
207,160,175580,6,0,L|183:112,3,48.8750009322167
129,272,175896,2,0,L|107:315,3,48.8750009322167
46,166,176212,1,4,0:0:0:0:
41,157,176291,1,0,0:0:0:0:
39,137,176370,5,2,0:0:0:0:
61,111,176449,1,0,0:0:0:0:
100,111,176528,1,2,0:0:0:0:
141,137,176607,1,0,0:0:0:0:
193,148,176686,1,2,0:0:0:0:
245,137,176765,1,0,0:0:0:0:
276,94,176843,1,2,0:0:0:0:
263,41,176922,1,0,0:0:0:0:
294,0,177001,1,2,0:0:0:0:
347,0,177080,1,0,0:0:0:0:
373,46,177159,2,0,L|396:93,1,48.8750009322167,4|0,0:0|0:0,0:0:0:0:
323,195,177317,2,0,L|346:242,1,48.8750009322167
411,362,177475,5,4,0:0:0:0:
403,107,177633,1,0,0:0:0:0:
309,339,177791,1,8,0:0:0:0:
511,224,177949,2,0,P|467:195|409:196,1,97.7500018644333
298,348,178265,1,0,0:0:0:0:
165,157,178422,1,8,0:0:0:0:
188,367,178580,1,0,0:0:0:0:
162,139,178738,1,0,0:0:0:0:
17,367,178896,6,0,L|57:162,1,195.500003728867
83,7,179370,1,4,0:0:0:0:
138,225,179528,1,2,0:0:0:0:
138,225,179607,1,2,0:0:0:0:
138,225,179686,1,2,0:0:0:0:
227,4,179843,5,2,0:0:0:0:
227,4,179922,1,2,0:0:0:0:
227,4,180001,1,2,0:0:0:0:
488,110,180159,1,0,0:0:0:0:
261,90,180317,1,0,0:0:0:0:
495,127,180475,2,0,L|507:230,2,97.7500018644333,8|0|0,0:0|0:0|0:0,0:0:0:0:
424,305,180949,1,8,0:0:0:0:
381,26,181107,1,0,0:0:0:0:
342,199,181265,1,0,0:0:0:0:
221,329,181422,5,2,0:0:0:0:
221,329,181501,1,2,0:0:0:0:
221,329,181580,2,2,L|231:379,3,48.8750009322167
139,205,181896,2,2,L|148:157,3,48.8750009322167
70,334,182212,2,2,L|60:381,3,48.8750009322167
0,206,182528,5,0,0:0:0:0:
290,200,182686,1,0,0:0:0:0:
157,118,182843,1,8,0:0:0:0:
364,123,183001,2,0,P|397:184|394:233,1,97.7500018644333
334,309,183317,1,0,0:0:0:0:
257,102,183475,2,0,P|263:54|291:13,1,97.7500018644333,8|0,0:0|0:0,0:0:0:0:
198,196,183791,1,0,0:0:0:0:
367,102,184001,6,8,B|404:101|404:101|435:135,2,65.1666679096222
182,180,184317,2,8,B|144:180|144:180|113:146,2,65.1666679096222
339,279,184633,2,8,B|358:311|358:311|349:337,2,65.1666679096222
360,83,185054,5,4,0:0:0:0:
462,333,185212,2,0,L|477:231,1,97.7500018644333
357,62,185528,1,8,0:0:0:0:
267,371,185686,2,0,L|252:269,1,97.7500018644333
177,53,186001,1,4,0:0:0:0:
75,377,186159,2,0,L|90:275,1,97.7500018644333
176,25,186475,5,8,0:0:0:0:
170,275,186633,1,0,0:0:0:0:
16,166,186791,1,0,0:0:0:0:
288,128,186949,1,2,0:0:0:0:
0,69,187107,1,2,0:0:0:0:
312,128,187265,2,0,B|349:182|349:182|339:247|339:247|369:316,1,195.500003728867,2|0,0:0|0:0,0:0:0:0:
200,128,192633,6,0,B|143:316,1,170,2|0,0:0|0:0,0:0:0:0:
75,231,193107,1,2,0:0:0:0:
292,173,193265,1,2,0:0:0:0:
50,234,193422,1,2,0:0:0:0:
258,323,193580,2,0,P|312:348|353:353,1,85
428,210,193896,6,0,B|378:47,1,170
298,182,194370,1,2,0:0:0:0:
471,57,194528,1,2,0:0:0:0:
283,196,194686,1,2,0:0:0:0:
237,50,194843,2,0,P|192:29|147:28,1,85
9,149,195159,6,0,L|25:254,2,85,2|0|0,0:0|0:0|0:0,0:0:0:0:
170,112,195633,1,2,0:0:0:0:
26,252,195791,1,2,0:0:0:0:
245,164,195949,1,2,0:0:0:0:
61,344,196107,1,0,0:0:0:0:
262,154,196265,1,0,0:0:0:0:
217,366,196422,6,0,B|308:369|308:369|390:331,1,170,2|0,0:0|0:0,0:0:0:0:
430,128,196896,2,0,L|459:226,2,85,0|8|0,0:0|0:0|0:0,0:0:0:0:
278,139,197370,2,0,L|302:57,1,85
359,259,197686,5,8,0:0:0:0:
214,69,197843,1,0,0:0:0:0:
214,69,198001,1,0,0:0:0:0:
70,191,198159,5,8,0:0:0:0:
371,262,198317,1,0,0:0:0:0:
127,99,198475,5,0,0:0:0:0:
273,340,198633,1,8,0:0:0:0:
122,71,198791,1,0,0:0:0:0:
267,323,198949,6,0,P|316:318|359:293,1,85,4|0,0:0|0:0,0:0:0:0:
438,196,199265,1,0,0:0:0:0:
175,181,199422,2,0,P|222:193|271:184,1,85,4|0,0:0|0:0,0:0:0:0:
457,171,199738,1,0,0:0:0:0:
155,33,199896,2,0,L|253:80,1,85,4|0,0:0|0:0,0:0:0:0:
469,178,200195,5,8,0:0:0:0:
161,166,200352,1,8,0:0:0:0:
419,355,200668,5,2,0:0:0:0:
383,37,200984,5,2,0:0:0:0:
155,43,201300,6,0,B|115:124|199:168|148:268,1,212.5,4|0,0:0|0:0,0:0:0:0:
150,266,201765,1,0,0:0:0:0:
246,90,201922,1,0,0:0:0:0:
246,90,202001,2,0,L|269:138,1,42.5
333,228,202238,1,0,0:0:0:0:
398,15,202396,2,0,L|429:121,1,85
461,272,202737,6,0,L|479:197,2,76.4999976654053
335,245,203210,2,0,L|353:319,1,76.4999976654053
191,367,203526,2,0,L|209:292,1,76.4999976654053
75,264,203842,2,0,L|56:189,1,76.4999976654053
7,44,204158,6,0,P|56:31|104:44,1,76.4999976654053
173,127,204473,2,0,P|210:129|246:117,1,76.4999976654053
344,0,204789,2,0,P|372:25|389:59,1,76.4999976654053
280,195,205105,6,0,L|261:120,2,76.4999976654053
422,222,205579,2,0,L|403:296,1,76.4999976654053
270,339,205894,1,0,0:0:0:0:
270,339,206052,1,0,0:0:0:0:
147,253,206210,1,0,0:0:0:0:
147,253,206368,1,0,0:0:0:0:
24,167,206526,6,0,P|14:83|86:61,1,152.999995330811
215,129,207000,2,0,B|311:79|339:149|412:100,1,191.249994163513
406,98,207473,2,0,L|389:219,1,114.749996498108
360,327,207789,6,0,B|286:279|256:406|139:336|139:336|109:253|172:191|172:191|212:231|210:293,1,476,4|0,0:0|0:0,0:0:0:0:
209,283,209052,2,0,B|208:187|105:154|105:154|36:135|7:106|13:45|64:13|130:39|123:98,1,408,4|0,0:0|0:0,0:0:0:0:
121,83,210158,1,0,0:0:0:0:
230,26,210315,5,4,0:0:0:0:
298,226,210473,1,0,0:0:0:0:
370,24,210631,5,8,0:0:0:0:
300,249,210789,1,0,0:0:0:0:
227,14,210947,5,8,0:0:0:0:
302,271,211105,1,0,0:0:0:0:
374,11,211263,5,8,0:0:0:0:
304,293,211421,1,0,0:0:0:0:
452,112,211579,1,8,0:0:0:0:
194,197,211737,1,0,0:0:0:0:
398,362,211894,1,8,0:0:0:0:
300,91,212052,1,0,0:0:0:0:
220,347,212210,1,8,0:0:0:0:
428,130,212368,1,0,0:0:0:0:
163,198,212526,1,8,0:0:0:0:
474,277,212684,1,0,0:0:0:0:
182,336,212825,6,2,L|132:318,3,42.5,6|2|2|2,0:0|0:0|0:0|0:0,0:0:0:0:
7,197,213140,1,2,0:0:0:0:
7,197,213219,1,2,0:0:0:0:
7,197,213298,2,2,L|46:182,3,42.5,6|2|2|2,0:0|0:0|0:0|0:0,0:0:0:0:
134,27,213614,5,2,0:0:0:0:
181,8,213693,1,2,0:0:0:0:
230,19,213772,1,2,0:0:0:0:
249,66,213851,1,2,0:0:0:0:
233,114,213930,1,2,0:0:0:0:
254,160,214009,1,2,0:0:0:0:
302,176,214088,5,12,0:0:0:0:
369,125,214403,5,0,0:0:0:0:
473,235,214719,1,0,0:0:0:0:
430,43,215035,1,0,0:0:0:0:
361,299,215351,6,0,B|307:266|257:293|257:293|203:323|128:294|128:294|100:326|100:326|86:293|57:279|57:279|82:222|61:175|61:175|65:205|51:237,1,510
194,212,217897,5,4,0:0:0:0:
0,47,218054,1,0,0:0:0:0:
186,20,218212,2,0,P|249:14|296:32,1,101.999996887207,8|0,0:0|0:0,0:0:0:0:
413,178,218528,2,0,P|461:191|512:183,1,101.999996887207
294,132,218844,1,8,0:0:0:0:
126,263,219002,6,0,L|96:368,1,101.999996887207,4|0,0:0|0:0,0:0:0:0:
289,149,219318,2,0,L|317:50,1,101.999996887207,0|8,0:0|0:0,0:0:0:0:
311,257,219633,1,0,0:0:0:0:
470,82,219791,1,0,0:0:0:0:
470,82,219949,1,0,0:0:0:0:
226,42,220107,1,4,0:0:0:0:
175,36,220186,1,0,0:0:0:0:
125,46,220265,1,0,0:0:0:0:
82,74,220344,1,0,0:0:0:0:
63,121,220423,5,2,0:0:0:0:
171,323,220581,1,2,0:0:0:0:
174,121,220739,2,0,P|145:61|106:30,1,101.999996887207,8|0,0:0|0:0,0:0:0:0:
275,133,221054,1,0,0:0:0:0:
64,171,221212,1,0,0:0:0:0:
299,127,221370,1,8,0:0:0:0:
157,344,221528,1,0,0:0:0:0:
397,307,221686,6,0,P|452:314|502:345,1,101.999996887207
321,184,222002,2,0,P|266:177|216:146,1,101.999996887207,8|0,0:0|0:0,0:0:0:0:
431,83,222318,1,0,0:0:0:0:
431,83,222475,1,0,0:0:0:0:
213,138,222633,2,0,L|234:239,1,101.999996887207,8|0,0:0|0:0,0:0:0:0:
301,78,222949,5,2,0:0:0:0:
252,311,223107,1,2,0:0:0:0:
123,90,223423,5,8,0:0:0:0:
466,180,223739,5,8,0:0:0:0:
116,302,224054,6,0,B|73:191|157:192|114:81,1,203.999993774414,4|0,0:0|0:0,0:0:0:0:
211,248,224528,2,0,P|223:320|210:366,1,101.999996887207,8|0,0:0|0:0,0:0:0:0:
31,139,224844,1,0,0:0:0:0:
226,260,225002,1,0,0:0:0:0:
196,58,225160,2,0,P|253:26|340:65,1,152.999995330811,4|0,0:0|0:0,0:0:0:0:
361,135,225475,5,6,0:0:0:0:
361,135,225554,1,2,0:0:0:0:
361,135,225633,2,2,L|405:110,3,50.9999984436036
240,188,225949,2,2,L|196:163,1,50.9999984436036,6|2,0:0|0:0,0:0:0:0:
425,237,226107,1,2,0:0:0:0:
468,263,226186,1,2,0:0:0:0:
477,313,226265,1,2,0:0:0:0:
445,353,226344,1,2,0:0:0:0:
394,357,226423,1,2,0:0:0:0:
352,327,226502,1,2,0:0:0:0:
301,318,226581,2,0,B|208:264|179:341|96:284,1,203.999993774414,4|0,0:0|0:0,0:0:0:0:
15,143,227054,6,8,L|72:165,3,50.9999984436036,12|8|8|8,0:0|0:0|0:0|0:0,0:0:0:0:
112,34,227370,1,8,0:0:0:0:
166,19,227449,1,8,0:0:0:0:
220,32,227528,1,8,0:0:0:0:
260,70,227607,1,8,0:0:0:0:
309,96,227686,1,8,0:0:0:0:
364,100,227765,1,8,0:0:0:0:
414,76,227844,1,8,0:0:0:0:
470,78,227923,1,8,0:0:0:0:
507,119,228002,6,0,L|490:237,1,101.999996887207,8|0,0:0|0:0,0:0:0:0:
468,356,228318,1,8,0:0:0:0:
240,166,228475,1,0,0:0:0:0:
488,361,228633,1,8,0:0:0:0:
198,326,228791,1,0,0:0:0:0:
485,242,228949,1,8,0:0:0:0:
219,153,229107,5,2,0:0:0:0:
219,153,229186,1,2,0:0:0:0:
219,153,229265,2,0,P|194:100|205:39,1,101.999996887207,8|0,0:0|0:0,0:0:0:0:
278,257,229581,2,0,P|303:310|292:371,1,101.999996887207,8|0,0:0|0:0,0:0:0:0:
339,154,229897,1,8,0:0:0:0:
177,336,230054,1,0,0:0:0:0:
352,137,230212,1,8,0:0:0:0:
104,77,230370,5,2,0:0:0:0:
104,77,230449,1,2,0:0:0:0:
104,77,230528,1,8,0:0:0:0:
177,275,230686,1,0,0:0:0:0:
266,28,230844,1,8,0:0:0:0:
176,291,231002,1,0,0:0:0:0:
429,341,231160,1,8,0:0:0:0:
375,356,231239,1,8,0:0:0:0:
321,343,231318,1,8,0:0:0:0:
281,305,231397,1,8,0:0:0:0:
232,279,231476,1,8,0:0:0:0:
177,275,231555,1,8,0:0:0:0:
127,299,231634,1,8,0:0:0:0:
71,297,231713,1,8,0:0:0:0:
205,364,232107,5,0,0:0:0:0:
274,171,232265,2,0,B|281:273|281:273|216:354,1,203.999993774414,4|0,0:0|0:0,0:0:0:0:
179,239,232739,2,0,L|183:126,1,101.999996887207
324,85,233054,5,2,0:0:0:0:
86,180,233212,1,2,0:0:0:0:
345,73,233370,1,8,0:0:0:0:
69,81,233686,2,0,B|56:174|121:175|81:305,1,203.999993774414,4|0,0:0|0:0,0:0:0:0:
236,360,234160,5,2,0:0:0:0:
236,360,234239,1,2,0:0:0:0:
236,360,234318,1,2,0:0:0:0:
474,327,234475,1,2,0:0:0:0:
192,261,234633,1,8,0:0:0:0:
371,57,234949,6,0,L|391:266,1,203.999993774414,4|0,0:0|0:0,0:0:0:0:
468,83,235423,1,2,0:0:0:0:
468,83,235502,1,2,0:0:0:0:
468,83,235581,1,2,0:0:0:0:
284,264,235739,1,2,0:0:0:0:
260,45,235897,1,8,0:0:0:0:
291,278,236054,1,2,0:0:0:0:
85,284,236212,6,0,P|54:221|63:179,1,101.999996887207,4|0,0:0|0:0,0:0:0:0:
152,72,236449,1,2,0:0:0:0:
157,86,236528,1,2,0:0:0:0:
161,100,236607,1,2,0:0:0:0:
166,114,236686,1,2,0:0:0:0:
170,128,236765,1,2,0:0:0:0:
174,142,236844,2,0,L|169:224,1,50.9999984436036,2|0,0:0|0:0,0:0:0:0:
149,345,237002,5,2,0:0:0:0:
149,345,237081,1,2,0:0:0:0:
149,345,237160,1,2,0:0:0:0:
252,176,237318,1,2,0:0:0:0:
365,358,237475,2,0,P|438:357|480:327,1,101.999996887207,8|0,0:0|0:0,0:0:0:0:
510,134,237791,2,0,P|437:135|395:165,1,101.999996887207,8|0,0:0|0:0,0:0:0:0:
399,158,238028,5,2,0:0:0:0:
399,158,238107,1,6,0:0:0:0:
485,313,238265,1,2,0:0:0:0:
381,69,238423,1,2,0:0:0:0:
339,223,238581,1,2,0:0:0:0:
200,47,238739,6,0,P|121:47|60:150,1,203.999993774414,8|0,0:0|0:0,0:0:0:0:
66,167,239212,1,0,0:0:0:0:
284,46,239370,1,2,0:0:0:0:
133,291,239528,1,2,0:0:0:0:
112,51,239686,1,2,0:0:0:0:
280,270,239844,1,2,0:0:0:0:
280,270,239923,1,2,0:0:0:0:
280,270,240002,2,0,L|391:224,1,101.999996887207,2|0,0:0|0:0,0:0:0:0:
444,29,240318,2,0,L|430:130,1,101.999996887207,4|0,0:0|0:0,0:0:0:0:
392,361,240633,5,2,0:0:0:0:
504,140,240791,1,2,0:0:0:0:
486,361,240949,1,2,0:0:0:0:
358,132,241107,1,0,0:0:0:0:
301,359,241265,2,0,P|218:364|185:350,1,101.999996887207
80,263,241581,5,8,0:0:0:0:
40,114,241739,1,0,0:0:0:0:
165,26,241897,1,0,0:0:0:0:
285,118,242054,1,0,0:0:0:0:
44,131,242212,2,0,P|95:160|159:172,1,101.999996887207,2|0,0:0|0:0,0:0:0:0:
280,98,242528,2,0,P|327:79|378:75,1,101.999996887207,2|0,0:0|0:0,0:0:0:0:
450,293,242844,2,0,P|405:268|369:232,1,101.999996887207,2|0,0:0|0:0,0:0:0:0:
462,181,243160,6,0,L|483:135,3,50.9999984436036
471,308,243475,1,2,0:0:0:0:
471,308,243554,1,2,0:0:0:0:
471,308,243633,2,0,L|411:343,1,50.9999984436036,2|0,0:0|0:0,0:0:0:0:
298,279,243791,2,0,L|250:261,1,50.9999984436036
82,319,243949,1,0,0:0:0:0:
50,278,244028,1,0,0:0:0:0:
43,227,244107,1,0,0:0:0:0:
66,181,244186,1,0,0:0:0:0:
112,159,244265,1,0,0:0:0:0:
162,164,244344,1,0,0:0:0:0:
212,154,244423,6,0,P|261:126|293:80,1,101.999996887207,4|0,0:0|0:0,0:0:0:0:
296,1,244739,1,0,0:0:0:0:
331,258,244897,6,0,P|359:209|364:153,1,101.999996887207,4|0,0:0|0:0,0:0:0:0:
303,15,245213,1,0,0:0:0:0:
496,303,245370,6,0,P|496:246|472:195,1,101.999996887207,4|0,0:0|0:0,0:0:0:0:
312,36,245686,1,0,0:0:0:0:
136,51,245844,2,0,P|81:60|28:96,2,101.999996887207,8|0|0,0:0|0:0|0:0,0:0:0:0:
35,222,246318,2,0,L|59:328,1,101.999996887207,2|0,0:0|0:0,0:0:0:0:
206,146,246633,2,0,L|228:46,1,101.999996887207
274,308,246949,5,4,0:0:0:0:
106,154,247107,1,0,0:0:0:0:
106,154,247265,1,0,0:0:0:0:
338,218,247423,5,4,0:0:0:0:
65,349,247581,1,0,0:0:0:0:
65,349,247739,1,0,0:0:0:0:
392,321,247897,5,4,0:0:0:0:
28,233,248054,1,0,0:0:0:0:
28,233,248212,1,0,0:0:0:0:
453,225,248370,5,4,0:0:0:0:
106,53,248527,1,0,0:0:0:0:
106,53,248685,1,0,0:0:0:0:
479,45,248844,6,0,B|400:98|457:165|350:216,1,203.999993774414,4|0,0:0|0:0,0:0:0:0:
90,112,249475,6,0,B|116:205|179:177|203:270|203:270|140:315|73:264,1,305.999990661621,12|0,0:0|0:0,0:0:0:0:
201,91,250107,2,0,P|347:50|398:176,1,305.999990661621,0|2,0:0|0:0,0:0:0:0:
391,187,250660,5,2,0:0:0:0:
391,187,250739,1,8,0:0:0:0:
470,28,250897,1,8,0:0:0:0:
495,292,251054,1,8,0:0:0:0:
296,138,251212,1,8,0:0:0:0:
312,359,251370,1,8,0:0:0:0:
462,45,251528,1,8,0:0:0:0:
102,70,252002,6,0,L|128:167,1,85
168,316,252475,2,0,L|123:151,1,170
45,278,252949,1,0,0:0:0:0:
195,92,253107,1,0,0:0:0:0:
286,273,253265,6,0,P|342:294|387:281,1,85
419,155,253739,2,0,P|425:241|336:292,1,170
343,198,254212,1,0,0:0:0:0:
441,360,254370,1,0,0:0:0:0:
180,183,254528,6,0,B|184:204|176:223|176:223|178:236|184:248|184:248|177:267|176:286,1,102,2|0,0:0|0:0,0:0:0:0:
