osu file format v14

[General]
AudioFilename: audio.mp3
AudioLeadIn: 0
PreviewTime: 181555
Countdown: 0
SampleSet: Soft
StackLeniency: 0.9
Mode: 0
LetterboxInBreaks: 0
WidescreenStoryboard: 1

[Editor]
DistanceSpacing: 0.4
BeatDivisor: 4
GridSize: 32
TimelineZoom: 1.5

[Metadata]
Title:Realize
TitleUnicode:Realize
Artist:Suzuki Konomi
ArtistUnicode:鈴木このみ
Creator:iljaaz
Version:Wish
Source:Re:ゼロから始める異世界生活
Tags:Re: Life in a different world from Shizuku- 2nd Season Re:Zero starting another konomin opening op full ver version theme song anime japanese サテラ satella テレシア ヴァン アストレア theresia van astrea zero kara hajimeru isekai seikatsu rezero fuju kazato asa rock j-rock jrock kazato_asa
BeatmapID:2586211
BeatmapSetID:1244105

[Difficulty]
HPDrainRate:6
CircleSize:4.2
OverallDifficulty:8.7
ApproachRate:9.3
SliderMultiplier:1.74
SliderTickRate:1

[Events]
//Background and Video events
0,0,"cutie.jpg",0,0
//Break Periods
2,15583,21408
2,182210,190948
//Storyboard Layer 0 (Background)
//Storyboard Layer 1 (Fail)
//Storyboard Layer 2 (Pass)
//Storyboard Layer 3 (Foreground)
//Storyboard Layer 4 (Overlay)
//Storyboard Sound Samples

[TimingPoints]
468,291.26213592233,4,2,4,35,1,0
468,-135.135135135135,4,2,4,35,0,0
4545,-294.117647058823,4,2,4,35,0,0
5128,-106.382978723404,4,2,4,55,0,0
22895,-87.7192982456139,4,2,4,55,0,0
23186,-87.7192982456139,4,2,4,65,0,0
23768,-96.1538461538461,4,2,4,65,0,0
33089,-119.047619047619,4,2,4,55,0,0
43574,-227.272727272727,4,2,4,55,0,0
47069,-96.1538461538461,4,2,4,65,0,0
49400,-80.6451612903226,4,2,4,65,0,0
55807,-227.272727272727,4,2,4,65,0,0
56171,-227.272727272727,4,2,4,5,0,0
56244,-80.6451612903225,4,2,4,80,0,0
78379,-80.6451612903225,4,2,4,5,0,0
79254,-80.6451612903225,4,2,4,45,0,0
79618,-80.6451612903225,4,2,4,5,0,0
79691,-106.382978723404,4,2,4,70,0,0
87773,-106.382978723404,4,2,4,5,0,0
87992,-106.382978723404,4,2,4,70,0,0
89011,-119.047619047619,4,2,4,55,0,0
95710,-96.1538461538461,4,2,4,55,0,0
98332,-96.1538461538461,4,2,4,65,0,0
105832,-96.1538461538461,4,2,4,5,0,0
106050,-96.1538461538461,4,2,4,65,0,0
106123,-96.1538461538461,4,2,4,5,0,0
106341,-96.1538461538461,4,2,4,65,0,0
107652,-96.1538461538461,4,2,4,60,0,0
109400,-156.25,4,2,4,60,0,0
111147,-96.1538461538461,4,2,4,60,0,0
117555,-227.272727272727,4,2,4,60,0,0
120322,-227.272727272727,4,2,4,65,0,0
120467,-80.6451612903225,4,2,4,65,0,0
121633,-96.1538461538461,4,2,4,65,0,0
123963,-87.719298245614,4,2,4,65,0,0
126293,-80.6451612903226,4,2,4,65,0,0
131972,-80.6451612903225,4,2,4,80,0,0
154180,-80.6451612903225,4,2,4,5,0,0
155128,-106.382978723404,4,2,4,55,0,0
155346,-106.382978723404,4,2,4,5,0,0
155419,-156.25,4,2,4,45,0,0
174060,-227.272727272727,4,2,4,45,0,0
179885,-227.272727272727,4,2,4,5,0,0
191535,-185.185185185185,4,2,4,40,0,0
207701,-106.382978723404,4,2,4,75,0,0
208283,-106.382978723404,4,2,4,5,0,0
208429,-185.185185185184,4,2,4,75,0,0
208865,-185.185185185184,4,2,4,5,0,0
209011,-185.185185185184,4,2,4,75,0,0
209447,-185.185185185184,4,2,4,5,0,0
209594,-185.185185185184,4,2,4,75,0,0
209885,-185.185185185184,4,2,4,5,0,0
210031,-96.153846153846,4,2,4,75,0,0
211924,-294.117647058824,4,2,4,75,0,0
212288,-294.117647058824,4,2,4,5,0,0
212361,-80.6451612903226,4,2,4,85,0,0
217021,-80.6451612903226,4,2,4,85,0,1
221827,-80.6451612903226,4,2,4,85,0,0
229691,-80.6451612903226,4,2,4,55,0,0
229836,-80.6451612903226,4,2,4,5,0,0
230710,-80.6451612903226,4,2,4,55,0,0
231147,-106.382978723404,4,2,4,70,0,0
239229,-106.382978723404,4,2,4,5,0,0

[Colours]
Combo1 : 188,255,121
Combo2 : 255,0,0
Combo3 : 227,89,55
Combo4 : 130,255,255

[HitObjects]
449,346,468,6,0,L|462:281,2,64.3800015717774,2|2|2,2:0|2:0|2:0,2:0:0:0:
309,239,904,2,0,P|327:202|409:211,1,128.760003143555,2|2,2:0|2:0,2:0:0:0:
287,325,1341,1,2,2:0:0:0:
357,365,1487,6,0,L|286:349,1,64.3800015717774,2|2,2:0|2:0,2:0:0:0:
221,241,1778,1,2,2:0:0:0:
155,281,1924,2,0,L|225:265,1,64.3800015717774,2|2,2:0|2:0,2:0:0:0:
333,159,2215,2,0,L|323:85,2,64.3800015717774,2|2|2,2:0|2:0|2:0,2:0:0:0:
166,28,2798,6,0,L|80:7,1,64.3800015717774,2|2,2:0|2:0,2:0:0:0:
177,103,3089,1,2,2:0:0:0:
38,212,3234,2,0,P|60:179|152:194,1,128.760003143555,2|2,2:0|2:0,2:0:0:0:
232,289,3671,2,0,L|220:361,1,64.3800015717774,2|2,2:0|2:0,2:0:0:0:
160,384,3963,1,2,2:0:0:0:
319,271,4108,6,0,L|309:197,1,64.3800015717774,2|2,2:0|2:0,2:0:0:0:
246,172,4400,1,2,2:0:0:0:
454,331,4545,6,0,P|486:301|476:242,1,103.530000631897,8|0,3:0|2:0,2:0:0:0:
464,170,5128,6,0,B|376:157|395:223|297:205,3,163.559997504273,4|0|0|0,3:2|3:2|3:2|3:2,2:0:0:0:
67,69,6293,6,0,P|103:28|176:43,1,122.669998128204,2|0,3:2|2:0,2:0:0:0:
222,85,6584,2,0,L|205:181,1,81.7799987521363,0|0,3:2|2:0,2:0:0:0:
298,343,6875,6,0,P|334:384|407:369,1,122.669998128204,2|0,3:2|2:0,2:0:0:0:
453,327,7166,2,0,L|436:231,1,81.7799987521363,0|0,3:2|2:0,2:0:0:0:
232,245,7458,6,0,B|188:235|156:267|156:267|134:314|70:307,1,163.559997504273,4|0,3:2|3:2,2:0:0:0:
91,231,7895,1,2,2:0:0:0:
218,324,8040,2,0,P|259:331|308:347,1,81.7799987521363,0|0,3:2|2:0,2:0:0:0:
207,165,8332,2,0,P|249:159|293:147,1,81.7799987521363,0|0,3:2|2:0,2:0:0:0:
186,247,8623,5,2,3:2:0:0:
357,92,8768,2,0,P|407:145|381:242,1,163.559997504273,2|0,2:0|2:0,2:0:0:0:
237,80,9205,2,0,P|243:40|249:-7,1,81.7799987521363,0|0,3:2|2:0,2:0:0:0:
93,146,9497,2,0,P|52:156|3:178,1,81.7799987521363,0|0,3:2|2:0,2:0:0:0:
219,324,9788,6,0,B|291:320|266:365|363:357,1,122.669998128204,4|0,3:2|2:0,2:0:0:0:
356,340,10079,1,0,3:2:0:0:
329,270,10225,1,0,3:2:0:0:
393,228,10370,5,0,3:2:0:0:
423,120,10516,1,0,3:2:0:0:
291,14,10662,5,0,3:2:0:0:
342,153,10807,1,0,3:2:0:0:
425,3,10953,5,0,3:2:0:0:
258,100,11099,1,0,3:2:0:0:
393,228,11244,5,0,3:2:0:0:
511,264,11390,1,0,3:2:0:0:
334,357,11535,5,0,3:2:0:0:
468,185,11681,1,0,3:2:0:0:
258,100,11827,5,0,3:2:0:0:
321,276,11972,1,0,3:2:0:0:
432,95,12118,5,8,3:2:0:0:
168,226,12264,1,8,3:2:0:0:
204,159,12555,1,8,3:2:0:0:
271,194,12846,1,8,3:2:0:0:
234,263,13137,1,8,3:2:0:0:
302,51,13429,5,0,3:2:0:0:
302,51,13501,1,0,3:2:0:0:
302,51,13574,6,0,B|327:85|303:119|303:119|285:129|285:129|259:163|275:204,1,163.559997504273,12|8,2:0|3:0,2:0:0:0:
396,325,14011,1,8,3:0:0:0:
418,255,14157,1,0,3:2:0:0:
300,369,14302,1,0,3:2:0:0:
230,283,14448,5,2,3:2:0:0:
318,243,22749,5,0,3:2:0:0:
492,288,22895,2,0,B|447:243|394:270|394:270|373:322|322:321,1,198.359997578613,12|8,2:0|2:0,2:0:0:0:
318,243,23259,5,10,2:0:0:0:
363,241,23332,1,8,2:0:0:0:
404,275,23404,1,8,2:0:0:0:
411,321,23477,2,0,L|398:380,1,49.5899993946533,8|8,2:0|2:0,2:0:0:0:
206,231,23623,1,8,2:0:0:0:
206,231,23696,1,8,2:0:0:0:
206,231,23768,6,0,L|221:129,1,90.4799994477539,4|0,3:2|3:2,2:0:0:0:
410,23,24060,2,0,B|370:10|346:49|346:49|367:118,1,135.719999171631,10|0,2:0|2:0,2:0:0:0:
425,153,24351,1,2,3:2:0:0:
311,34,24497,1,2,3:2:0:0:
480,83,24642,1,8,2:0:0:0:
355,197,24788,1,2,2:0:0:0:
355,197,24861,1,2,2:0:0:0:
355,197,24934,6,0,L|337:296,1,90.4799994477539,2|0,3:2|3:2,2:0:0:0:
185,383,25225,2,0,B|165:362|131:365|131:365|258:340,1,180.959998895508,10|2,2:0|3:2,2:0:0:0:
97,235,25662,1,2,3:2:0:0:
219,141,25807,2,0,L|208:209,2,45.239999723877,8|0|2,2:0|2:0|2:0,2:0:0:0:
164,54,26099,6,0,P|93:39|38:119,1,180.959998895508,2|10,3:2|2:0,2:0:0:0:
230,0,26535,1,2,2:0:0:0:
42,125,26681,2,0,L|141:149,1,90.4799994477539,2|0,3:2|3:2,2:0:0:0:
48,15,26972,1,8,2:0:0:0:
211,185,27118,6,0,B|147:161|147:161|102:229|169:280,1,180.959998895508,2|0,2:0|3:2,2:0:0:0:
304,101,27555,1,8,2:0:0:0:
448,194,27701,1,0,3:2:0:0:
421,219,27773,1,0,3:2:0:0:
384,208,27846,2,0,L|372:142,1,45.239999723877,8|8,2:0|2:0,2:0:0:0:
272,287,27992,1,8,3:0:0:0:
272,287,28065,1,8,3:0:0:0:
272,287,28137,2,0,B|303:274|332:299|332:299|353:348|417:340,1,135.719999171631,4|0,3:2|2:0,2:0:0:0:
410,327,28429,5,6,3:2:0:0:
211,185,28574,2,0,L|219:134,1,45.239999723877,2|0,2:0|2:0,2:0:0:0:
23,345,28720,2,0,P|70:348|107:303,1,90.4799994477539,10|0,2:0|2:0,2:0:0:0:
304,101,29011,2,0,B|200:81|234:159|117:133,1,180.959998895508,2|10,3:2|2:0,2:0:0:0:
272,287,29448,1,2,2:0:0:0:
189,269,29594,6,0,P|237:265|278:295,1,90.4799994477539,2|0,3:2|3:2,2:0:0:0:
492,141,29885,2,0,B|428:117|428:117|376:133|399:175,1,135.719999171631,8|0,2:0|2:0,2:0:0:0:
460,210,30176,1,0,3:2:0:0:
377,45,30322,2,0,L|388:-10,1,45.239999723877,2|0,3:2|2:0,2:0:0:0:
219,137,30467,1,8,2:0:0:0:
161,82,30613,1,2,2:0:0:0:
258,1,30759,5,4,3:2:0:0:
64,187,30904,2,0,P|108:184|153:140,1,90.4799994477539,2|8,3:2|2:0,2:0:0:0:
383,324,31196,2,0,P|329:276|258:296,1,135.719999171631,2|0,2:0|2:0,2:0:0:0:
231,352,31487,1,0,3:2:0:0:
460,210,31633,1,8,2:0:0:0:
231,352,31778,6,0,B|283:368|308:326|308:326|277:208,1,180.959998895508,4|8,3:2|2:0,2:0:0:0:
161,82,32215,1,8,2:0:0:0:
359,147,32361,1,0,3:2:0:0:
356,164,32434,1,0,3:2:0:0:
352,178,32506,5,8,3:2:0:0:
184,269,32652,1,0,3:2:0:0:
333,334,32798,6,0,B|414:342|380:384|464:386,1,135.719999171631,2|0,3:2|2:0,2:0:0:0:
451,308,33089,6,0,P|406:286|332:334,1,146.159995539551,6|0,3:2|3:2,2:0:0:0:
211,185,33526,1,0,2:0:0:0:
27,335,33671,2,0,B|107:309|107:309|91:339|93:370,1,146.159995539551,4|2,3:2|3:2,2:0:0:0:
0,250,34108,1,2,3:2:0:0:
174,362,34254,6,0,L|251:381,1,73.0799977697755,14|0,2:0|3:2,2:0:0:0:
332,333,34545,1,0,3:2:0:0:
209,186,34691,6,0,P|185:217|194:266,1,73.0799977697755,2|4,2:0|3:2,2:0:0:0:
379,135,34982,2,0,L|293:111,1,73.0799977697755,2|0,2:0|3:2,2:0:0:0:
403,229,35273,1,2,2:0:0:0:
238,74,35419,6,0,B|262:39|311:49|311:49|324:88|367:107,1,146.159995539551,4|2,3:2|3:2,2:0:0:0:
185,249,36001,6,0,L|95:269,1,73.0799977697755,6|0,3:2|2:0,2:0:0:0:
269,366,36293,1,2,3:2:0:0:
199,341,36438,1,2,3:2:0:0:
349,174,36584,5,12,2:0:0:0:
403,229,36730,1,0,3:2:0:0:
371,291,36875,1,2,3:2:0:0:
121,85,37167,6,0,L|139:0,1,73.0799977697755,14|0,2:0|3:2,2:0:0:0:
34,126,37458,1,2,3:2:0:0:
209,54,37603,1,2,3:2:0:0:
128,0,37749,6,0,L|111:84,1,73.0799977697755,4|0,3:2|3:2,2:0:0:0:
241,207,38040,1,0,3:2:0:0:
38,368,38332,5,12,2:0:0:0:
174,327,38477,2,0,B|97:321|117:378|15:366,1,146.159995539551,0|0,3:2|3:2,2:0:0:0:
159,239,38914,5,6,2:0:0:0:
294,358,39060,1,0,3:2:0:0:
225,384,39205,1,0,3:2:0:0:
357,196,39497,6,0,P|402:185|442:240,1,109.619996654663,14|0,2:0|2:0,2:0:0:0:
493,281,39788,2,0,L|477:362,1,73.0799977697755,0|0,3:2|2:0,2:0:0:0:
357,196,40079,5,6,3:2:0:0:
509,130,40225,1,0,3:2:0:0:
452,73,40370,2,0,L|373:51,1,73.0799977697755,0|0,3:2|2:0,2:0:0:0:
512,202,40662,1,12,2:0:0:0:
345,288,40807,1,0,3:2:0:0:
83,56,41099,6,0,B|138:33|138:33|115:135,1,146.159995539551,0|0,3:2|3:2,2:0:0:0:
240,264,41535,2,0,P|182:270|157:206,1,109.619996654663,0|0,3:2|2:0,2:0:0:0:
94,185,41827,1,8,3:0:0:0:
222,129,41972,1,8,3:0:0:0:
283,181,42118,5,8,3:0:0:0:
398,231,42264,1,8,3:0:0:0:
474,200,42409,5,2,2:0:0:0:
474,200,42992,5,2,2:0:0:0:
272,333,43283,1,2,2:0:0:0:
335,384,43574,6,0,P|372:352|344:284,2,114.840003504639,2|2|2,2:0|2:0|2:0,2:0:0:0:
163,202,44739,2,0,L|183:77,1,114.840003504639,2|2,2:0|2:0,2:0:0:0:
21,291,45613,1,2,2:0:0:0:
179,88,45904,6,0,P|145:87|105:60,1,76.5600023364259,2|2,2:0|2:0,2:0:0:0:
274,244,46487,2,0,P|313:240|348:220,1,76.5600023364259,2|8,2:0|3:0,2:0:0:0:
161,368,47069,6,0,B|149:314|149:314|179:263|179:263|162:192,1,180.959998895508,6|0,3:2|3:2,2:0:0:0:
223,149,47506,1,0,3:2:0:0:
341,281,47652,1,2,3:2:0:0:
276,246,47798,1,0,3:2:0:0:
431,110,47943,1,0,3:2:0:0:
449,179,48089,1,0,3:2:0:0:
293,58,48234,5,2,3:2:0:0:
365,33,48380,1,0,3:2:0:0:
276,246,48526,1,0,3:2:0:0:
341,281,48671,1,0,3:2:0:0:
223,149,48817,2,0,P|161:142|118:205,1,135.719999171631,2|0,3:2|2:0,2:0:0:0:
70,253,49108,1,0,3:2:0:0:
42,64,49400,6,0,B|104:43|164:87|121:108|172:162|234:147,1,215.759991440186,4|0,3:2|3:2,2:0:0:0:
118,194,49836,1,0,3:2:0:0:
255,314,49982,5,0,3:2:0:0:
276,246,50128,1,2,3:2:0:0:
411,142,50273,5,2,3:2:0:0:
437,213,50419,1,2,3:2:0:0:
302,74,50565,5,2,3:2:0:0:
512,188,50710,1,8,2:0:0:0:
255,314,50856,2,0,P|305:298|361:355,1,107.879995720093,8|0,2:0|3:2,2:0:0:0:
413,367,51074,1,0,3:2:0:0:
419,381,51147,5,12,2:0:0:0:
356,201,51293,1,0,3:2:0:0:
161,352,51438,5,2,3:2:0:0:
198,237,51584,1,0,3:2:0:0:
297,384,51730,5,12,2:0:0:0:
103,203,51875,1,0,3:2:0:0:
253,135,52021,1,0,3:2:0:0:
67,322,52167,5,12,2:0:0:0:
155,110,52312,2,0,L|145:56,2,53.9399978600465,0|0|0,3:2|3:2|3:2,2:0:0:0:
306,243,52603,2,0,B|365:260|365:260|385:297|385:297|458:316,1,161.819993580139,12|0,2:0|2:0,2:0:0:0:
461,338,52895,6,0,P|473:314|465:275,1,53.9399978600465,0|0,3:2|2:0,2:0:0:0:
339,167,53040,1,14,2:0:0:0:
161,352,53186,1,0,3:2:0:0:
306,243,53332,1,0,3:2:0:0:
155,110,53477,5,12,2:0:0:0:
285,333,53623,1,0,3:2:0:0:
460,131,53768,6,0,P|402:105|339:182,1,161.819993580139,10|0,2:0|2:0,2:0:0:0:
390,227,54060,1,6,3:2:0:0:
398,240,54351,5,2,3:2:0:0:
237,154,54497,1,0,3:2:0:0:
86,384,54642,5,8,2:0:0:0:
282,253,54788,1,8,2:0:0:0:
87,220,54934,5,8,2:0:0:0:
361,384,55079,1,12,2:0:0:0:
474,68,55807,6,0,P|456:38|458:73,1,95.7000029205323,8|0,3:0|2:0,2:0:0:0:
462,56,56244,6,0,B|408:29|361:71|361:71|336:140|262:120,1,215.759991440186,6|0,3:2|2:0,2:0:0:0:
88,299,56681,2,0,B|134:297|165:251|165:251|161:294|194:325,1,161.819993580139,8|0,2:0|2:0,2:0:0:0:
250,349,56972,1,2,3:2:0:0:
84,208,57118,2,0,L|100:144,2,53.9399978600465,2|2|8,2:0|2:0|2:0,2:0:0:0:
19,252,57409,1,0,2:0:0:0:
156,74,57555,6,0,P|95:132|10:97,1,161.819993580139,2|0,3:2|2:0,2:0:0:0:
0,47,57846,1,8,2:0:0:0:
186,173,57992,1,0,2:0:0:0:
250,117,58137,5,2,3:2:0:0:
389,59,58283,1,0,3:2:0:0:
295,9,58429,1,8,2:0:0:0:
418,141,58574,1,2,2:0:0:0:
418,141,58647,1,2,2:0:0:0:
418,141,58720,6,0,L|437:258,1,107.879995720093,0|0,3:2|2:0,2:0:0:0:
257,382,59011,2,0,B|196:364|196:364|162:332|176:282|217:287,1,161.819993580139,10|0,2:0|2:0,2:0:0:0:
250,224,59302,1,0,3:2:0:0:
393,333,59448,1,0,2:0:0:0:
435,247,59594,5,10,2:0:0:0:
313,328,59739,1,2,2:0:0:0:
250,224,59885,5,2,3:2:0:0:
115,163,60031,1,2,2:0:0:0:
319,120,60176,5,8,2:0:0:0:
143,242,60322,1,2,2:0:0:0:
313,328,60467,6,0,L|333:212,1,107.879995720093,2|2,3:2|3:2,2:0:0:0:
153,73,60759,1,8,2:0:0:0:
19,244,60904,6,0,B|75:212|122:258|122:258|147:333|218:316,1,215.759991440186,4|0,3:2|3:2,2:0:0:0:
319,120,61341,2,0,L|187:153,1,107.879995720093,10|0,2:0|2:0,2:0:0:0:
379,350,61633,1,0,3:2:0:0:
284,305,61778,1,0,2:0:0:0:
442,185,61924,5,10,2:0:0:0:
465,254,62069,1,2,2:0:0:0:
319,120,62215,5,2,3:2:0:0:
454,5,62361,2,0,P|415:39|349:33,1,107.879995720093,2|8,3:2|2:0,2:0:0:0:
231,171,62652,2,0,B|261:132|312:134|312:134|288:165|291:212,1,161.819993580139,2|0,2:0|2:0,2:0:0:0:
368,185,62943,1,2,3:2:0:0:
192,59,63089,1,8,2:0:0:0:
319,120,63234,6,0,B|210:100|239:210|111:181,1,215.759991440186,4|2,3:2|3:2,2:0:0:0:
51,355,63671,2,0,B|32:339|3:342|3:342|124:316,1,161.819993580139,10|0,2:0|2:0,2:0:0:0:
184,302,63963,1,0,3:2:0:0:
60,131,64108,2,0,P|47:158|45:194,1,53.9399978600465,0|0,3:2|3:2,2:0:0:0:
188,377,64254,1,8,2:0:0:0:
427,204,64400,6,0,P|359:173|299:283,1,215.759991440186,4|8,3:2|3:2,2:0:0:0:
89,24,64836,2,0,L|203:62,1,107.879995720093,8|0,2:0|3:2,2:0:0:0:
258,85,65055,1,0,3:2:0:0:
277,92,65128,1,10,2:0:0:0:
89,246,65273,1,2,3:2:0:0:
153,128,65419,5,8,2:0:0:0:
294,273,65565,2,0,B|207:264|230:339|107:323,1,161.819993580139,6|0,3:2|2:0,2:0:0:0:
88,379,65856,5,0,3:2:0:0:
294,273,66001,2,0,P|324:323|305:378,1,107.879995720093,8|0,2:0|2:0,2:0:0:0:
162,217,66293,2,0,L|194:40,1,161.819993580139,2|0,3:2|2:0,2:0:0:0:
214,38,66584,2,0,L|194:151,1,107.879995720093,8|0,2:0|2:0,2:0:0:0:
22,302,66875,6,0,P|-5:255|19:204,1,107.879995720093,2|0,3:2|2:0,2:0:0:0:
283,354,67167,2,0,P|232:364|172:387,1,107.879995720093,8|0,2:0|2:0,2:0:0:0:
334,200,67458,1,2,3:2:0:0:
269,173,67603,1,0,2:0:0:0:
374,298,67749,1,8,2:0:0:0:
474,177,67895,1,2,2:0:0:0:
474,177,67967,1,2,2:0:0:0:
474,177,68040,6,0,P|462:119|456:58,1,107.879995720093,2|2,3:2|2:0,2:0:0:0:
230,242,68332,2,0,P|246:159|252:72,1,161.819993580139,10|0,2:0|2:0,2:0:0:0:
306,30,68623,1,0,3:2:0:0:
412,230,68768,1,0,2:0:0:0:
472,64,68914,2,0,P|478:117|489:170,1,107.879995720093,10|0,2:0|2:0,2:0:0:0:
331,283,69205,6,0,P|404:261|460:321,1,161.819993580139,2|0,3:2|2:0,2:0:0:0:
512,363,69497,1,10,2:0:0:0:
327,197,69642,1,2,2:0:0:0:
308,174,69715,1,2,2:0:0:0:
320,143,69788,1,0,3:2:0:0:
412,230,69934,1,0,3:2:0:0:
213,384,70079,2,0,P|164:368|104:354,1,107.879995720093,10|8,2:0|2:0,2:0:0:0:
68,289,70298,1,8,2:0:0:0:
54,300,70370,6,0,P|122:331|185:262,1,161.819993580139,4|0,3:2|2:0,2:0:0:0:
231,219,70662,1,10,2:0:0:0:
70,92,70807,1,2,2:0:0:0:
123,37,70953,2,0,L|241:12,1,107.879995720093,0|0,3:2|2:0,2:0:0:0:
30,189,71244,1,10,2:0:0:0:
181,280,71390,1,0,2:0:0:0:
54,300,71535,5,2,3:2:0:0:
267,150,71681,2,0,P|227:179|171:176,1,107.879995720093,2|8,2:0|2:0,2:0:0:0:
365,364,71972,1,0,2:0:0:0:
261,335,72118,6,0,L|380:368,1,107.879995720093,2|0,3:2|2:0,2:0:0:0:
512,215,72409,2,0,B|484:177|436:188|436:188|422:231|367:242,1,161.819993580139,10|0,2:0|2:0,2:0:0:0:
314,215,72701,5,0,3:2:0:0:
481,0,72846,2,0,L|496:68,1,53.9399978600465,0|0,3:2|3:2,2:0:0:0:
510,125,72992,1,12,2:0:0:0:
361,41,73137,1,0,2:0:0:0:
440,185,73283,6,0,L|458:307,1,107.879995720093,2|0,3:2|3:2,2:0:0:0:
290,384,73574,2,0,B|275:364|245:362|245:362|376:345,1,161.819993580139,12|0,2:0|2:0,2:0:0:0:
429,372,73866,5,2,3:2:0:0:
257,250,74011,1,0,3:2:0:0:
440,185,74157,1,8,2:0:0:0:
354,347,74302,1,0,3:2:0:0:
257,250,74448,6,0,L|278:126,1,107.879995720093,2|0,2:0|3:2,2:0:0:0:
333,95,74667,1,0,3:2:0:0:
333,95,74739,2,0,P|291:45|190:72,1,161.819993580139,12|0,2:0|3:2,2:0:0:0:
132,85,75031,5,12,2:0:0:0:
257,250,75176,1,0,3:2:0:0:
88,338,75322,1,0,3:2:0:0:
242,138,75467,5,12,2:0:0:0:
52,232,75613,2,0,L|-24:248,1,53.9399978600465,0|0,3:2|3:2,2:0:0:0:
200,384,75759,1,0,3:2:0:0:
163,163,75904,6,0,L|138:284,1,107.879995720093,12|0,2:0|3:2,2:0:0:0:
61,122,76196,1,0,3:2:0:0:
358,251,76341,6,0,L|471:222,1,107.879995720093,14|0,2:0|3:2,2:0:0:0:
322,348,76633,1,0,3:2:0:0:
486,218,76778,5,14,2:0:0:0:
242,138,76924,1,0,3:2:0:0:
400,46,77069,5,14,2:0:0:0:
265,269,77215,1,0,3:2:0:0:
478,126,77361,5,14,2:0:0:0:
299,10,77506,2,0,L|314:83,1,53.9399978600465,0|0,3:2|3:2,2:0:0:0:
193,217,77652,1,0,3:2:0:0:
193,217,77725,1,0,3:2:0:0:
193,217,77798,6,0,L|121:235,1,53.9399978600465,14|0,3:2|3:2,2:0:0:0:
322,348,77943,2,0,L|380:364,1,53.9399978600465,0|0,3:2|3:2,2:0:0:0:
320,169,78089,5,2,3:2:0:0:
100,372,78234,2,0,L|218:336,1,107.879995720093,14|0,2:0|2:0,2:0:0:0:
106,378,79254,5,0,3:2:0:0:
106,378,79327,1,0,3:2:0:0:
106,378,79400,6,0,B|133:383|154:359|154:359|33:335,1,161.819993580139,8|0,0:0|2:0,2:0:0:0:
0,270,79691,6,0,L|91:248,1,81.7799987521363,6|2,3:2|2:0,2:0:0:0:
209,105,79982,2,0,L|112:82,1,81.7799987521363,10|2,2:0|2:0,2:0:0:0:
269,278,80273,1,2,3:2:0:0:
320,218,80419,2,0,L|302:124,1,81.7799987521363,2|8,2:0|2:0,2:0:0:0:
196,246,80710,1,2,2:0:0:0:
314,350,80856,6,0,P|355:361|406:378,1,81.7799987521363,2|2,3:2|2:0,2:0:0:0:
196,246,81147,2,0,B|174:281|174:281|189:334,1,81.7799987521363,10|2,2:0|2:0,2:0:0:0:
342,201,81438,1,2,3:2:0:0:
209,105,81584,1,2,2:0:0:0:
381,129,81730,5,10,2:0:0:0:
196,246,81875,1,2,2:0:0:0:
314,350,82021,6,0,L|303:257,1,81.7799987521363,2|0,3:2|2:0,2:0:0:0:
163,27,82312,2,0,P|116:53|127:126,1,122.669998128204,10|0,2:0|2:0,2:0:0:0:
68,172,82603,1,2,3:2:0:0:
256,38,82749,2,0,P|299:29|353:13,1,81.7799987521363,2|8,2:0|2:0,2:0:0:0:
478,143,83040,1,2,2:0:0:0:
478,46,83186,6,0,P|452:76|467:128,1,81.7799987521363,2|0,3:2|2:0,2:0:0:0:
304,268,83477,2,0,L|400:295,1,81.7799987521363,10|0,2:0|2:0,2:0:0:0:
251,161,83768,1,2,3:2:0:0:
351,113,83914,1,2,2:0:0:0:
223,349,84060,5,10,2:0:0:0:
187,328,84133,1,8,2:0:0:0:
180,289,84205,1,10,2:0:0:0:
208,254,84278,1,8,2:0:0:0:
225,271,84351,6,0,P|167:291|116:234,1,122.669998128204,6|0,3:2|2:0,2:0:0:0:
58,214,84642,2,0,L|73:116,1,81.7799987521363,10|2,2:0|2:0,2:0:0:0:
239,40,84934,1,2,3:2:0:0:
149,0,85079,2,0,L|163:100,1,81.7799987521363,2|8,2:0|2:0,2:0:0:0:
331,191,85370,1,2,2:0:0:0:
225,271,85516,6,0,P|223:313|212:367,1,81.7799987521363,2|0,3:2|2:0,2:0:0:0:
411,136,85807,2,0,P|420:172|424:230,1,81.7799987521363,10|0,2:0|2:0,2:0:0:0:
257,63,86099,1,2,3:2:0:0:
397,4,86244,1,2,2:0:0:0:
462,67,86390,5,10,2:0:0:0:
310,0,86535,1,2,2:0:0:0:
180,162,86681,6,0,B|137:172|137:172|119:191|119:191|46:208,1,122.669998128204,4|0,3:2|2:0,2:0:0:0:
20,257,86972,1,0,3:2:0:0:
10,263,87045,2,0,P|6:241|0:217,1,40.8899993760681,0|8,3:2|3:0,2:0:0:0:
116,75,87191,1,8,3:0:0:0:
120,63,87264,5,8,2:0:0:0:
265,251,87409,1,8,2:0:0:0:
265,251,87701,6,0,L|251:305,1,40.8899993760681,12|0,2:0|2:0,2:0:0:0:
355,143,87992,5,8,2:0:0:0:
182,239,88137,1,8,2:0:0:0:
375,375,88283,1,0,3:2:0:0:
375,375,88356,1,0,3:2:0:0:
375,375,88429,5,8,3:2:0:0:
291,253,88574,1,8,2:0:0:0:
429,203,88720,5,8,2:0:0:0:
483,68,88866,1,8,2:0:0:0:
415,8,89011,6,0,L|326:29,1,73.0799977697755,4|0,3:2|2:0,2:0:0:0:
429,203,89302,2,0,L|511:228,1,73.0799977697755,2|2,3:2|2:0,2:0:0:0:
450,132,89594,1,2,3:2:0:0:
291,253,89739,2,0,L|274:342,1,73.0799977697755,2|0,2:0|3:2,2:0:0:0:
373,264,90031,1,10,2:0:0:0:
271,140,90176,6,0,P|232:133|180:113,1,73.0799977697755,0|0,3:2|2:0,2:0:0:0:
64,293,90467,2,0,P|102:277|151:264,1,73.0799977697755,0|0,3:2|2:0,2:0:0:0:
38,98,90759,1,8,3:0:0:0:
10,168,90904,1,8,3:0:0:0:
179,96,91050,1,8,3:0:0:0:
69,18,91196,1,8,2:0:0:0:
197,201,91341,6,0,P|236:211|274:225,1,73.0799977697755,4|0,3:2|2:0,2:0:0:0:
445,27,91633,2,0,P|388:9|329:80,1,146.159995539551,2|0,3:2|3:2,2:0:0:0:
467,200,92069,1,0,2:0:0:0:
354,272,92215,2,0,L|366:190,1,73.0799977697755,2|8,3:2|3:2,2:0:0:0:
499,352,92506,6,0,P|439:363|407:323,1,109.619996654663,6|0,3:2|2:0,2:0:0:0:
354,272,92798,1,0,3:2:0:0:
330,63,93089,6,0,P|298:41|247:44,1,73.0799977697755,2|0,3:2|2:0,2:0:0:0:
111,159,93380,1,8,2:0:0:0:
145,93,93526,1,0,2:0:0:0:
235,219,93671,6,0,L|246:367,1,146.159995539551,6|0,3:2|3:2,2:0:0:0:
248,206,94254,6,0,L|253:284,1,73.0799977697755,0|0,3:2|2:0,2:0:0:0:
142,384,94545,1,0,3:2:0:0:
327,237,94691,5,8,2:0:0:0:
225,109,94836,2,0,P|255:128|300:130,1,73.0799977697755,0|0,3:2|2:0,2:0:0:0:
160,247,95128,2,0,L|31:269,1,109.619996654663,2|0,3:2|2:0,2:0:0:0:
23,271,95419,1,2,3:2:0:0:
142,384,95565,1,0,3:2:0:0:
75,164,95710,6,0,B|83:119|83:119|65:83|65:83|82:21,1,135.719999171631,8|0,2:0|2:0,2:0:0:0:
91,5,96001,1,6,3:2:0:0:
221,192,96147,1,0,3:2:0:0:
40,100,96293,1,8,2:0:0:0:
238,0,96438,2,0,L|220:92,2,90.4799994477539,2|2|0,3:2|2:0|3:2,2:0:0:0:
434,148,96875,2,0,P|372:198|317:175,1,135.719999171631,10|0,2:0|2:0,2:0:0:0:
292,116,97167,6,0,L|305:57,1,45.239999723877,8|8,3:0|3:0,2:0:0:0:
429,229,97312,1,8,3:0:0:0:
429,229,97385,1,8,3:0:0:0:
429,229,97458,2,0,L|437:278,1,45.239999723877,4|4,3:0|3:0,2:0:0:0:
283,365,97603,1,8,2:0:0:0:
283,365,97676,1,8,2:0:0:0:
283,365,97749,1,2,2:0:0:0:
305,293,97895,1,0,3:2:0:0:
404,384,98040,5,12,2:0:0:0:
255,226,98186,1,0,3:2:0:0:
149,325,98332,6,0,L|43:355,1,90.4799994477539,12|0,2:0|3:2,2:0:0:0:
255,226,98623,1,2,3:2:0:0:
93,103,98768,5,14,2:0:0:0:
225,298,98914,1,2,3:2:0:0:
80,208,99060,1,0,3:2:0:0:
251,68,99205,5,8,2:0:0:0:
168,187,99351,2,0,L|65:211,1,90.4799994477539,2|0,3:2|3:2,2:0:0:0:
305,293,99642,5,12,2:0:0:0:
177,110,99788,1,2,3:2:0:0:
341,217,99934,1,0,3:2:0:0:
184,370,100079,5,14,2:0:0:0:
308,139,100225,1,2,3:2:0:0:
387,311,100370,5,8,2:0:0:0:
251,68,100516,1,2,3:2:0:0:
387,311,100662,6,0,L|490:340,1,90.4799994477539,14|0,2:0|3:2,2:0:0:0:
341,217,100953,1,2,3:2:0:0:
503,83,101099,6,0,P|465:111|399:104,1,90.4799994477539,12|2,2:0|3:2,2:0:0:0:
512,195,101390,1,0,3:2:0:0:
297,297,101535,5,8,2:0:0:0:
408,97,101681,1,0,3:2:0:0:
436,235,101827,1,0,3:2:0:0:
251,68,101972,5,8,2:0:0:0:
387,311,102118,1,8,2:0:0:0:
194,192,102264,5,0,3:2:0:0:
194,192,102336,1,0,3:2:0:0:
194,192,102409,2,0,L|262:170,1,45.239999723877,8|8,3:0|3:0,2:0:0:0:
358,10,102555,1,0,3:2:0:0:
358,10,102628,1,0,3:2:0:0:
358,10,102701,2,0,L|290:-6,1,45.239999723877,8|0,2:0|2:0,2:0:0:0:
467,160,102846,1,0,3:0:0:0:
467,160,102919,1,0,3:0:0:0:
467,160,102992,5,12,2:0:0:0:
251,68,103137,1,0,3:2:0:0:
438,25,103283,1,2,3:2:0:0:
341,217,103429,6,0,L|327:121,1,90.4799994477539,12|0,2:0|3:2,2:0:0:0:
184,10,103720,1,0,3:2:0:0:
76,148,103866,6,0,L|172:125,1,90.4799994477539,14|2,2:0|3:2,2:0:0:0:
313,0,104157,1,0,3:2:0:0:
415,269,104302,6,0,L|431:159,1,90.4799994477539,12|0,2:0|3:2,2:0:0:0:
482,332,104594,1,0,3:2:0:0:
327,127,104739,6,0,L|339:227,1,90.4799994477539,12|2,2:0|3:2,2:0:0:0:
287,271,104958,1,0,3:2:0:0:
287,271,105031,1,14,2:0:0:0:
403,106,105176,1,0,3:2:0:0:
355,323,105322,5,10,3:2:0:0:
200,183,105467,1,2,3:2:0:0:
226,189,105540,1,0,3:2:0:0:
256,195,105613,1,8,2:0:0:0:
115,324,105759,6,0,L|58:299,1,45.239999723877,4|0,3:2|2:0,2:0:0:0:
236,32,106050,6,0,L|245:97,1,45.239999723877,2|0,3:2|2:0,2:0:0:0:
355,323,106341,6,0,B|383:304|414:303|414:303|279:273,1,180.959998895508,4|8,3:2|2:0,2:0:0:0:
223,267,106705,1,8,3:0:0:0:
205,265,106778,1,0,3:2:0:0:
300,384,106924,1,0,3:2:0:0:
289,150,107069,6,0,P|272:176|272:210,1,60.3199996318359,8|8,2:0|2:0,2:0:0:0:
298,277,107264,1,8,2:0:0:0:
457,171,107361,6,0,L|447:100,1,60.3199996318359,8|8,2:0|2:0,2:0:0:0:
391,59,107555,1,8,2:0:0:0:
289,150,107652,6,0,L|182:175,1,90.4799994477539,6|0,3:2|3:2,2:0:0:0:
371,258,107943,1,0,3:2:0:0:
298,277,108089,1,0,3:2:0:0:
158,35,108380,5,0,3:2:0:0:
220,82,108526,2,0,L|200:174,1,90.4799994477539,0|0,3:2|2:0,2:0:0:0:
64,338,108817,6,0,B|-12:385|-60:260|133:239|86:374|193:347,1,271.439998343262,12|0,2:0|2:0,2:0:0:0:
264,211,109400,2,0,B|211:195|211:195|166:240,1,111.36,6|0,2:0|2:0,2:0:0:0:
357,372,109836,1,0,3:2:0:0:
359,358,109909,1,0,3:2:0:0:
361,343,109982,5,4,3:2:0:0:
271,384,110128,1,0,3:2:0:0:
335,259,110273,5,0,3:2:0:0:
439,318,110419,1,0,3:2:0:0:
335,259,110710,5,0,3:2:0:0:
433,190,110856,2,0,L|445:122,1,55.68,0|0,3:2|2:0,2:0:0:0:
290,0,111147,6,0,P|326:60|435:41,1,180.959998895508,12|0,2:0|3:2,2:0:0:0:
501,86,111511,1,0,3:2:0:0:
501,86,111584,1,0,3:2:0:0:
335,259,111730,2,0,L|226:274,1,90.4799994477539,14|0,2:0|3:2,2:0:0:0:
394,384,112021,1,2,2:0:0:0:
219,275,112167,5,8,2:0:0:0:
328,142,112312,1,4,3:2:0:0:
383,196,112458,1,0,3:2:0:0:
335,259,112603,1,0,3:2:0:0:
328,142,112895,5,12,2:0:0:0:
186,2,113040,2,0,L|170:91,1,90.4799994477539,0|0,3:2|2:0,2:0:0:0:
50,282,113332,2,0,P|7:257|20:172,1,135.719999171631,0|0,3:2|2:0,2:0:0:0:
15,107,113623,1,2,3:2:0:0:
167,254,113768,2,0,L|273:282,1,90.4799994477539,2|2,3:2|2:0,2:0:0:0:
173,384,114060,1,14,2:0:0:0:
248,356,114205,1,0,3:2:0:0:
177,172,114351,2,0,B|153:212|153:212|171:269,1,90.4799994477539,2|0,2:0|3:2,2:0:0:0:
363,357,114642,6,0,L|351:256,2,90.4799994477539,4|0|0,3:2|3:2|3:2,2:0:0:0:
356,368,115225,5,12,2:0:0:0:
512,235,115370,2,0,P|481:208|425:220,1,90.4799994477539,0|2,3:2|2:0,2:0:0:0:
286,47,115662,2,0,L|403:24,1,90.4799994477539,0|4,3:2|2:0,2:0:0:0:
244,150,115953,1,2,3:2:0:0:
352,267,116099,2,0,L|234:241,1,90.4799994477539,2|0,3:2|2:0,2:0:0:0:
363,132,116390,5,8,2:0:0:0:
193,217,116535,1,0,3:2:0:0:
140,153,116681,5,8,3:0:0:0:
36,111,116827,1,8,3:0:0:0:
0,178,116972,5,2,2:0:0:0:
0,178,117555,6,0,L|14:255,1,76.5600023364259,2|2,2:0|2:0,2:0:0:0:
221,384,118137,2,0,P|258:352|242:283,2,114.840003504639,2|2|2,2:0|2:0|2:0,2:0:0:0:
326,173,119302,6,0,L|452:148,1,114.840003504639,2|2,2:0|2:0,2:0:0:0:
482,93,119885,1,0,2:0:0:0:
416,54,120031,1,0,2:0:0:0:
500,193,120176,1,2,2:0:0:0:
358,277,120322,1,0,3:2:0:0:
358,277,120395,1,0,3:2:0:0:
358,277,120467,6,0,L|415:291,1,53.9399978600465,8|8,2:0|2:0,2:0:0:0:
294,152,120613,1,0,3:0:0:0:
294,152,120686,1,0,3:0:0:0:
294,152,120759,2,0,L|231:165,1,53.9399978600465,8|8,3:0|3:0,2:0:0:0:
128,295,120904,1,0,3:2:0:0:
128,295,120977,1,0,3:2:0:0:
128,295,121050,1,8,2:0:0:0:
154,327,121123,1,8,2:0:0:0:
206,339,121196,1,8,2:0:0:0:
245,307,121268,1,8,2:0:0:0:
251,291,121341,6,0,L|242:233,1,53.9399978600465,0|0,3:0|3:0,2:0:0:0:
103,90,121487,2,0,L|92:157,1,53.9399978600465,0|0,3:0|3:0,2:0:0:0:
266,48,121633,6,0,P|320:35|379:86,1,135.719999171631,6|0,3:2|2:0,2:0:0:0:
441,123,121924,2,0,L|422:227,1,90.4799994477539,0|0,3:2|2:0,2:0:0:0:
291,380,122215,2,0,B|272:299|272:299|305:248|373:283,1,180.959998895508,2|8,3:2|2:0,2:0:0:0:
354,285,122798,6,0,P|310:284|283:242,1,90.4799994477539,2|0,3:2|2:0,2:0:0:0:
103,90,123089,1,0,3:2:0:0:
87,163,123234,1,0,2:0:0:0:
238,46,123380,2,0,P|283:37|341:24,1,90.4799994477539,2|8,3:2|2:0,2:0:0:0:
512,174,123671,1,8,2:0:0:0:
485,218,123744,1,8,2:0:0:0:
433,234,123817,1,8,2:0:0:0:
385,214,123890,1,8,2:0:0:0:
373,193,123963,6,0,P|383:144|389:82,1,99.1799987893067,6|8,3:2|2:0,2:0:0:0:
440,41,124181,1,8,2:0:0:0:
454,47,124254,2,0,P|460:70|465:102,1,49.5899993946533,8|8,2:0|2:0,2:0:0:0:
291,256,124400,1,0,3:2:0:0:
291,256,124472,1,0,3:2:0:0:
291,256,124545,2,0,P|241:266|171:289,1,99.1799987893067,8|2,2:0|3:2,2:0:0:0:
124,304,124764,1,0,3:2:0:0:
105,311,124836,5,8,2:0:0:0:
271,384,124982,1,8,2:0:0:0:
148,176,125128,5,4,3:2:0:0:
10,374,125273,1,8,2:0:0:0:
194,279,125419,1,2,2:0:0:0:
36,112,125565,1,0,3:2:0:0:
27,116,125637,1,0,3:2:0:0:
17,120,125710,2,0,P|29:165|41:228,1,99.1799987893067,10|0,2:0|3:2,2:0:0:0:
259,83,126001,2,0,P|245:131|235:188,1,99.1799987893067,2|0,3:2|3:2,2:0:0:0:
82,45,126293,6,0,P|119:2|216:23,1,161.819993580139,12|0,2:0|3:2,2:0:0:0:
259,83,126584,2,0,L|327:102,1,53.9399978600465,0|0,3:2|3:2,2:0:0:0:
467,277,126730,6,0,B|435:243|388:258|388:258|369:306|308:303,1,161.819993580139,12|0,2:0|2:0,2:0:0:0:
315,229,127021,2,0,L|330:162,1,53.9399978600465,0|0,3:2|3:2,2:0:0:0:
177,273,127167,6,0,B|78:240|78:240|99:265|99:300,1,161.819993580139,12|0,2:0|2:0,2:0:0:0:
25,297,127458,2,0,L|8:357,1,53.9399978600465,0|0,3:2|3:2,2:0:0:0:
200,199,127603,6,0,B|216:176|216:176|207:134|207:134|187:116|187:116|176:77|176:77|196:47,1,161.819993580139,12|0,2:0|3:2,2:0:0:0:
254,10,127895,2,0,L|323:27,1,53.9399978600465,0|0,3:2|3:2,2:0:0:0:
125,172,128040,5,12,2:0:0:0:
367,90,128186,1,0,3:2:0:0:
125,172,128332,6,0,B|207:154|187:230|303:211,1,161.819993580139,8|0,2:0|2:0,2:0:0:0:
369,284,128623,6,0,B|323:284|285:232|285:232|295:295|247:343,1,215.759991440186,6|0,3:2|3:2,2:0:0:0:
371,201,129060,1,0,3:2:0:0:
199,274,129205,5,8,3:2:0:0:
414,378,129351,1,8,3:2:0:0:
163,384,129497,5,8,2:0:0:0:
489,257,129642,1,8,2:0:0:0:
489,257,129934,5,12,2:0:0:0:
296,83,130079,1,0,3:2:0:0:
420,37,130225,1,0,3:2:0:0:
199,274,130370,5,12,2:0:0:0:
428,126,130516,1,0,3:2:0:0:
296,83,130662,1,0,3:2:0:0:
381,230,130807,1,0,3:2:0:0:
343,12,130953,5,0,3:2:0:0:
233,149,131099,1,0,3:2:0:0:
277,228,131244,5,0,3:2:0:0:
323,374,131390,1,12,2:0:0:0:
257,337,131535,5,2,2:0:0:0:
127,68,131972,6,0,B|8:104|8:104|-26:53|38:22,1,215.759991440186,6|0,3:2|3:2,2:0:0:0:
211,170,132409,2,0,L|192:289,1,107.879995720093,8|0,2:0|2:0,2:0:0:0:
77,352,132701,2,0,L|15:369,2,53.9399978600465,2|0|0,3:2|3:2|3:2,2:0:0:0:
211,170,132992,6,0,B|252:153|288:179|288:179|322:232|379:217,1,161.819993580139,8|0,2:0|2:0,2:0:0:0:
409,172,133283,2,0,L|400:107,1,53.9399978600465,2|0,3:2|2:0,2:0:0:0:
193,276,133429,1,0,3:2:0:0:
373,381,133574,2,0,B|388:357|422:358|422:358|315:333,1,161.819993580139,8|0,2:0|2:0,2:0:0:0:
258,383,133866,1,2,3:2:0:0:
445,239,134011,1,0,3:2:0:0:
211,170,134157,1,8,2:0:0:0:
319,334,134302,6,0,B|301:261|301:261|331:204|331:204|310:123,1,215.759991440186,6|2,3:2|3:2,2:0:0:0:
138,15,134739,2,0,B|74:40|74:40|40:99|103:127,1,161.819993580139,10|0,2:0|2:0,2:0:0:0:
125,188,135031,1,0,3:2:0:0:
281,51,135176,1,0,3:2:0:0:
178,92,135322,5,10,2:0:0:0:
354,203,135467,1,2,2:0:0:0:
202,326,135613,2,0,L|215:267,2,53.9399978600465,2|2|2,3:2|3:2|3:2,2:0:0:0:
258,383,135904,5,10,2:0:0:0:
207,184,136050,1,2,2:0:0:0:
348,304,136196,5,2,3:2:0:0:
139,380,136341,1,0,3:2:0:0:
348,304,136487,1,10,2:0:0:0:
130,141,136633,6,0,B|183:119|224:156|224:156|264:234|344:207,1,215.759991440186,6|2,3:2|3:2,2:0:0:0:
456,27,137069,2,0,L|332:52,1,107.879995720093,10|0,2:0|2:0,2:0:0:0:
481,225,137361,2,0,P|515:177|486:120,1,107.879995720093,0|0,3:2|3:2,2:0:0:0:
314,213,137652,1,10,2:0:0:0:
424,349,137798,1,2,2:0:0:0:
482,242,137943,5,2,3:2:0:0:
319,342,138089,1,2,3:2:0:0:
261,278,138234,5,10,2:0:0:0:
118,225,138380,1,2,2:0:0:0:
81,294,138526,5,2,3:2:0:0:
314,213,138671,1,0,3:2:0:0:
91,106,138817,1,8,2:0:0:0:
314,213,138963,6,0,B|376:228|418:172|393:178|426:113|509:139,1,215.759991440186,6|2,3:2|3:2,2:0:0:0:
312,34,139400,1,10,2:0:0:0:
474,216,139545,1,0,3:2:0:0:
418,47,139691,1,8,2:0:0:0:
251,130,139836,1,2,3:2:0:0:
314,302,139982,1,8,2:0:0:0:
415,148,140128,6,0,B|299:122|335:234|197:202,1,215.759991440186,4|8,3:2|2:0,2:0:0:0:
418,47,140565,1,8,2:0:0:0:
312,8,140710,1,0,3:2:0:0:
312,8,140783,1,0,3:2:0:0:
312,8,140856,2,0,L|301:77,1,53.9399978600465,10|0,2:0|2:0,2:0:0:0:
444,256,141001,1,2,3:2:0:0:
474,217,141074,1,0,3:2:0:0:
451,178,141147,1,8,2:0:0:0:
185,328,141293,6,0,B|76:360|76:360|14:324|51:278,1,215.759991440186,6|0,3:2|3:2,2:0:0:0:
157,125,141730,2,0,P|225:129|214:208,1,161.819993580139,8|0,2:0|2:0,2:0:0:0:
163,255,142021,1,2,3:2:0:0:
41,120,142167,1,0,3:2:0:0:
179,19,142312,2,0,L|155:130,1,107.879995720093,8|0,2:0|2:0,2:0:0:0:
370,305,142603,6,0,B|392:256|392:256|360:203,1,107.879995720093,2|0,3:2|3:2,2:0:0:0:
185,328,142895,2,0,B|245:337|245:337|269:370|269:370|340:381,1,161.819993580139,8|0,2:0|2:0,2:0:0:0:
404,371,143186,1,2,3:2:0:0:
272,254,143332,1,0,3:2:0:0:
457,165,143477,1,8,2:0:0:0:
370,305,143623,6,0,L|355:117,1,161.819993580139,4|0,3:2|2:0,2:0:0:0:
416,100,143914,1,0,3:2:0:0:
205,28,144060,2,0,B|286:-3|286:-3|252:152,1,215.759991440186,8|0,2:0|3:2,2:0:0:0:
111,242,144497,1,0,3:2:0:0:
90,248,144569,1,0,3:2:0:0:
68,254,144642,1,10,2:0:0:0:
187,329,144788,1,0,2:0:0:0:
21,159,144934,6,0,L|36:102,2,53.9399978600465,2|0|0,3:2|3:2|3:2,2:0:0:0:
205,28,145225,2,0,B|260:38|260:38|283:75|283:75|353:89,1,161.819993580139,10|0,2:0|2:0,2:0:0:0:
414,65,145516,2,0,P|418:96|402:131,1,53.9399978600465,2|0,3:2|2:0,2:0:0:0:
259,211,145662,2,0,P|259:244|274:279,1,53.9399978600465,0|0,3:2|2:0,2:0:0:0:
374,384,145807,1,10,2:0:0:0:
409,351,145880,1,8,2:0:0:0:
413,305,145953,1,8,2:0:0:0:
387,268,146026,1,8,2:0:0:0:
357,257,146099,6,0,B|266:256|303:325|179:314,1,161.819993580139,6|0,3:2|2:0,2:0:0:0:
151,359,146390,1,10,2:0:0:0:
59,194,146535,2,0,L|74:130,2,53.9399978600465,2|2|0,2:0|2:0|3:2,2:0:0:0:
0,239,146827,1,0,2:0:0:0:
194,112,146972,1,10,2:0:0:0:
52,3,147118,6,0,P|98:44|145:37,1,107.879995720093,2|2,2:0|3:2,2:0:0:0:
259,211,147409,1,2,2:0:0:0:
391,104,147555,2,0,L|276:127,1,107.879995720093,8|0,2:0|2:0,2:0:0:0:
459,316,147846,2,0,P|517:262|477:188,1,161.819993580139,2|0,3:2|2:0,2:0:0:0:
471,122,148137,1,10,2:0:0:0:
321,279,148283,1,2,2:0:0:0:
321,279,148356,1,2,2:0:0:0:
321,279,148429,6,0,L|332:344,1,53.9399978600465,0|0,3:2|2:0,2:0:0:0:
183,164,148574,2,0,L|196:97,1,53.9399978600465,0|0,3:2|2:0,2:0:0:0:
72,282,148720,5,12,2:0:0:0:
285,125,148866,1,0,3:2:0:0:
113,17,149011,5,2,3:2:0:0:
183,164,149157,1,0,3:2:0:0:
33,125,149302,5,12,3:2:0:0:
218,0,149448,1,0,3:2:0:0:
33,125,149594,5,2,3:2:0:0:
239,246,149739,1,8,2:0:0:0:
252,204,149812,1,8,2:0:0:0:
265,161,149885,1,8,2:0:0:0:
147,292,150031,1,0,3:2:0:0:
121,299,150103,1,0,3:2:0:0:
96,308,150176,1,8,2:0:0:0:
277,348,150322,5,0,3:2:0:0:
290,355,150395,1,0,3:2:0:0:
305,361,150467,1,0,3:2:0:0:
265,161,150613,5,0,3:2:0:0:
262,147,150686,1,0,3:2:0:0:
259,131,150759,5,12,2:0:0:0:
465,258,150904,1,0,3:2:0:0:
277,348,151050,1,0,3:2:0:0:
391,77,151196,5,12,2:0:0:0:
204,230,151341,2,0,L|319:262,1,107.879995720093,0|0,3:2|3:2,2:0:0:0:
156,52,151633,5,12,2:0:0:0:
307,258,151778,1,0,3:2:0:0:
279,95,151924,1,0,3:2:0:0:
88,285,152069,5,12,2:0:0:0:
237,26,152215,1,0,3:2:0:0:
339,171,152361,1,0,3:2:0:0:
156,52,152506,6,0,L|35:77,1,107.879995720093,12|0,2:0|3:2,2:0:0:0:
311,263,152798,2,0,B|358:249|389:283|389:283|407:339|470:328,1,161.819993580139,12|0,2:0|2:0,2:0:0:0:
462,300,153089,5,14,2:0:0:0:
342,384,153234,2,0,P|330:359|335:325,1,53.9399978600465,0|0,3:2|3:2,2:0:0:0:
477,226,153380,1,0,3:2:0:0:
495,233,153453,1,0,3:2:0:0:
512,240,153526,1,14,2:0:0:0:
360,99,153671,2,0,L|371:152,1,53.9399978600465,0|0,3:2|3:2,2:0:0:0:
386,224,153817,1,0,3:2:0:0:
479,70,153963,5,12,2:0:0:0:
280,186,154108,2,0,L|212:168,1,53.9399978600465,0|0,3:2|2:0,2:0:0:0:
470,375,155128,6,0,P|436:353|465:276,1,122.669998128204,0|0,3:2|2:0,2:0:0:0:
503,208,155419,6,0,P|419:281|318:260,1,222.72,4|0,3:2|3:2,2:0:0:0:
192,96,156293,5,8,2:0:0:0:
249,39,156438,1,8,2:0:0:0:
110,83,156584,1,8,2:0:0:0:
210,170,156730,1,8,2:0:0:0:
210,170,157167,6,0,L|191:297,1,111.36,0|0,3:2|2:0,2:0:0:0:
134,328,157603,1,0,2:0:0:0:
339,160,157749,6,0,P|404:144|471:221,1,167.04,4|0,3:2|2:0,2:0:0:0:
251,37,158332,2,0,L|135:9,1,111.36,0|8,3:2|2:0,2:0:0:0:
276,115,158768,1,8,2:0:0:0:
122,218,158914,1,8,2:0:0:0:
192,96,159060,1,8,2:0:0:0:
384,244,159497,6,0,L|398:371,1,111.36,0|0,3:2|2:0,2:0:0:0:
460,384,159934,1,0,2:0:0:0:
288,248,160079,6,0,P|283:196|329:167,1,111.36,4|0,3:2|2:0,2:0:0:0:
376,111,160516,1,0,2:0:0:0:
288,248,160662,2,0,L|158:272,1,111.36,0|8,3:2|2:0,2:0:0:0:
291,355,161099,1,8,2:0:0:0:
189,185,161244,1,8,2:0:0:0:
85,294,161390,1,8,2:0:0:0:
189,185,161827,6,0,L|174:50,1,111.36,8|0,3:2|2:0,2:0:0:0:
176,74,162409,6,0,B|113:99|113:99|286:129,1,222.72,4|0,3:2|3:2,2:0:0:0:
265,125,163283,5,8,2:0:0:0:
85,294,163429,1,8,2:0:0:0:
186,194,163574,5,8,3:2:0:0:
252,353,163720,1,0,3:2:0:0:
181,326,163866,1,0,3:2:0:0:
335,257,164011,1,8,3:0:0:0:
186,194,164157,5,8,3:0:0:0:
252,353,164302,1,0,3:2:0:0:
109,216,164448,1,8,3:0:0:0:
269,130,164594,1,8,3:0:0:0:
181,326,164739,6,0,B|95:316|109:388|8:366,1,167.04,4|0,3:2|2:0,2:0:0:0:
335,257,165322,2,0,L|450:286,1,111.36,0|8,3:2|2:0,2:0:0:0:
269,130,165759,1,8,2:0:0:0:
406,66,165904,1,8,2:0:0:0:
382,133,166050,5,2,2:0:0:0:
294,30,166196,2,0,L|225:14,1,55.68,2|2,2:0|2:0,2:0:0:0:
176,62,166487,1,2,3:2:0:0:
294,30,166778,1,2,2:0:0:0:
97,319,167069,6,0,P|65:299|79:225,1,111.36,4|0,3:2|2:0,2:0:0:0:
67,155,167506,1,0,2:0:0:0:
200,282,167652,2,0,L|311:307,1,111.36,0|8,3:2|2:0,2:0:0:0:
172,380,168089,1,8,2:0:0:0:
282,217,168234,1,8,2:0:0:0:
385,322,168380,1,10,2:0:0:0:
432,263,168526,6,0,L|421:205,1,55.68,2|2,2:0|2:0,2:0:0:0:
271,37,168817,2,0,P|230:79|250:130,1,111.36,2|2,3:2|2:0,2:0:0:0:
243,124,169400,6,0,L|122:154,1,111.36,4|0,3:2|2:0,2:0:0:0:
71,113,169836,1,0,2:0:0:0:
165,253,169982,2,0,L|44:225,1,111.36,0|8,3:2|2:0,2:0:0:0:
134,150,170419,1,8,2:0:0:0:
223,314,170565,1,8,2:0:0:0:
146,335,170710,5,2,2:0:0:0:
247,235,170856,2,0,L|311:254,1,55.68,2|2,2:0|2:0,2:0:0:0:
394,363,171147,2,0,P|438:372|476:317,1,111.36,2|2,3:2|2:0,2:0:0:0:
512,262,171584,1,0,2:0:0:0:
378,72,171730,6,0,L|354:204,1,111.36,6|0,3:2|2:0,2:0:0:0:
453,114,172167,1,8,3:0:0:0:
325,15,172312,2,0,L|264:29,2,55.68,0|0|2,3:0|2:0|3:2,2:0:0:0:
72,350,172895,5,0,3:2:0:0:
110,123,173089,1,8,3:0:0:0:
248,277,173283,1,8,3:0:0:0:
92,216,173477,5,0,3:2:0:0:
282,154,173671,1,0,3:2:0:0:
328,339,173866,1,0,3:2:0:0:
478,259,174060,6,0,B|533:255|555:345|482:391|361:365|365:208|442:164|442:164|505:129|485:64|485:64|475:123|430:140|430:140|290:129|250:278|250:278|290:129|151:52|151:52|96:71|109:122|109:122|168:143|216:205|199:286|145:366|34:291|59:222|101:214,1,1531.20004672852,4|0,3:2|2:0,2:0:0:0:
495,330,191535,6,0,P|435:349|378:288,1,140.940003440918,2|0,2:0|2:0,2:0:0:0:
332,241,192118,2,0,L|361:97,1,140.940003440918,2|0,2:0|2:0,2:0:0:0:
431,74,192701,1,2,2:0:0:0:
238,253,193283,6,0,P|194:303|111:297,1,140.940003440918,2|2,2:0|2:0,2:0:0:0:
238,253,194011,5,2,2:0:0:0:
123,303,194157,2,0,L|148:154,1,140.940003440918,2|0,2:0|2:0,2:0:0:0:
84,62,194739,2,0,L|23:42,1,46.9800011469727,2|0,2:0|2:0,2:0:0:0:
146,164,195031,6,0,P|188:170|223:123,2,93.9600022939454,2|2|2,2:0|2:0|2:0,2:0:0:0:
251,41,195904,1,2,2:0:0:0:
332,109,196196,6,0,L|435:132,1,93.9600022939454,2|0,2:0|2:0,2:0:0:0:
479,184,196633,1,2,2:0:0:0:
266,295,197069,6,0,L|158:316,1,93.9600022939454,2|0,2:0|2:0,2:0:0:0:
142,380,197506,1,2,2:0:0:0:
266,295,197798,5,2,2:0:0:0:
164,197,197943,2,0,L|185:89,1,93.9600022939454,2|2,2:0|2:0,2:0:0:0:
104,138,198380,1,0,2:0:0:0:
264,211,198526,6,0,B|320:196|320:196|350:148|350:148|421:127,2,187.920004587891,2|2|2,2:0|2:0|2:0,2:0:0:0:
467,337,200273,1,2,2:0:0:0:
264,211,200856,6,0,B|241:143|241:143|361:183|361:183|317:320,1,328.860008028809,2|0,2:0|2:0,2:0:0:0:
365,365,202021,1,0,2:0:0:0:
229,290,202167,6,0,L|120:319,1,93.9600022939454,2|0,2:0|2:0,2:0:0:0:
376,170,202603,2,0,L|478:198,1,93.9600022939454,2|2,2:0|2:0,2:0:0:0:
288,10,203186,5,2,2:0:0:0:
181,126,203623,5,2,2:0:0:0:
264,211,204060,5,2,2:0:0:0:
264,211,206099,6,0,B|312:197|351:228|351:228|379:297|436:288,1,187.920004587891,2|2,2:0|2:0,2:0:0:0:
264,211,207264,5,2,2:0:0:0:
84,344,207701,6,0,B|17:395|-34:302|14:219|151:254|84:343|212:373,1,327.119995008545,6|0,3:2|2:0,2:0:0:0:
355,195,208429,2,0,L|333:38,1,140.940003440918,2|0,2:0|2:0,2:0:0:0:
512,303,209011,2,0,P|463:315|413:243,1,140.940003440918,2|0,2:0|2:0,2:0:0:0:
244,32,209594,2,0,L|343:57,1,93.9600022939454,2|0,2:0|2:0,2:0:0:0:
222,187,210031,6,0,B|129:215|129:215|74:180|103:142,1,180.959998895508,8|8,3:0|3:0,2:0:0:0:
285,300,210467,1,8,3:2:0:0:
285,300,211924,6,0,P|264:327|220:325,1,73.950000451355,8|0,3:0|2:0,2:0:0:0:
220,317,212361,6,0,B|329:280|307:386|432:357,1,215.759991440186,6|0,3:2|3:2,2:0:0:0:
272,205,212798,1,10,2:0:0:0:
430,119,212943,1,0,2:0:0:0:
343,52,213089,2,0,L|355:-7,2,53.9399978600465,0|0|0,3:2|3:2|3:2,2:0:0:0:
274,84,213380,5,10,2:0:0:0:
436,207,213526,1,2,2:0:0:0:
220,317,213671,5,2,3:2:0:0:
342,150,213817,2,0,L|362:279,1,107.879995720093,2|8,2:0|2:0,2:0:0:0:
198,121,214108,2,0,B|143:107|143:107|128:62|128:62|66:47,1,161.819993580139,2|0,2:0|2:0,2:0:0:0:
13,95,214400,1,0,3:2:0:0:
211,32,214545,1,8,2:0:0:0:
13,95,214691,6,0,B|40:207|40:207|96:236|140:171,1,215.759991440186,4|2,3:2|3:2,2:0:0:0:
220,317,215128,1,10,2:0:0:0:
20,220,215273,1,0,3:2:0:0:
198,121,215419,1,8,2:0:0:0:
50,337,215565,1,2,3:2:0:0:
129,185,215710,1,8,2:0:0:0:
241,333,215856,6,0,P|322:356|372:252,1,215.759991440186,4|0,3:2|3:2,2:0:0:0:
414,193,216220,1,0,3:2:0:0:
414,193,216293,2,0,L|337:174,1,53.9399978600465,0|0,3:2|3:2,2:0:0:0:
177,36,216438,1,0,3:2:0:0:
206,2,216511,1,0,3:2:0:0:
252,5,216584,1,10,2:0:0:0:
129,185,216730,1,12,2:0:0:0:
129,185,217021,6,0,B|200:199|200:199|228:252|228:252|311:268,1,215.759991440186,6|0,3:2|3:2,2:0:0:0:
470,57,217458,2,0,B|403:44|403:44|345:91|394:135,1,161.819993580139,8|0,2:0|2:0,2:0:0:0:
414,193,217749,1,10,2:0:0:0:
239,84,217895,1,0,3:2:0:0:
309,267,218040,5,8,2:0:0:0:
396,22,218186,1,0,3:2:0:0:
160,155,218332,6,0,L|272:177,1,107.879995720093,10|0,2:0|3:2,2:0:0:0:
478,334,218623,2,0,B|446:303|399:315|399:315|371:354|319:351,1,161.819993580139,8|0,2:0|2:0,2:0:0:0:
261,330,218914,1,10,2:0:0:0:
421,150,219060,1,0,3:0:0:0:
462,174,219133,1,0,3:0:0:0:
454,217,219205,1,8,2:0:0:0:
308,104,219351,6,0,B|206:97|259:166|120:153,1,161.819993580139,6|0,3:2|2:0,2:0:0:0:
100,197,219642,2,0,P|84:170|97:128,1,53.9399978600465,2|0,3:2|2:0,2:0:0:0:
270,253,219788,1,10,2:0:0:0:
88,379,219934,1,0,3:2:0:0:
159,154,220079,5,8,2:0:0:0:
261,330,220225,1,0,3:2:0:0:
40,256,220370,5,10,2:0:0:0:
223,88,220516,1,0,3:2:0:0:
366,305,220662,6,0,L|236:335,1,107.879995720093,14|0,2:0|3:2,2:0:0:0:
396,161,220953,1,8,3:2:0:0:
416,154,221026,1,0,3:2:0:0:
442,167,221099,1,0,3:2:0:0:
451,189,221171,1,0,3:2:0:0:
446,203,221244,5,10,2:0:0:0:
401,230,221317,1,8,2:0:0:0:
346,215,221390,1,8,2:0:0:0:
324,165,221463,1,8,2:0:0:0:
352,104,221535,5,10,2:0:0:0:
321,45,221608,1,8,2:0:0:0:
256,30,221681,1,8,2:0:0:0:
207,67,221754,1,8,2:0:0:0:
196,92,221827,6,0,P|207:139|214:199,1,107.879995720093,6|0,3:2|3:2,2:0:0:0:
100,341,222118,1,10,2:0:0:0:
324,165,222264,6,0,P|311:221|304:286,1,107.879995720093,2|0,3:2|3:2,2:0:0:0:
417,384,222555,1,0,3:2:0:0:
213,198,222701,6,0,P|165:218|93:239,1,107.879995720093,10|0,2:0|3:2,2:0:0:0:
299,352,222992,1,2,3:2:0:0:
196,92,223137,6,0,P|246:109|305:123,1,107.879995720093,2|8,3:2|2:0,2:0:0:0:
111,234,223429,1,2,3:2:0:0:
377,68,223574,6,0,P|417:104|397:170,1,107.879995720093,2|0,3:2|3:2,2:0:0:0:
185,295,223866,2,0,P|105:267|2:249,1,161.819993580139,10|0,2:0|2:0,2:0:0:0:
3,228,224157,5,6,3:2:0:0:
216,384,224302,1,8,2:0:0:0:
196,92,224448,1,12,2:0:0:0:
48,346,224594,1,0,3:2:0:0:
296,207,224739,6,0,P|243:196|170:166,1,107.879995720093,14|0,2:0|3:2,2:0:0:0:
329,296,225031,1,8,2:0:0:0:
196,92,225176,1,8,2:0:0:0:
12,234,225322,5,2,3:2:0:0:
12,234,225395,1,0,3:2:0:0:
12,234,225467,2,0,L|72:219,1,53.9399978600465,8|8,2:0|2:0,2:0:0:0:
278,122,225613,1,8,2:0:0:0:
135,0,225759,5,0,3:2:0:0:
135,0,225832,1,0,3:2:0:0:
135,0,225904,2,0,L|124:63,1,53.9399978600465,10|8,2:0|2:0,2:0:0:0:
329,296,226050,1,0,3:2:0:0:
376,301,226123,1,0,3:2:0:0:
406,260,226196,2,0,L|394:196,1,53.9399978600465,0|0,3:2|3:2,2:0:0:0:
278,122,226341,5,0,3:2:0:0:
278,122,226414,1,0,3:2:0:0:
278,122,226487,6,0,L|263:233,1,107.879995720093,12|0,2:0|3:2,2:0:0:0:
477,94,226778,1,0,3:2:0:0:
477,94,226851,1,0,3:2:0:0:
477,94,226924,6,0,P|470:67|465:23,1,53.9399978600465,12|0,2:0|2:0,2:0:0:0:
371,180,227069,2,0,P|397:186|434:199,1,53.9399978600465,0|0,3:2|3:2,2:0:0:0:
316,14,227215,2,0,P|287:25|256:29,1,53.9399978600465,8|8,3:0|3:0,2:0:0:0:
165,187,227361,6,0,L|46:159,1,107.879995720093,12|0,2:0|3:2,2:0:0:0:
4,113,227579,1,0,3:2:0:0:
4,113,227652,2,0,L|66:125,1,53.9399978600465,0|0,3:2|3:2,2:0:0:0:
277,278,227798,6,0,P|204:258|149:317,1,161.819993580139,14|0,2:0|2:0,2:0:0:0:
96,363,228089,2,0,P|118:379|159:382,1,53.9399978600465,0|0,3:2|3:2,2:0:0:0:
165,187,228234,6,0,L|140:64,1,107.879995720093,10|0,2:0|3:2,2:0:0:0:
191,22,228453,1,0,3:2:0:0:
208,31,228526,2,0,L|222:90,1,53.9399978600465,8|8,2:0|2:0,2:0:0:0:
403,215,228671,2,0,L|417:150,1,53.9399978600465,8|8,2:0|2:0,2:0:0:0:
277,278,228817,6,0,B|230:305|257:350|257:350|385:384,1,215.759991440186,6|0,3:2|2:0,2:0:0:0:
165,187,229254,2,0,B|121:175|85:204|85:204|65:246|4:241,1,161.819993580139,6|0,3:2|2:0,2:0:0:0:
18,167,229545,1,2,2:0:0:0:
208,31,229691,6,0,L|326:57,1,107.879995720093,6|0,3:2|2:0,2:0:0:0:
473,305,230710,5,0,3:2:0:0:
495,268,230783,1,0,3:2:0:0:
465,225,230856,6,0,B|403:236|403:236|379:268|379:268|311:281,1,161.819993580139,8|0,2:0|2:0,2:0:0:0:
260,327,231147,6,0,B|237:291|237:291|253:247,1,81.7799987521363,6|2,3:2|2:0,2:0:0:0:
168,78,231438,2,0,L|261:105,1,81.7799987521363,10|2,2:0|2:0,2:0:0:0:
128,221,231730,1,2,3:2:0:0:
260,327,231875,2,0,L|154:356,1,81.7799987521363,2|8,2:0|2:0,2:0:0:0:
334,203,232167,1,2,2:0:0:0:
246,100,232312,6,0,L|226:1,1,81.7799987521363,2|2,3:2|2:0,2:0:0:0:
434,180,232603,2,0,L|413:288,1,81.7799987521363,10|2,2:0|2:0,2:0:0:0:
335,116,232895,5,2,3:2:0:0:
458,47,233040,1,2,2:0:0:0:
334,203,233186,5,10,2:0:0:0:
172,147,233332,1,2,2:0:0:0:
93,213,233477,6,0,L|122:387,1,163.559997504273,2|10,3:2|2:0,2:0:0:0:
223,240,233914,1,2,2:0:0:0:
93,126,234060,1,2,3:2:0:0:
255,23,234205,2,0,L|239:111,1,81.7799987521363,2|8,2:0|2:0,2:0:0:0:
144,14,234497,1,2,2:0:0:0:
291,179,234642,6,0,L|389:156,1,81.7799987521363,2|0,3:2|2:0,2:0:0:0:
247,333,234934,2,0,L|163:311,1,81.7799987521363,10|2,2:0|2:0,2:0:0:0:
332,384,235225,5,2,3:2:0:0:
285,262,235370,1,2,2:0:0:0:
187,166,235516,5,10,2:0:0:0:
255,23,235662,1,10,2:0:0:0:
305,14,235734,1,8,2:0:0:0:
334,53,235807,6,0,B|417:61|385:117|493:137,1,163.559997504273,6|10,3:2|2:0,2:0:0:0:
285,262,236244,1,2,2:0:0:0:
435,342,236390,5,2,3:2:0:0:
299,181,236535,2,0,L|281:278,1,81.7799987521363,2|8,2:0|2:0,2:0:0:0:
472,132,236827,1,2,2:0:0:0:
305,14,236972,6,0,L|317:98,1,81.7799987521363,2|0,3:2|2:0,2:0:0:0:
449,227,237264,1,10,2:0:0:0:
397,59,237409,1,2,2:0:0:0:
226,148,237555,5,2,3:2:0:0:
374,202,237701,1,2,2:0:0:0:
236,66,237846,5,10,2:0:0:0:
76,152,237992,1,2,2:0:0:0:
204,352,238137,6,0,P|240:311|224:247,1,122.669998128204,4|0,3:2|2:0,2:0:0:0:
170,206,238429,2,0,L|110:222,1,40.8899993760681,0|0,3:2|3:2,2:0:0:0:
276,312,238574,2,0,L|330:329,1,40.8899993760681,0|0,3:2|3:2,2:0:0:0:
226,148,238720,5,8,2:0:0:0:
126,384,238866,1,8,2:0:0:0:
226,148,239157,6,0,L|217:93,1,40.8899993760681,12|0,2:0|2:0,2:0:0:0:
