osu file format v14

[General]
AudioFilename: audio.mp3
AudioLeadIn: 0
PreviewTime: 58449
Countdown: 0
SampleSet: Soft
StackLeniency: 0.4
Mode: 0
LetterboxInBreaks: 0
WidescreenStoryboard: 0

[Editor]
DistanceSpacing: 0.8
BeatDivisor: 4
GridSize: 8
TimelineZoom: 1.700001

[Metadata]
Title:Realize (TV Size)
TitleUnicode:Realize (TV Size)
Artist:Suzuki Konomi
ArtistUnicode:鈴木このみ
Creator:Stack
Version:To The Future
Source:Re:ゼロから始める異世界生活
Tags:Japanese anime op realise opening Xandit ggf Gottagof4st Yudragen chaoticred SaltyLucario Zelq rezero Re: Life in a different world from zero 2nd Season Re:Zero Starting Life in Another World 2 Salty Saltking Vinnie741 byd bite you death
BeatmapID:2480927
BeatmapSetID:1190719

[Difficulty]
HPDrainRate:6
CircleSize:3.8
OverallDifficulty:9.2
ApproachRate:9.3
SliderMultiplier:1.8
SliderTickRate:1

[Events]
//Background and Video events
0,0,"Konachan.com - 305120 sample.jpg",0,0
//Break Periods
//Storyboard Layer 0 (Background)
//Storyboard Layer 1 (Fail)
//Storyboard Layer 2 (Pass)
//Storyboard Layer 3 (Foreground)
//Storyboard Layer 4 (Overlay)
//Storyboard Sound Samples

[TimingPoints]
852,291.26213592233,4,2,1,40,1,0
7259,-200,4,2,1,40,0,0
7842,-142.857142857143,4,2,1,50,0,0
16288,-142.857142857143,4,2,1,50,0,0
17162,-142.857142857143,4,2,1,40,0,0
17453,-200,4,2,1,40,0,0
25900,-111.111111111111,4,2,1,40,0,0
26483,-111.111111111111,4,2,1,50,0,0
31143,-99.9999999999999,4,2,1,50,0,0
35803,-166.666666666667,4,2,1,45,0,0
36968,-125,4,2,1,45,0,0
38133,-166.666666666667,4,2,1,45,0,0
39881,-125,4,2,1,45,0,0
44541,-333.333333333333,4,2,1,45,0,0
45123,-333.333333333333,4,2,1,35,0,0
49201,-200,4,2,1,35,0,0
49784,-100,4,2,1,50,0,0
56774,-90.9090909090909,4,2,1,50,0,0
58521,-250,4,2,1,50,0,0
58958,-90.9090909090909,4,2,1,65,0,1
80949,-83.3333333333333,4,2,1,65,0,0
82114,-142.857142857143,4,2,1,65,0,0
82405,-100,4,2,1,65,0,0

[Colours]
Combo1 : 203,220,105
Combo2 : 204,122,239
Combo3 : 112,226,209

[HitObjects]
86,60,7259,6,0,P|134:50|146:141,1,157.5,10|0,3:0|0:0,0:0:0:0:
132,140,7842,5,6,3:2:0:0:
104,139,8133,1,0,3:2:0:0:
76,138,8424,1,0,3:2:0:0:
48,137,8716,1,2,3:2:0:0:
197,205,9007,6,0,B|215:252|215:252|199:301,1,94.499997116089,0|0,3:2|0:0,0:0:0:0:
193,303,9298,2,0,L|131:299,1,62.9999980773926,0|0,3:2|0:0,0:0:0:0:
276,164,9589,2,0,B|323:146|323:146|372:162,1,94.499997116089,0|0,3:2|0:0,0:0:0:0:
374,168,9880,2,0,L|370:230,1,62.9999980773926,0|0,3:2|0:0,0:0:0:0:
479,349,10172,5,6,3:2:0:0:
476,308,10463,1,0,3:2:0:0:
473,266,10754,1,0,3:2:0:0:
469,225,11046,1,2,3:2:0:0:
399,82,11337,5,0,3:2:0:0:
495,127,11483,1,0,0:0:0:0:
385,92,11628,2,0,L|319:96,1,62.9999980773926,0|0,3:2|0:0,0:0:0:0:
202,10,11919,2,0,P|223:38|235:82,1,62.9999980773926,0|0,3:2|0:0,0:0:0:0:
159,190,12211,2,0,L|169:123,1,62.9999980773926,0|0,3:2|0:0,0:0:0:0:
45,0,12502,6,0,B|30:29|30:29|41:94,1,94.499997116089,6|0,3:2|0:0,0:0:0:0:
45,125,12793,1,0,3:2:0:0:
168,127,12939,1,2,0:0:0:0:
73,228,13085,5,0,3:2:0:0:
150,106,13230,1,0,0:0:0:0:
156,274,13376,5,2,3:2:0:0:
132,81,13521,1,0,0:0:0:0:
324,217,13667,5,10,0:0:0:0:
148,293,13813,1,10,0:0:0:0:
286,133,13958,5,10,0:0:0:0:
217,339,14104,1,10,0:0:0:0:
227,77,14250,5,10,0:0:0:0:
298,360,14395,1,10,0:0:0:0:
317,27,14541,5,10,0:0:0:0:
148,293,14686,1,10,0:0:0:0:
441,232,14832,5,10,0:0:0:0:
88,158,14978,1,10,0:0:0:0:
446,90,15269,5,10,0:0:0:0:
199,368,15560,5,10,0:0:0:0:
286,17,15851,5,10,0:0:0:0:
440,244,16143,1,0,3:0:0:0:
440,244,16216,1,0,3:0:0:0:
440,244,16288,2,0,P|395:225|342:217,1,94.499997116089,14|0,0:0|0:0,0:0:0:0:
330,232,16580,1,8,3:0:0:0:
253,264,16725,1,8,3:0:0:0:
187,166,16871,1,4,3:0:0:0:
77,137,17016,1,4,3:0:0:0:
0,274,17162,5,2,0:0:0:0:
0,274,17453,2,0,P|28:277|52:283,1,45,2|0,0:0|0:0,0:0:0:0:
108,339,17745,2,0,P|165:330|203:328,1,90,2|2,0:0|0:0,0:0:0:0:
271,378,18182,1,2,0:0:0:0:
355,245,18327,2,0,L|349:349,2,90,0|2|2,0:0|0:0|0:0,0:0:0:0:
465,89,19201,2,0,P|442:76|412:66,1,45,2|2,0:0|0:0,0:0:0:0:
333,111,19492,6,0,L|240:115,1,90,0|2,0:0|0:0,0:0:0:0:
172,71,19929,1,0,0:0:0:0:
172,71,20366,1,2,0:0:0:0:
47,8,20657,2,0,B|77:45|77:45|59:157,1,157.5,2|0,0:0|0:0,0:0:0:0:
11,218,21240,2,0,P|47:186|156:216,1,157.5,2|0,0:0|0:0,0:0:0:0:
162,235,21822,1,2,0:0:0:0:
162,235,22405,6,0,L|260:232,1,90,2|2,0:0|0:0,0:0:0:0:
437,161,22987,2,0,P|414:166|386:168,1,45,2|0,0:0|0:0,0:0:0:0:
308,136,23279,1,2,0:0:0:0:
308,136,23424,1,2,0:0:0:0:
308,136,23861,6,0,P|275:122|257:117,1,45,2|0,0:0|0:0,0:0:0:0:
214,50,24152,2,0,P|155:59|74:59,1,135,2|2,0:0|0:0,0:0:0:0:
1,7,24735,2,0,P|41:41|41:148,1,157.5,2|0,0:0|0:0,0:0:0:0:
27,167,25318,5,2,0:0:0:0:
184,136,25463,1,0,3:0:0:0:
7,189,25609,1,8,0:0:0:0:
7,189,25900,5,10,0:0:0:0:
21,214,25973,1,8,0:0:0:0:
32,241,26046,1,8,0:0:0:0:
38,269,26118,1,8,0:0:0:0:
39,298,26191,2,0,L|30:339,1,40.4999987640381,8|8,0:0|0:0,0:0:0:0:
148,193,26337,2,0,L|139:152,1,40.4999987640381,8|8,0:0|0:0,0:0:0:0:
251,284,26483,6,0,P|242:321|238:377,1,80.9999975280763,0|0,3:0|3:0,0:0:0:0:
365,213,26774,2,0,P|374:250|378:306,1,80.9999975280763,10|0,0:0|0:0,0:0:0:0:
278,147,27065,1,2,3:0:0:0:
478,130,27211,2,0,P|469:167|465:223,1,80.9999975280763,2|8,3:0|0:0,0:0:0:0:
356,17,27502,6,0,B|267:18|289:73|203:64,1,161.999995056153,2|0,0:0|3:0,0:0:0:0:
33,19,27939,2,0,P|79:12|117:33,1,80.9999975280763,10|0,0:0|0:0,0:0:0:0:
72,184,28230,1,2,3:0:0:0:
72,184,28376,2,0,L|61:89,1,80.9999975280763,2|8,3:0|0:0,0:0:0:0:
200,163,28667,1,2,0:0:0:0:
71,315,28813,6,0,B|113:288|113:288|228:319,1,161.999995056153,0|10,3:0|0:0,0:0:0:0:
307,377,29250,1,2,0:0:0:0:
366,214,29395,2,0,P|353:275|348:313,1,80.9999975280763,2|2,3:0|3:0,0:0:0:0:
467,172,29686,1,10,0:0:0:0:
238,148,29832,2,0,P|251:209|256:247,1,80.9999975280763,2|0,0:0|3:0,0:0:0:0:
150,297,30123,1,0,3:0:0:0:
260,136,30269,5,8,0:0:0:0:
67,188,30415,1,8,3:0:0:0:
49,156,30487,1,4,3:0:0:0:
45,119,30560,1,10,3:0:0:0:
60,85,30633,1,8,3:0:0:0:
90,65,30706,2,0,L|146:58,1,40.4999987640381,4|4,3:0|3:0,0:0:0:0:
211,13,30851,5,14,0:0:0:0:
211,13,31143,1,2,3:0:0:0:
362,91,31288,1,2,0:0:0:0:
156,195,31434,2,0,L|61:187,1,90,10|0,0:0|0:0,0:0:0:0:
295,36,31725,1,2,3:0:0:0:
253,227,31871,1,0,0:0:0:0:
90,65,32017,1,10,0:0:0:0:
130,283,32163,1,2,0:0:0:0:
280,128,32308,6,0,P|342:119|375:116,1,90,2|0,3:0|0:0,0:0:0:0:
130,283,32599,2,0,P|68:274|35:271,1,90,8|0,0:0|0:0,0:0:0:0:
253,227,32890,1,0,3:0:0:0:
90,65,33036,1,2,0:0:0:0:
280,128,33182,1,10,0:0:0:0:
130,283,33327,1,2,0:0:0:0:
170,12,33473,5,6,3:2:0:0:
170,12,33618,2,0,P|184:59|193:111,1,90,2|8,0:0|0:0,0:0:0:0:
350,216,33910,2,0,P|336:263|327:315,1,90,2|0,0:0|3:2,0:0:0:0:
172,181,34201,1,2,3:2:0:0:
383,130,34347,1,8,0:0:0:0:
191,299,34492,6,0,B|104:299|131:370|16:354,1,180,6|8,3:2|0:0,0:0:0:0:
256,235,34929,1,10,0:0:0:0:
57,178,35075,1,8,3:0:0:0:
57,178,35148,1,8,3:0:0:0:
57,178,35220,2,0,P|49:225|58:280,1,90,10|4,0:0|3:0,0:0:0:0:
287,150,35512,1,10,3:0:0:0:
36,42,35803,6,0,B|81:37|81:37|99:46|99:46|142:40,2,107.999996704102,6|0|0,3:2|3:2|3:2,0:0:0:0:
36,42,36677,1,2,3:2:0:0:
88,195,36822,1,2,3:2:0:0:
234,21,36968,6,0,P|223:49|216:93,1,72,14|0,0:0|3:2,0:0:0:0:
293,221,37259,1,2,3:2:0:0:
293,221,37405,2,0,P|293:190|285:147,1,72,2|0,0:0|3:2,0:0:0:0:
148,306,37696,2,0,P|205:297|251:295,1,72,2|0,0:0|3:2,0:0:0:0:
306,361,37987,1,2,0:0:0:0:
446,216,38133,6,0,B|441:261|441:261|450:279|450:279|444:322,2,107.999996704102,4|2|2,3:2|3:2|3:2,0:0:0:0:
446,216,39007,1,2,3:2:0:0:
385,98,39152,1,2,3:2:0:0:
293,221,39298,1,12,0:0:0:0:
293,221,39444,1,0,3:2:0:0:
476,125,39589,1,2,3:2:0:0:
197,6,39881,6,0,P|194:43|186:157,1,144,10|10,0:0|3:0,0:0:0:0:
82,244,40318,1,6,3:0:0:0:
103,101,40463,1,4,3:2:0:0:
103,101,40609,1,0,3:2:0:0:
178,275,40754,1,0,3:2:0:0:
178,275,41046,5,10,0:0:0:0:
258,209,41191,2,0,P|318:202|411:199,1,144,0|0,3:2|3:2,0:0:0:0:
401,198,41774,1,0,3:2:0:0:
339,281,41919,2,0,L|334:352,1,72,0|0,3:2|0:0,0:0:0:0:
483,285,42211,6,0,B|477:231|477:231|485:202|485:202|475:140,2,144,10|0|6,0:0|3:2|3:2,0:0:0:0:
418,377,42939,1,0,3:2:0:0:
329,201,43085,1,0,3:2:0:0:
329,201,43376,5,8,0:0:0:0:
275,278,43521,2,0,L|128:265,1,144,0|0,3:2|3:2,0:0:0:0:
131,265,44104,1,0,3:2:0:0:
169,182,44250,2,0,B|176:143|176:143|166:111,1,72,0|0,3:2|0:0,0:0:0:0:
52,36,44541,6,0,B|59:40|78:43|78:43|88:40|105:44,2,53.9999983520508,10|10|2,0:0|3:0|0:0,0:0:0:0:
304,104,46288,5,2,0:0:0:0:
118,185,47453,5,2,0:0:0:0:
252,274,48618,5,2,0:0:0:0:
166,370,49201,6,0,B|157:351|161:333|161:333|167:319|169:296|169:296|164:281|152:286,1,90,2|6,0:0|3:0,0:0:0:0:
160,285,49784,6,0,L|70:292,1,90,6|0,3:2|0:0,0:0:0:0:
318,215,50075,2,0,L|408:222,1,90,0|0,3:2|0:0,0:0:0:0:
161,169,50366,1,2,3:2:0:0:
277,309,50512,1,0,0:0:0:0:
297,127,50657,1,0,3:2:0:0:
160,285,50803,1,0,0:0:0:0:
46,86,50949,6,0,P|58:126|66:174,1,90,2|0,3:2|0:0,0:0:0:0:
316,39,51240,2,0,P|304:79|296:127,1,90,0|0,3:2|0:0,0:0:0:0:
210,0,51531,1,2,3:2:0:0:
423,54,51677,1,0,0:0:0:0:
240,192,51822,1,0,3:2:0:0:
316,39,51968,1,0,0:0:0:0:
459,231,52114,6,0,B|366:227|404:303|297:299,1,180,6|0,3:2|3:2,0:0:0:0:
152,194,52551,2,0,P|201:183|246:195,1,90,0|0,0:0|3:2,0:0:0:0:
86,275,52842,1,2,0:0:0:0:
205,101,52987,1,2,3:2:0:0:
217,333,53133,1,2,0:0:0:0:
65,122,53279,6,0,P|53:74|50:17,1,90,2|8,3:2|0:0,0:0:0:0:
3,217,53570,1,10,0:0:0:0:
213,109,53716,1,0,3:2:0:0:
213,109,53788,1,0,3:2:0:0:
213,109,53861,2,0,P|225:61|228:4,1,90,10|0,0:0|3:2,0:0:0:0:
394,206,54152,2,0,P|384:163|377:109,1,90,10|0,0:0|3:2,0:0:0:0:
172,299,54444,5,14,0:0:0:0:
213,109,54589,1,0,3:2:0:0:
332,265,54735,1,0,3:2:0:0:
97,102,54881,5,10,0:0:0:0:
297,169,55026,1,0,3:2:0:0:
95,245,55172,1,0,3:2:0:0:
343,32,55318,5,14,0:0:0:0:
258,319,55463,1,0,3:2:0:0:
150,39,55609,1,0,3:2:0:0:
420,220,55754,5,10,0:0:0:0:
97,102,55900,1,0,3:2:0:0:
435,37,56046,1,0,3:2:0:0:
258,319,56191,5,14,0:0:0:0:
325,31,56337,1,0,3:2:0:0:
243,339,56483,5,10,0:0:0:0:
144,17,56628,1,0,0:0:0:0:
419,141,56774,6,0,B|343:137|368:208|287:199,1,148.50000453186,10|0,0:0|0:0,0:0:0:0:
255,193,57065,1,0,3:0:0:0:
420,220,57211,1,8,0:0:0:0:
224,99,57356,1,0,3:0:0:0:
363,320,57502,1,0,3:0:0:0:
325,31,57648,1,8,0:0:0:0:
132,327,57793,5,8,0:0:0:0:
132,327,58521,6,0,P|140:279|111:245,1,90,10|0,3:0|0:0,0:0:0:0:
36,216,58958,6,0,B|114:225|114:225|157:211|157:211|232:219,1,198.000006042481,6|0,3:2|0:0,0:0:0:0:
103,52,59395,2,0,P|86:93|103:145,1,99.0000030212403,8|0,0:0|0:0,0:0:0:0:
307,268,59686,2,0,P|323:225|307:173,1,99.0000030212403,2|0,3:2|0:0,0:0:0:0:
189,27,59978,1,8,0:0:0:0:
230,219,60123,1,0,0:0:0:0:
421,10,60269,2,0,P|481:54|460:164,2,198.000006042481,2|8|2,3:2|0:0|3:2,0:0:0:0:
232,102,60997,2,0,P|278:96|332:93,1,99.0000030212403,0|8,0:0|0:0,0:0:0:0:
112,270,61288,6,0,P|120:227|127:163,1,99.0000030212403,2|0,0:0|3:2,0:0:0:0:
72,56,61580,1,2,0:0:0:0:
246,199,61725,2,0,P|237:150|231:101,1,99.0000030212403,10|0,0:0|0:0,0:0:0:0:
432,11,62017,2,0,P|423:59|417:108,1,99.0000030212403,0|0,3:2|0:0,0:0:0:0:
348,200,62308,1,10,0:0:0:0:
279,22,62453,1,2,0:0:0:0:
417,108,62599,5,2,3:2:0:0:
231,101,62745,1,2,0:0:0:0:
432,11,62890,1,10,0:0:0:0:
361,234,63036,1,2,0:0:0:0:
152,23,63182,5,2,3:2:0:0:
154,280,63327,1,2,3:2:0:0:
279,22,63473,1,10,0:0:0:0:
101,177,63618,6,0,B|160:154|160:154|290:198,1,198.000006042481,6|2,3:2|3:2,0:0:0:0:
157,377,64055,2,0,P|147:330|157:274,1,99.0000030212403,10|0,0:0|0:0,0:0:0:0:
376,342,64347,2,0,L|259:358,1,99.0000030212403,0|0,3:2|0:0,0:0:0:0:
154,280,64638,1,10,0:0:0:0:
364,142,64784,1,2,0:0:0:0:
122,81,64929,5,2,3:2:0:0:
122,81,65075,2,0,P|107:125|101:196,1,99.0000030212403,2|8,0:0|0:0,0:0:0:0:
364,142,65366,2,0,P|324:113|270:110,1,99.0000030212403,2|0,0:0|3:2,0:0:0:0:
241,233,65657,1,2,3:2:0:0:
457,182,65803,1,8,0:0:0:0:
214,36,65949,6,0,P|229:120|241:238,1,198.000006042481,6|2,3:2|3:2,0:0:0:0:
22,349,66385,2,0,P|54:271|166:295,1,198.000006042481,10|0,0:0|3:2,0:0:0:0:
353,365,66822,2,0,P|337:307|326:249,1,99.0000030212403,2|8,3:2|0:0,0:0:0:0:
134,72,67114,2,0,P|129:131|119:190,1,99.0000030212403,6|0,3:2|0:0,0:0:0:0:
234,352,67405,5,8,0:0:0:0:
315,58,67551,1,8,0:0:0:0:
337,276,67696,1,0,3:2:0:0:
337,276,67769,1,0,3:2:0:0:
337,276,67842,1,10,0:0:0:0:
123,170,67987,1,2,3:2:0:0:
397,105,68133,1,8,0:0:0:0:
58,74,68279,6,0,P|80:171|95:275,1,198.000006042481,6|0,3:2|0:0,0:0:0:0:
337,276,68716,2,0,P|285:253|235:255,1,99.0000030212403,8|0,0:0|0:0,0:0:0:0:
26,333,69007,2,0,P|78:356|128:354,1,99.0000030212403,2|0,3:2|0:0,0:0:0:0:
200,148,69298,1,8,0:0:0:0:
94,268,69444,1,0,0:0:0:0:
337,276,69589,6,0,B|368:226|368:226|334:85,2,198.000006042481,2|8|2,3:2|0:0|3:2,0:0:0:0:
200,148,70318,1,0,0:0:0:0:
428,110,70463,1,8,0:0:0:0:
251,350,70609,6,0,P|241:301|243:250,1,99.0000030212403,2|0,0:0|3:2,0:0:0:0:
335,90,70900,1,2,0:0:0:0:
335,90,71046,2,0,B|279:124|279:124|145:103,1,198.000006042481,10|0,0:0|3:2,0:0:0:0:
51,20,71483,1,0,0:0:0:0:
16,224,71628,2,0,P|25:179|28:118,1,99.0000030212403,10|0,0:0|0:0,0:0:0:0:
164,310,71919,6,0,L|63:327,1,99.0000030212403,2|0,3:2|0:0,0:0:0:0:
246,119,72211,2,0,L|145:102,1,99.0000030212403,10|0,0:0|0:0,0:0:0:0:
360,279,72502,2,0,L|259:296,1,99.0000030212403,2|0,3:2|0:0,0:0:0:0:
442,88,72794,2,0,L|341:71,1,99.0000030212403,10|8,0:0|0:0,0:0:0:0:
316,84,73012,1,8,0:0:0:0:
316,84,73085,6,0,P|300:139|292:191,1,99.0000030212403,6|0,3:2|0:0,0:0:0:0:
360,279,73376,1,10,0:0:0:0:
196,88,73521,2,0,B|101:84|124:178|20:155,1,198.000006042481,2|0,0:0|0:0,0:0:0:0:
175,274,73958,2,0,P|187:238|182:168,1,99.0000030212403,10|0,0:0|0:0,0:0:0:0:
52,60,74250,1,2,3:2:0:0:
46,315,74395,6,0,B|129:326|129:326|157:314|157:314|245:325,1,198.000006042481,2|0,0:0|0:0,0:0:0:0:
448,181,74832,2,0,P|470:222|460:296,1,99.0000030212403,2|0,3:2|0:0,0:0:0:0:
314,383,75123,2,0,P|327:321|343:273,1,99.0000030212403,10|0,0:0|0:0,0:0:0:0:
424,67,75415,5,2,3:2:0:0:
369,210,75560,1,0,3:2:0:0:
248,23,75706,2,0,P|198:9|142:5,1,99.0000030212403,12|0,0:0|0:0,0:0:0:0:
369,210,75997,1,2,3:2:0:0:
314,67,76142,1,0,3:2:0:0:
193,254,76288,2,0,P|143:268|87:272,1,99.0000030212403,12|0,0:0|0:0,0:0:0:0:
255,153,76580,5,2,3:2:0:0:
178,364,76725,1,0,3:2:0:0:
147,113,76871,1,8,0:0:0:0:
369,210,77017,1,0,3:2:0:0:
96,272,77162,2,0,L|99:163,1,99.0000030212403,2|0,0:0|3:2,0:0:0:0:
147,113,77381,1,0,3:2:0:0:
147,113,77453,2,0,L|144:4,1,99.0000030212403,8|0,0:0|3:2,0:0:0:0:
193,254,77745,5,14,0:0:0:0:
263,63,77890,1,0,3:2:0:0:
63,103,78036,1,0,3:2:0:0:
339,222,78182,5,8,0:0:0:0:
147,113,78327,1,0,3:2:0:0:
154,333,78473,1,0,3:2:0:0:
375,132,78618,5,12,0:0:0:0:
79,189,78764,1,0,3:2:0:0:
406,142,78910,1,0,3:2:0:0:
173,238,79055,5,10,0:0:0:0:
464,304,79201,1,0,3:2:0:0:
142,248,79347,1,0,3:2:0:0:
351,39,79492,5,14,0:0:0:0:
299,333,79638,1,0,3:2:0:0:
158,33,79784,5,10,0:0:0:0:
206,366,79929,1,0,3:2:0:0:
259,120,80075,5,10,0:0:0:0:
142,248,80220,1,0,3:0:0:0:
425,167,80366,1,0,3:0:0:0:
425,167,80439,1,0,3:0:0:0:
425,167,80512,1,10,0:0:0:0:
70,89,80657,1,0,3:0:0:0:
323,364,80803,5,0,3:0:0:0:
247,0,80949,1,10,0:0:0:0:
214,374,81968,5,2,0:0:0:0:
214,374,82041,1,0,3:0:0:0:
214,374,82114,2,0,P|209:329|162:291,1,94.499997116089,12|0,0:0|0:0,0:0:0:0:
147,291,82405,6,0,L|57:302,1,90,6|0,3:2|0:0,0:0:0:0:
228,231,82696,1,10,0:0:0:0:
63,182,82842,1,2,0:0:0:0:
304,148,82987,2,0,L|394:159,1,90,2|2,3:0|0:0,0:0:0:0:
244,69,83279,1,8,0:0:0:0:
345,245,83424,6,0,P|354:291|354:352,1,90,2|0,0:0|3:0,0:0:0:0:
393,158,83716,1,2,0:0:0:0:
175,295,83861,2,0,P|166:341|166:402,1,90,10|2,0:0|0:0,0:0:0:0:
147,179,84152,1,2,3:0:0:0:
345,245,84298,1,2,0:0:0:0:
175,295,84444,1,10,0:0:0:0:
393,158,84589,1,2,0:0:0:0:
142,91,84735,6,0,P|138:152|157:196,1,90,2|0,3:0|0:0,0:0:0:0:
232,36,85026,1,10,0:0:0:0:
57,20,85172,1,2,0:0:0:0:
223,129,85318,2,0,L|336:119,1,90,2|2,3:0|0:0,0:0:0:0:
142,91,85609,1,8,0:0:0:0:
89,251,85754,6,0,L|0:243,1,90,2|0,0:0|3:0,0:0:0:0:
146,178,86046,1,2,0:0:0:0:
194,366,86191,2,0,P|186:320|192:271,1,90,10|0,0:0|0:0,0:0:0:0:
358,215,86483,2,0,P|357:261|343:308,1,90,2|2,3:0|0:0,0:0:0:0:
265,114,86774,1,8,0:0:0:0:
300,117,86847,1,8,0:0:0:0:
334,120,86919,1,8,0:0:0:0:
370,123,86992,1,8,0:0:0:0:
405,126,87065,6,0,L|422:35,1,90,6|0,3:2|0:0,0:0:0:0:
358,215,87356,1,10,0:0:0:0:
501,172,87502,1,2,0:0:0:0:
320,25,87648,2,0,P|276:14|223:15,1,90,2|2,3:0|0:0,0:0:0:0:
405,126,87939,1,10,0:0:0:0:
239,207,88085,6,0,P|195:218|142:217,1,90,2|0,0:0|3:0,0:0:0:0:
300,117,88376,1,2,0:0:0:0:
420,274,88521,2,0,L|428:378,1,90,10|0,0:0|0:0,0:0:0:0:
239,207,88813,1,2,3:0:0:0:
320,376,88958,1,2,0:0:0:0:
358,215,89104,1,10,0:0:0:0:
211,384,89250,1,2,0:0:0:0:
105,152,89395,6,0,P|94:98|94:45,1,90,2|0,3:0|0:0,0:0:0:0:
303,32,89686,1,2,3:0:0:0:
302,52,89759,1,0,3:0:0:0:
301,72,89832,2,0,L|299:128,1,45,2|0,3:0|3:0,0:0:0:0:
239,207,89978,1,10,0:0:0:0:
398,131,90123,1,10,0:0:0:0:
92,63,90415,5,10,0:0:0:0:
