osu file format v14

[General]
AudioFilename: audio.mp3
AudioLeadIn: 0
PreviewTime: 58459
Countdown: 0
SampleSet: Soft
StackLeniency: 0.7
Mode: 0
LetterboxInBreaks: 0
WidescreenStoryboard: 0

[Editor]
Bookmarks: 7405
DistanceSpacing: 0.5
BeatDivisor: 4
GridSize: 16
TimelineZoom: 2.2

[Metadata]
Title:Realize (TV Size)
TitleUnicode:Realize (TV Size)
Artist:Suzuki Konomi
ArtistUnicode:鈴木このみ
Creator:Sotarks
Version:Reform's Expert
Source:Re:ゼロから始める異世界生活
Tags:zero re:zero rezero kara Hajimeru Isekai Seikatsu starting life in another world anime opening op female japanese vocalist basensorex kujinn reform kowari eli elinor [_eli_] 2nd season white fox emilia natsuki subaru rem ram from
BeatmapID:2480904
BeatmapSetID:1190710

[Difficulty]
HPDrainRate:5.2
CircleSize:3.8
OverallDifficulty:9
ApproachRate:9.3
SliderMultiplier:1.82
SliderTickRate:1

[Events]
//Background and Video events
0,0,"bg.jpg",0,0
//Break Periods
//Storyboard Layer 0 (Background)
//Storyboard Layer 1 (Fail)
//Storyboard Layer 2 (Pass)
//Storyboard Layer 3 (Foreground)
//Storyboard Layer 4 (Overlay)
//Storyboard Sound Samples

[TimingPoints]
862,291.26213592233,4,2,22,52,1,0
862,-181.818181818181,4,2,22,52,0,0
7269,-285.714285714284,4,2,22,52,0,0
7779,-285.714285714284,4,2,22,5,0,0
7852,-153.846153846154,4,2,22,62,0,0
12512,-117.64705882353,4,2,22,62,0,0
16298,-95.2380952380953,4,2,22,62,0,0
17172,-181.818181818181,4,2,22,52,0,0
25328,-117.647058823529,4,2,22,52,0,0
25619,-117.647058823529,4,2,22,62,0,0
26493,-117.647058823529,4,2,22,72,0,0
35813,-117.647058823529,4,2,22,62,0,0
45133,-285.714285714284,4,2,22,52,0,0
49211,-181.818181818181,4,2,22,52,0,0
49794,-117.647058823529,4,2,22,62,0,0
54454,-117.647058823529,4,2,22,72,0,0
58386,-117.647058823529,4,2,22,22,0,0
58531,-285.714285714283,4,2,22,62,0,0
58895,-285.714285714283,4,2,22,5,0,0
58968,-95.238095238095,4,2,22,82,0,1
80959,-285.714285714286,4,2,22,82,0,0
81978,-285.714285714286,4,2,22,72,0,0
82342,-285.714285714286,4,2,22,5,0,0
82415,-105.263157894737,4,2,22,62,0,0

[Colours]
Combo1 : 226,63,63
Combo2 : 60,101,164
Combo3 : 185,231,236

[HitObjects]
294,219,7269,6,0,L|280:324,1,95.5499970840455,8|0,0:3|0:0,0:0:0:0:
205,348,7852,6,0,B|160:369|113:338|141:322|89:290|45:307,1,177.449991876984,6|0,3:2|0:0,0:0:0:0:
11,232,8434,2,0,P|20:176|25:150,1,59.149997292328,0|0,3:0|0:0,0:0:0:0:
131,70,8726,2,0,P|136:99|140:128,1,59.149997292328,0|0,3:0|0:0,0:0:0:0:
226,237,9017,2,0,P|264:225|297:218,1,59.149997292328,4|0,3:2|0:0,0:0:0:0:
384,114,9308,2,0,P|346:102|313:95,1,59.149997292328,0|0,3:0|0:0,0:0:0:0:
480,231,9599,2,0,P|488:189|496:154,1,59.149997292328,4|0,3:2|0:0,0:0:0:0:
352,275,9891,2,0,P|358:303|363:333,1,59.149997292328,0|0,3:0|0:0,0:0:0:0:
193,363,10182,6,0,P|135:378|48:287,1,177.449991876984,6|0,3:2|0:0,0:0:0:0:
130,206,10764,2,0,P|137:253|143:289,1,59.149997292328,0|0,3:0|0:0,0:0:0:0:
8,109,11056,2,0,P|1:156|-5:192,1,59.149997292328,0|0,3:0|0:0,0:0:0:0:
172,75,11347,1,0,3:0:0:0:
62,6,11493,1,4,0:0:0:0:
144,174,11638,2,0,P|189:164|219:157,1,59.149997292328,0|0,3:0|0:0,0:0:0:0:
301,26,11929,2,0,P|256:16|226:9,1,59.149997292328,4|0,3:2|0:0,0:0:0:0:
378,193,12221,2,0,P|387:151|395:119,1,59.149997292328,0|0,3:0|0:0,0:0:0:0:
100,217,12512,6,0,P|112:288|128:373,1,154.700002950668,6|0,3:2|3:0,0:0:0:0:
242,137,12949,1,0,3:0:0:0:
313,317,13095,2,0,P|366:328|409:337,1,77.3500014753342,0|0,3:0|3:0,0:0:0:0:
175,201,13386,2,0,P|122:212|79:221,1,77.3500014753342,0|0,3:0|3:0,0:0:0:0:
322,125,13677,5,0,3:0:0:0:
240,283,13823,1,0,3:0:0:0:
156,94,13968,1,0,3:0:0:0:
380,208,14114,1,0,3:0:0:0:
144,304,14260,1,0,3:2:0:0:
262,72,14405,1,0,3:2:0:0:
316,343,14551,1,0,3:0:0:0:
73,208,14696,1,0,3:0:0:0:
369,55,14842,5,8,3:2:0:0:
227,373,14988,1,8,3:2:0:0:
69,52,15279,5,8,3:2:0:0:
453,216,15570,5,8,3:2:0:0:
69,376,15861,5,8,3:2:0:0:
244,105,16153,5,0,3:0:0:0:
244,105,16226,1,0,3:0:0:0:
244,105,16298,2,0,B|252:179|252:179|283:208|283:208|293:292,1,191.099994168091,14|0,0:0|3:0,0:0:0:0:
336,151,16735,1,8,0:3:0:0:
202,242,16881,1,4,0:3:0:0:
360,310,17027,1,0,3:0:0:0:
41,384,17172,5,0,3:0:0:0:
41,384,17463,2,0,L|102:374,1,50.0500015274048,2|0,0:0|0:0,0:0:0:0:
160,297,17755,2,0,L|270:313,1,100.10000305481,2|0,0:0|0:0,0:0:0:0:
356,370,18192,6,0,P|421:376|475:295,1,150.150004582214,2|0,0:0|0:0,0:0:0:0:
369,190,18920,2,0,P|375:226|385:293,1,100.10000305481,2|0,0:0|0:0,0:0:0:0:
327,352,19357,2,0,P|278:336|222:355,1,100.10000305481,2|0,0:0|0:0,0:0:0:0:
160,380,19794,1,2,0:0:0:0:
25,132,20376,5,2,0:0:0:0:
25,132,20667,2,0,B|113:113|76:192|175:173,1,150.150004582214,2|0,0:0|0:0,0:0:0:0:
261,104,21250,2,0,P|253:162|238:261,1,150.150004582214,2|0,0:0|0:0,0:0:0:0:
223,331,21832,1,2,0:0:0:0:
223,331,22415,6,0,P|273:325|342:319,1,100.10000305481,2|0,0:0|0:0,0:0:0:0:
489,220,22997,2,0,P|439:214|370:208,1,100.10000305481,2|0,0:0|0:0,0:0:0:0:
298,206,23434,1,2,0:0:0:0:
298,206,23871,2,0,L|308:141,1,50.0500015274048,2|0,0:0|0:0,0:0:0:0:
257,57,24162,6,0,P|197:47|131:121,1,150.150004582214,2|0,0:0|0:0,0:0:0:0:
10,136,24745,2,0,P|70:126|136:200,1,150.150004582214,2|0,0:0|0:0,0:0:0:0:
197,343,25328,5,2,0:0:0:0:
43,244,25473,1,0,3:0:0:0:
220,145,25619,2,0,P|212:193|205:241,1,77.3500014753342,8|0,0:0|0:0,0:0:0:0:
106,352,25910,1,8,0:0:0:0:
106,352,25983,1,8,0:0:0:0:
106,352,26056,2,0,L|42:344,1,38.6750007376671,8|8,0:0|0:0,0:0:0:0:
16,201,26201,1,8,0:0:0:0:
16,201,26274,1,8,0:0:0:0:
16,201,26347,2,0,L|82:197,1,38.6750007376671,8|8,0:0|0:0,0:0:0:0:
178,54,26493,6,0,P|127:47|84:42,1,77.3500014753342,4|0,3:2|3:0,0:0:0:0:
262,193,26784,2,0,P|313:186|356:181,1,77.3500014753342,10|0,0:2|0:0,0:0:0:0:
270,30,27075,1,2,3:2:0:0:
163,159,27221,2,0,P|170:203|179:264,1,77.3500014753342,2|8,3:2|0:0,0:0:0:0:
414,106,27512,6,0,P|419:67|425:29,1,77.3500014753342,2|0,0:0|3:0,0:0:0:0:
438,267,27803,1,0,3:0:0:0:
281,159,27949,2,0,P|275:120|269:82,1,77.3500014753342,10|0,0:0|0:0,0:0:0:0:
237,312,28240,1,2,3:2:0:0:
392,184,28386,2,0,P|435:183|488:210,1,77.3500014753342,2|8,3:2|0:0,0:0:0:0:
338,351,28677,6,0,P|295:352|242:325,1,77.3500014753342,2|0,0:0|3:0,0:0:0:0:
125,188,28968,1,0,3:0:0:0:
56,338,29114,1,10,0:2:0:0:
211,275,29260,1,0,0:2:0:0:
27,171,29405,2,0,P|34:226|40:275,1,77.3500014753342,2|0,3:2|3:0,0:0:0:0:
124,99,29696,1,8,0:0:0:0:
243,292,29842,6,0,P|247:253|252:215,1,77.3500014753342,2|0,0:0|3:0,0:0:0:0:
356,58,30133,1,0,3:0:0:0:
433,216,30279,1,8,0:0:0:0:
275,137,30425,1,0,3:0:0:0:
457,52,30570,1,10,0:0:0:0:
457,52,30643,1,8,0:0:0:0:
457,52,30716,1,0,3:0:0:0:
457,52,30789,1,0,3:0:0:0:
457,52,30861,2,0,P|461:90|466:128,1,77.3500014753342,14|0,0:2|0:0,0:0:0:0:
294,291,31153,5,6,3:2:0:0:
368,153,31298,1,2,3:2:0:0:
486,335,31444,2,0,P|440:341|403:346,1,77.3500014753342,10|0,0:0|0:0,0:0:0:0:
212,179,31735,2,0,P|258:185|295:190,1,77.3500014753342,2|0,3:2|0:0,0:0:0:0:
166,349,32027,2,0,P|120:355|83:360,1,77.3500014753342,10|2,0:2|0:0,0:0:0:0:
76,91,32318,5,2,3:2:0:0:
210,180,32463,1,0,3:0:0:0:
28,290,32609,2,0,P|21:233|16:194,1,77.3500014753342,8|0,0:0|0:0,0:0:0:0:
215,102,32900,1,0,3:2:0:0:
125,281,33046,1,2,3:2:0:0:
0,103,33192,2,0,P|52:95|94:89,1,77.3500014753342,10|2,0:2|0:2,0:0:0:0:
238,273,33483,5,6,3:2:0:0:
384,137,33628,2,0,P|379:82|376:37,1,77.3500014753342,2|8,3:2|0:0,0:0:0:0:
137,172,33920,2,0,P|134:210|130:249,1,77.3500014753342,2|0,0:2|3:0,0:0:0:0:
357,335,34211,1,2,3:2:0:0:
263,129,34357,1,8,0:0:0:0:
40,321,34502,6,0,P|73:355|186:349,1,154.700002950668,6|0,3:2|0:0,0:0:0:0:
159,106,34939,2,0,P|112:96|75:90,1,77.3500014753342,10|0,0:0|3:0,0:0:0:0:
234,261,35230,2,0,P|271:252|309:246,1,77.3500014753342,10|0,0:0|3:0,0:0:0:0:
389,109,35522,1,8,0:3:0:0:
472,245,35667,1,0,0:0:0:0:
512,48,35813,6,0,P|502:99|493:156,1,77.3500014753342,6|0,3:2|0:0,0:0:0:0:
393,277,36104,2,0,P|386:238|378:200,1,77.3500014753342,0|0,3:0|0:0,0:0:0:0:
263,31,36395,2,0,P|253:82|244:139,1,77.3500014753342,4|0,3:2|0:0,0:0:0:0:
86,193,36687,1,0,3:0:0:0:
224,264,36832,1,2,3:2:0:0:
113,100,36978,6,0,P|39:105|1:193,1,154.700002950668,14|2,0:2|3:2,0:0:0:0:
62,325,37415,2,0,P|108:320|145:318,1,77.3500014753342,2|4,0:0|3:2,0:0:0:0:
266,180,37706,2,0,P|220:175|183:173,1,77.3500014753342,2|0,0:0|3:0,0:0:0:0:
325,328,37997,1,2,0:0:0:0:
459,252,38143,6,0,P|467:210|475:170,1,77.3500014753342,4|0,3:2|0:0,0:0:0:0:
314,25,38434,2,0,P|321:62|328:100,1,77.3500014753342,2|0,3:2|0:0,0:0:0:0:
504,62,38726,2,0,P|456:54|410:46,1,77.3500014753342,6|0,3:2|0:0,0:0:0:0:
334,221,39017,1,2,3:2:0:0:
237,91,39162,1,2,3:0:0:0:
140,221,39308,6,0,P|132:258|125:296,1,77.3500014753342,12|0,0:2|3:0,0:0:0:0:
17,128,39599,2,0,P|9:90|2:52,1,77.3500014753342,2|0,3:2|0:0,0:0:0:0:
197,148,39891,2,0,P|249:157|288:164,1,77.3500014753342,6|0,3:2|3:0,0:0:0:0:
41,243,40182,1,2,3:2:0:0:
106,98,40328,1,2,0:0:0:0:
278,286,40473,6,0,P|318:277|359:268,1,77.3500014753342,4|0,0:2|3:0,0:0:0:0:
479,113,40764,2,0,P|439:104|398:95,1,77.3500014753342,0|0,3:0|0:0,0:0:0:0:
473,259,41056,1,14,0:2:0:0:
270,107,41201,2,0,P|278:157|286:207,1,77.3500014753342,0|0,3:0|0:0,0:0:0:0:
106,365,41493,6,0,P|74:323|88:220,1,154.700002950668,0|0,3:0|3:0,0:0:0:0:
209,316,41929,2,0,P|254:305|292:297,1,77.3500014753342,0|0,3:0|0:0,0:0:0:0:
169,145,42221,2,0,P|124:134|86:126,1,77.3500014753342,14|0,0:0|0:0,0:0:0:0:
326,10,42512,2,0,P|318:48|310:86,1,77.3500014753342,0|0,3:0|0:0,0:0:0:0:
492,278,42803,5,6,3:2:0:0:
389,134,42949,1,0,3:0:0:0:
307,287,43095,2,0,P|319:339|329:381,1,77.3500014753342,0|0,3:0|0:0,0:0:0:0:
201,133,43386,1,12,0:0:0:0:
377,230,43531,2,0,P|419:221|465:211,1,77.3500014753342,0|0,3:0|0:0,0:0:0:0:
228,360,43823,6,0,B|167:352|167:352|145:327|145:327|64:317,1,154.700002950668,0|0,3:0|3:0,0:0:0:0:
216,147,44260,2,0,P|225:195|235:240,1,77.3500014753342,0|0,3:0|0:0,0:0:0:0:
35,106,44551,1,8,0:3:0:0:
171,35,44696,1,4,0:3:0:0:
78,225,44842,2,0,P|38:217|-5:209,1,77.3500014753342,4|0,0:3|3:3,0:0:0:0:
287,96,45133,6,0,P|329:91|395:83,1,95.5499970840455,2|0,0:0|0:0,0:0:0:0:
463,187,45716,2,0,P|428:192|391:197,1,63.6999980560303
179,359,46298,6,0,P|162:321|177:264,2,95.5499970840455,2|0|0,0:0|0:0|0:0,0:0:0:0:
291,286,47463,6,0,P|285:243|280:209,1,63.6999980560303,2|0,0:0|0:0,0:0:0:0:
216,138,47900,2,0,L|224:34,1,95.5499970840455,2|0,0:0|0:0,0:0:0:0:
85,120,48628,6,0,P|40:129|14:123,1,63.6999980560303,2|0,0:0|0:0,0:0:0:0:
305,267,49211,6,0,L|411:278,1,100.10000305481,2|6,3:0|0:3,0:0:0:0:
96,354,49794,6,0,P|89:304|82:261,1,77.3500014753342,6|0,3:2|0:0,0:0:0:0:
263,100,50085,2,0,P|257:138|251:176,1,77.3500014753342,0|0,3:0|0:0,0:0:0:0:
0,191,50376,2,0,P|37:155|147:177,1,154.700002950668,2|2,3:2|3:2,0:0:0:0:
245,248,50813,1,0,0:0:0:0:
153,365,50959,6,0,P|110:357|50:347,1,77.3500014753342,2|0,3:2|0:0,0:0:0:0:
271,149,51250,2,0,P|278:204|284:248,1,77.3500014753342,0|0,3:0|0:3,0:0:0:0:
56,100,51541,1,2,3:2:0:0:
220,22,51687,1,0,0:0:0:0:
150,226,51832,2,0,P|91:218|39:210,1,77.3500014753342,0|0,3:2|0:0,0:0:0:0:
380,36,52124,6,0,B|427:78|427:78|386:184,1,154.700002950668,6|0,3:2|3:0,0:0:0:0:
308,322,52561,1,0,0:0:0:0:
171,141,52706,2,0,P|184:203|191:252,1,77.3500014753342,0|2,3:0|0:0,0:0:0:0:
318,88,52997,1,2,3:0:0:0:
246,271,53143,1,2,0:0:0:0:
80,80,53289,6,0,P|135:67|178:58,1,77.3500014753342,6|8,3:2|0:0,0:0:0:0:
304,179,53580,1,10,0:0:0:0:
147,288,53726,1,0,3:0:0:0:
147,288,53798,1,0,3:0:0:0:
147,288,53871,2,0,P|92:275|49:266,1,77.3500014753342,14|0,0:0|3:0,0:0:0:0:
255,110,54162,2,0,L|268:215,1,77.3500014753342,14|0,0:0|3:0,0:0:0:0:
18,344,54454,5,14,0:0:0:0:
193,234,54599,1,0,3:0:0:0:
33,146,54745,1,0,3:0:0:0:
200,351,54891,2,0,P|252:339|287:331,1,77.3500014753342,14|0,0:0|3:0,0:0:0:0:
180,109,55182,1,0,3:0:0:0:
75,284,55328,2,0,P|23:272|-12:264,1,77.3500014753342,14|0,0:0|3:0,0:0:0:0:
117,42,55619,1,0,3:0:0:0:
261,262,55764,2,0,P|313:250|348:242,1,77.3500014753342,14|0,0:0|3:0,0:0:0:0:
229,19,56055,5,0,3:0:0:0:
34,134,56201,1,12,0:0:0:0:
244,221,56347,1,0,3:0:0:0:
120,97,56493,2,0,P|77:106|33:117,1,77.3500014753342,12|0,0:0|0:0,0:0:0:0:
120,328,56784,6,0,P|163:337|207:348,1,77.3500014753342,4|0,3:2|0:0,0:0:0:0:
313,186,57075,2,0,P|270:195|226:206,1,77.3500014753342,0|0,3:0|3:0,0:0:0:0:
465,336,57366,1,8,0:0:0:0:
352,104,57512,1,8,0:0:0:0:
271,289,57658,1,8,0:0:0:0:
428,60,57803,5,8,0:0:0:0:
428,60,58531,6,0,L|437:138,1,63.6999980560303,4|0,0:3|0:0,0:0:0:0:
300,126,58968,6,0,B|352:103|408:136|373:157|436:193|491:160,1,191.099994168091,4|0,3:2|0:0,0:0:0:0:
340,256,59405,2,0,P|288:248|234:244,1,95.5499970840455,8|0,0:0|0:0,0:0:0:0:
151,29,59696,2,0,P|203:21|257:17,1,95.5499970840455,2|0,3:2|0:0,0:0:0:0:
115,253,59988,1,8,0:0:0:0:
40,118,60133,1,0,0:0:0:0:
241,199,60279,6,0,P|230:262|221:322,1,95.5499970840455,2|0,3:2|0:0,0:0:0:0:
22,374,60570,2,0,P|14:326|6:279,1,95.5499970840455,8|0,0:0|0:0,0:0:0:0:
123,78,60861,2,0,P|143:134|115:191,1,95.5499970840455,2|0,3:2|0:0,0:0:0:0:
0,89,61153,1,8,0:0:0:0:
114,262,61298,6,0,B|189:271|189:271|218:311|218:311|299:323,1,191.099994168091,2|2,0:0|0:0,0:0:0:0:
385,148,61735,2,0,P|330:153|294:199,1,95.5499970840455,10|0,0:0|0:0,0:0:0:0:
460,326,62027,2,0,P|483:275|461:221,1,95.5499970840455,0|0,3:0|0:0,0:0:0:0:
193,228,62318,1,10,0:0:0:0:
324,356,62463,1,2,0:0:0:0:
273,132,62609,5,2,3:2:0:0:
180,318,62755,1,0,0:0:0:0:
369,229,62900,1,10,0:0:0:0:
167,127,63046,1,2,0:0:0:0:
278,277,63192,1,2,3:2:0:0:
390,69,63337,2,0,P|337:62|284:52,1,95.5499970840455,2|8,3:2|0:0,0:0:0:0:
36,248,63628,6,0,P|108:264|185:163,1,191.099994168091,6|0,3:2|3:0,0:0:0:0:
68,53,64065,2,0,P|79:116|87:164,1,95.5499970840455,10|0,0:0|0:0,0:0:0:0:
278,273,64357,2,0,P|285:225|294:178,1,95.5499970840455,0|0,3:0|0:0,0:0:0:0:
79,284,64648,1,10,0:0:0:0:
243,384,64794,1,2,0:0:0:0:
196,211,64939,5,2,3:2:0:0:
91,373,65085,2,0,P|36:359|-21:348,1,95.5499970840455,2|8,0:0|0:0,0:0:0:0:
75,155,65376,2,0,P|130:141|187:130,1,95.5499970840455,2|0,0:0|3:0,0:0:0:0:
335,249,65667,1,2,3:0:0:0:
160,318,65813,1,8,0:0:0:0:
245,50,65959,6,0,B|302:102|302:102|258:220,1,191.099994168091,4|0,2:0|3:2,0:0:0:0:
39,116,66395,2,0,P|29:52|21:1,1,95.5499970840455,10|0,0:0|0:0,0:0:0:0:
196,134,66687,1,0,3:0:0:0:
87,285,66832,2,0,P|31:288|-17:242,1,95.5499970840455,2|8,3:2|0:0,0:0:0:0:
303,355,67124,6,0,B|375:343|375:343|401:301|401:301|492:285,1,191.099994168091,6|0,3:2|3:0,0:0:0:0:
311,113,67561,1,8,0:0:0:0:
226,252,67706,1,0,3:0:0:0:
226,252,67779,1,0,3:0:0:0:
226,252,67852,1,10,0:0:0:0:
413,136,67997,1,2,3:2:0:0:
244,43,68143,1,8,0:0:0:0:
383,242,68289,6,0,P|466:239|506:123,1,191.099994168091,6|0,3:2|3:0,0:0:0:0:
418,30,68726,2,0,P|411:90|404:142,1,95.5499970840455,8|0,0:0|0:0,0:0:0:0:
210,294,69017,2,0,P|203:246|198:199,1,95.5499970840455,2|0,3:2|0:0,0:0:0:0:
117,15,69308,1,8,0:2:0:0:
288,97,69454,1,0,0:0:0:0:
127,213,69599,6,0,P|80:224|25:194,1,95.5499970840455,2|0,3:2|0:0,0:0:0:0:
250,23,69891,2,0,P|297:12|352:42,1,95.5499970840455,8|0,0:0|0:0,0:0:0:0:
439,248,70182,2,0,P|392:259|337:229,1,95.5499970840455,2|0,3:2|0:0,0:0:0:0:
419,57,70473,1,8,0:0:0:0:
267,211,70619,1,2,0:0:0:0:
115,41,70764,6,0,P|126:107|134:153,1,95.5499970840455,4|2,3:2|0:0,0:0:0:0:
269,319,71056,2,0,P|277:271|284:224,1,95.5499970840455,10|0,0:2|0:0,0:0:0:0:
60,219,71347,1,0,3:2:0:0:
147,340,71493,1,0,0:0:0:0:
256,143,71638,2,0,P|210:123|144:136,1,95.5499970840455,10|0,0:0|0:0,0:0:0:0:
358,351,71929,6,0,P|404:371|470:358,1,95.5499970840455,2|0,3:2|0:0,0:0:0:0:
409,66,72221,2,0,P|400:113|393:160,1,95.5499970840455,10|0,0:0|0:0,0:0:0:0:
199,321,72512,2,0,P|190:273|183:226,1,95.5499970840455,2|0,3:2|0:0,0:0:0:0:
55,30,72803,1,10,0:0:0:0:
261,107,72949,1,4,0:3:0:0:
261,107,73022,1,4,0:3:0:0:
261,107,73095,6,0,B|203:120|203:120|179:170|179:170|75:191,1,191.099994168091,6|10,3:2|0:0,0:0:0:0:
325,318,73531,2,0,P|390:330|445:340,1,95.5499970840455,2|0,0:0|3:0,0:0:0:0:
338,121,73823,1,0,0:0:0:0:
180,328,73968,6,0,P|169:263|160:218,1,95.5499970840455,10|0,0:0|0:0,0:0:0:0:
224,77,74260,1,2,3:2:0:0:
354,288,74405,2,0,P|365:223|374:178,1,95.5499970840455,2|8,0:0|0:0,0:0:0:0:
289,11,74696,1,0,0:0:0:0:
190,214,74842,2,0,P|130:201|76:191,1,95.5499970840455,2|0,3:2|0:0,0:0:0:0:
0,19,75133,2,0,P|60:6|114:-4,1,95.5499970840455,10|0,0:0|0:0,0:0:0:0:
281,170,75425,5,2,3:2:0:0:
193,322,75570,1,0,3:0:0:0:
62,148,75716,2,0,P|111:133|167:148,1,95.5499970840455,12|0,0:0|0:0,0:0:0:0:
118,359,76007,2,0,P|111:298|105:243,1,95.5499970840455,2|0,3:2|3:0,0:0:0:0:
282,148,76298,2,0,P|276:195|271:242,1,95.5499970840455,12|0,0:0|0:0,0:0:0:0:
20,324,76590,5,8,3:2:0:0:
97,152,76735,1,2,3:2:0:0:
255,319,76881,2,0,P|205:335|146:315,1,95.5499970840455,8|0,0:2|3:0,0:0:0:0:
255,128,77172,2,0,P|305:112|364:132,1,95.5499970840455,10|0,0:0|3:0,0:0:0:0:
465,311,77463,1,12,0:0:0:0:
294,222,77609,1,0,3:0:0:0:
499,85,77755,6,0,P|489:140|479:200,1,95.5499970840455,14|0,0:0|3:0,0:0:0:0:
372,324,78046,1,0,3:0:0:0:
274,3,78192,2,0,P|284:58|294:118,1,95.5499970840455,12|0,0:0|3:0,0:0:0:0:
200,312,78483,1,0,3:0:0:0:
92,42,78628,6,0,P|82:97|72:157,1,95.5499970840455,12|0,0:0|3:0,0:0:0:0:
201,347,78919,1,0,3:0:0:0:
362,80,79065,2,0,P|372:135|382:195,1,95.5499970840455,14|0,0:2|3:0,0:0:0:0:
286,384,79356,5,0,3:0:0:0:
170,158,79502,1,14,0:0:0:0:
353,257,79648,1,0,3:0:0:0:
149,368,79794,2,0,P|96:357|37:347,1,95.5499970840455,14|0,0:0|3:0,0:0:0:0:
237,120,80085,5,10,0:0:0:0:
353,322,80230,1,8,0:2:0:0:
313,39,80376,1,4,0:3:0:0:
249,290,80522,2,0,P|238:361|231:409,1,95.5499970840455,10|8,0:0|0:3,0:0:0:0:
111,50,80813,1,6,0:3:0:0:
431,215,80959,1,14,0:0:0:0:
49,367,81978,5,0,3:0:0:0:
49,367,82051,1,0,3:0:0:0:
49,367,82124,2,0,P|53:327|55:307,1,47.7749985420228,12|0,0:0|0:0,0:0:0:0:
102,237,82415,6,0,B|169:245|169:245|195:284|195:284|269:295,1,172.899995383072,4|10,3:2|0:0,0:0:0:0:
422,197,82852,1,0,0:0:0:0:
252,113,82997,1,2,3:2:0:0:
338,350,83143,2,0,P|346:304|354:251,1,86.449997691536,2|8,0:2|0:0,0:0:0:0:
272,91,83434,1,2,0:0:0:0:
150,281,83580,2,0,P|142:235|134:182,1,86.449997691536,0|0,3:0|0:0,0:0:0:0:
369,69,83871,2,0,P|361:115|353:168,1,86.449997691536,10|0,0:2|0:0,0:0:0:0:
131,80,84162,5,2,3:2:0:0:
226,284,84308,1,2,0:2:0:0:
313,83,84454,1,10,0:0:0:0:
220,311,84599,1,0,0:2:0:0:
34,148,84745,6,0,P|15:229|72:290,1,172.899995383072,2|10,3:2|0:2,0:0:0:0:
200,216,85182,1,0,0:2:0:0:
140,56,85328,2,0,P|96:47|48:40,1,86.449997691536,2|2,3:2|0:2,0:0:0:0:
117,256,85619,1,8,0:0:0:0:
246,102,85764,2,0,P|290:93|338:86,1,86.449997691536,2|2,0:2|3:2,0:0:0:0:
245,309,86056,1,0,0:0:0:0:
102,182,86201,2,0,P|43:193|1:199,1,86.449997691536,10|0,0:0|0:0,0:0:0:0:
322,249,86493,5,2,3:2:0:0:
175,86,86638,1,0,0:0:0:0:
77,337,86784,1,8,0:0:0:0:
98,338,86857,1,8,0:0:0:0:
119,339,86929,1,8,0:0:0:0:
140,341,87002,1,8,0:0:0:0:
161,343,87075,6,0,B|222:302|222:302|186:172,1,172.899995383072,6|10,3:2|0:2,0:0:0:0:
257,16,87512,1,0,0:0:0:0:
91,114,87658,1,2,3:2:0:0:
310,219,87803,2,0,P|320:162|329:110,1,86.449997691536,2|8,0:2|0:0,0:0:0:0:
161,32,88095,1,2,0:2:0:0:
238,296,88240,2,0,P|301:308|347:317,1,86.449997691536,0|0,3:0|0:0,0:0:0:0:
229,112,88531,2,0,P|166:124|120:133,1,86.449997691536,10|0,0:0|0:0,0:0:0:0:
434,258,88823,5,2,3:2:0:0:
337,54,88968,1,2,0:0:0:0:
247,285,89114,1,10,0:0:0:0:
343,76,89260,1,2,0:0:0:0:
503,367,89405,6,0,P|436:355|370:345,1,129.674996537304,6|0,3:2|0:0,0:0:0:0:
311,301,89696,1,0,3:2:0:0:
290,307,89769,1,0,3:2:0:0:
268,311,89842,1,0,3:2:0:0:
247,317,89915,1,0,3:2:0:0:
226,322,89988,5,8,0:0:0:0:
102,75,90133,1,8,0:0:0:0:
453,177,90425,5,12,0:0:0:0:
