osu file format v14

[General]
AudioFilename: audio.mp3
AudioLeadIn: 0
PreviewTime: 58459
Countdown: 0
SampleSet: Soft
StackLeniency: 0.7
Mode: 0
LetterboxInBreaks: 0
WidescreenStoryboard: 1

[Editor]
Bookmarks: 7405
DistanceSpacing: 1.4
BeatDivisor: 4
GridSize: 16
TimelineZoom: 1

[Metadata]
Title:Realize (TV Size)
TitleUnicode:Realize (TV Size)
Artist:Suzuki Konomi
ArtistUnicode:鈴木このみ
Creator:Sotarks
Version:Kowari's Hard
Source:Re:ゼロから始める異世界生活
Tags:zero re:zero rezero kara Hajimeru Isekai Seikatsu starting life in another world anime opening op female japanese vocalist basensorex kujinn reform kowari eli elinor [_eli_] 2nd season white fox emilia natsuki subaru rem ram from
BeatmapID:2480903
BeatmapSetID:1190710

[Difficulty]
HPDrainRate:4.5
CircleSize:3.5
OverallDifficulty:7
ApproachRate:8
SliderMultiplier:1.3
SliderTickRate:1

[Events]
//Background and Video events
0,0,"bg.jpg",0,0
//Break Periods
2,17373,24723
2,45334,48461
//Storyboard Layer 0 (Background)
//Storyboard Layer 1 (Fail)
//Storyboard Layer 2 (Pass)
//Storyboard Layer 3 (Foreground)
//Storyboard Layer 4 (Overlay)
//Storyboard Sound Samples

[TimingPoints]
862,291.26213592233,4,2,22,52,1,0
7779,-100,4,2,22,5,0,0
7852,-111.111111111111,4,2,22,62,0,0
17172,-200,4,2,22,52,0,0
25328,-125,4,2,22,52,0,0
25619,-125,4,2,22,62,0,0
26493,-111.111111111111,4,2,22,72,0,0
35813,-125,4,2,22,62,0,0
45133,-200,4,2,22,52,0,0
49211,-125,4,2,22,52,0,0
49794,-111.111111111111,4,2,22,62,0,0
54454,-99.9999999999999,4,2,22,72,0,0
58531,-99.9999999999999,4,2,22,62,0,0
58968,-90.9090909090909,4,2,22,82,0,0
80959,-100,4,2,22,82,0,0
81978,-100,4,2,22,72,0,0
82342,-100,4,2,22,5,0,0
82415,-100,4,2,22,62,0,0

[Colours]
Combo1 : 226,63,63
Combo2 : 60,101,164
Combo3 : 185,231,236

[HitObjects]
475,64,7269,5,8,0:3:0:0:
475,64,7852,6,0,P|438:47|349:78,1,116.999996429443,6|0,3:2|3:0,0:0:0:0:
292,207,8434,2,0,P|237:224|182:205,1,116.999996429443,0|0,3:0|3:0,0:0:0:0:
27,150,9017,2,0,L|39:273,1,116.999996429443,4|0,3:2|3:0,0:0:0:0:
193,321,9599,2,0,L|181:198,1,116.999996429443,4|0,3:2|3:0,0:0:0:0:
257,58,10182,5,6,3:2:0:0:
417,89,10473,1,0,3:0:0:0:
439,251,10764,2,0,P|409:288|333:294,1,116.999996429443,0|0,3:0|3:0,0:0:0:0:
201,214,11347,2,0,L|115:224,1,58.4999982147217,0|4,3:0|0:0,0:0:0:0:
46,231,11638,1,0,3:0:0:0:
3,72,11929,2,0,P|41:43|119:54,1,116.999996429443,4|0,3:2|3:0,0:0:0:0:
156,112,12366,1,0,0:0:0:0:
252,92,12512,6,0,L|380:74,1,116.999996429443,6|0,3:2|0:0,0:0:0:0:
442,110,12949,1,0,3:0:0:0:
472,186,13095,2,0,L|461:248,1,58.4999982147217,0|0,3:0|3:0,0:0:0:0:
387,209,13386,2,0,L|376:271,1,58.4999982147217,0|0,3:0|3:0,0:0:0:0:
292,339,13678,2,0,P|264:312|258:286,1,58.4999982147217,0|0,3:0|3:0,0:0:0:0:
165,307,13969,2,0,P|164:268|178:245,1,58.4999982147217,0|0,3:0|3:0,0:0:0:0:
236,198,14260,1,0,3:2:0:0:
236,198,14405,1,0,3:2:0:0:
176,141,14551,1,0,3:0:0:0:
176,141,14696,1,0,3:0:0:0:
233,52,14842,5,8,3:2:0:0:
233,52,14988,1,8,3:2:0:0:
73,160,15279,1,8,3:2:0:0:
254,208,15571,1,8,3:2:0:0:
93,309,15861,1,8,3:2:0:0:
252,349,16153,5,0,3:0:0:0:
252,349,16226,1,0,3:0:0:0:
252,349,16298,2,0,B|297:342|297:342|323:359|323:359|379:354,1,116.999996429443,14|0,0:0|3:0,0:0:0:0:
444,342,16735,1,8,0:3:0:0:
467,263,16881,2,0,P|456:230|432:204,1,58.4999982147217,4|0,0:3|3:0,0:0:0:0:
361,190,17173,1,0,3:0:0:0:
5,149,25473,5,0,3:0:0:0:
48,81,25619,2,0,L|116:70,1,52,8|0,0:0|0:0,0:0:0:0:
175,45,25910,2,0,L|210:54,3,26,8|8|8|8,0:0|0:0|0:0|0:0,0:0:0:0:
238,59,26201,2,0,L|263:52,3,26,8|8|8|8,0:0|0:0|0:0|0:0,0:0:0:0:
302,38,26493,6,0,B|317:65|317:65|311:108,1,58.4999982147217,4|0,3:2|3:0,0:0:0:0:
248,143,26784,2,0,L|264:270,1,116.999996429443,10|2,0:2|3:2,0:0:0:0:
327,309,27221,1,2,3:2:0:0:
383,249,27366,2,0,P|413:236|452:239,1,58.4999982147217,8|2,0:0|0:0,0:0:0:0:
494,303,27658,5,0,3:0:0:0:
494,303,27803,1,0,3:0:0:0:
442,366,27949,2,0,L|371:360,1,58.4999982147217,10|0,0:0|0:0,0:0:0:0:
314,316,28240,1,2,3:2:0:0:
314,316,28386,2,0,L|228:327,1,58.4999982147217,2|8,3:2|0:0,0:0:0:0:
181,358,28677,1,2,0:0:0:0:
124,300,28823,6,0,P|119:263|126:235,1,58.4999982147217,0|0,3:0|3:0,0:0:0:0:
186,190,29114,1,10,0:2:0:0:
186,190,29260,1,0,0:2:0:0:
182,108,29405,2,0,L|180:38,2,58.4999982147217,2|0|8,3:2|3:0|0:0,0:0:0:0:
109,146,29842,5,2,0:0:0:0:
109,146,29988,2,0,L|41:136,1,58.4999982147217,0|0,3:0|3:0,0:0:0:0:
8,207,30279,2,0,P|0:240|5:267,1,58.4999982147217,8|0,0:0|3:0,0:0:0:0:
67,316,30570,2,0,L|114:304,3,29.2499991073609,10|8|0|0,0:0|0:0|3:0|3:0,0:0:0:0:
135,300,30861,1,14,0:2:0:0:
288,242,31153,5,6,3:2:0:0:
288,242,31298,1,2,3:2:0:0:
353,291,31444,2,0,L|344:350,1,58.4999982147217,10|0,0:0|0:0,0:0:0:0:
441,273,31736,2,0,P|464:225|439:157,1,116.999996429443,2|10,3:2|0:2,0:0:0:0:
378,122,32172,1,2,0:0:0:0:
308,166,32318,6,0,L|239:160,1,58.4999982147217,2|0,3:2|3:0,0:0:0:0:
211,90,32609,2,0,L|152:95,1,58.4999982147217,8|0,0:0|0:0,0:0:0:0:
78,59,32900,1,0,3:2:0:0:
41,132,33046,1,2,3:2:0:0:
41,132,33192,2,0,B|31:164|31:164|39:196,1,58.4999982147217,10|2,0:2|0:2,0:0:0:0:
95,253,33483,5,6,3:2:0:0:
95,253,33628,2,0,L|169:239,1,58.4999982147217,2|8,3:2|0:0,0:0:0:0:
218,192,33920,2,0,L|296:201,1,58.4999982147217,2|0,0:2|3:0,0:0:0:0:
339,146,34211,1,2,3:2:0:0:
339,146,34357,1,8,0:0:0:0:
321,66,34502,6,0,P|361:40|439:63,1,116.999996429443,6|0,3:2|0:0,0:0:0:0:
472,119,34939,1,10,0:0:0:0:
422,184,35085,1,0,3:0:0:0:
422,184,35158,1,0,3:0:0:0:
422,184,35230,2,0,L|413:249,1,58.4999982147217,10|0,0:0|3:0,0:0:0:0:
496,245,35522,2,0,L|487:310,1,58.4999982147217,8|0,0:3|0:0,0:0:0:0:
421,365,35813,6,0,B|373:364|385:328|313:332,1,104,6|0,3:2|3:0,0:0:0:0:
195,265,36395,2,0,B|243:264|231:228|303:232,1,104,4|0,3:2|3:0,0:0:0:0:
345,173,36832,1,2,3:2:0:0:
311,101,36978,5,14,0:2:0:0:
311,101,37124,2,0,L|253:94,1,52,0|2,3:0|3:2,0:0:0:0:
197,46,37415,2,0,L|136:57,1,52,2|4,0:0|3:2,0:0:0:0:
72,6,37707,2,0,P|55:39|73:107,1,104,2|2,0:0|0:0,0:0:0:0:
158,147,38143,6,0,L|147:253,1,104,4|2,3:2|3:2,0:0:0:0:
252,351,38726,2,0,L|262:247,1,104,6|2,3:2|3:2,0:0:0:0:
309,181,39162,1,2,3:0:0:0:
366,239,39308,2,0,P|402:246|426:239,1,52,12|0,0:2|3:0,0:0:0:0:
471,185,39599,2,0,L|456:70,1,104,2|6,3:2|3:2,0:0:0:0:
390,42,40036,1,0,3:0:0:0:
331,99,40182,2,0,P|300:112|264:112,1,52,2|2,3:2|0:0,0:0:0:0:
199,67,40473,6,0,L|134:55,1,52,4|0,0:2|3:0,0:0:0:0:
71,41,40764,1,0,3:0:0:0:
25,179,41056,1,14,0:2:0:0:
25,179,41201,2,0,P|69:167|115:209,1,104,0|0,3:0|3:0,0:0:0:0:
123,280,41638,2,0,L|188:271,1,52,6|0,0:2|3:0,0:0:0:0:
236,225,41929,1,0,3:0:0:0:
343,323,42221,2,0,B|348:285|348:285|363:270|363:270|369:223,1,104,14|0,0:0|3:0,0:0:0:0:
291,102,42803,6,0,P|317:122|354:125,1,52,6|0,3:2|3:0,0:0:0:0:
406,92,43095,1,0,3:0:0:0:
494,207,43386,1,12,0:0:0:0:
494,207,43531,2,0,L|480:320,2,104,0|0|0,3:0|3:0|3:0,0:0:0:0:
505,126,44260,1,0,3:0:0:0:
402,23,44551,2,0,P|377:37|363:63,1,52,8|4,0:3|0:3,0:0:0:0:
290,28,44842,2,0,P|282:55|290:83,1,52,4|0,0:3|3:3,0:0:0:0:
342,136,45134,5,2,0:0:0:0:
39,307,49211,6,0,L|154:293,1,104,2|6,3:0|0:3,0:0:0:0:
305,281,49794,6,0,P|306:243|232:196,1,116.999996429443,6|0,3:2|3:0,0:0:0:0:
93,146,50376,2,0,L|84:211,1,58.4999982147217,2|0,3:2|0:0,0:0:0:0:
166,191,50667,2,0,L|174:133,1,58.4999982147217,2|0,3:2|0:0,0:0:0:0:
190,51,50959,6,0,B|255:54|237:90|314:83,1,116.999996429443,2|0,3:2|3:0,0:0:0:0:
371,43,51395,1,0,0:3:0:0:
421,107,51541,2,0,L|406:177,1,58.4999982147217,2|0,3:2|0:0,0:0:0:0:
337,204,51832,2,0,L|352:274,1,58.4999982147217,0|0,3:2|0:0,0:0:0:0:
417,343,52124,6,0,P|381:313|295:328,1,116.999996429443,6|0,3:2|3:0,0:0:0:0:
252,370,52561,1,0,0:0:0:0:
252,370,52706,2,0,L|181:363,1,58.4999982147217,0|2,3:0|0:0,0:0:0:0:
128,323,52997,1,2,3:0:0:0:
128,323,53143,1,2,0:0:0:0:
186,264,53289,6,0,P|199:229|198:192,1,58.4999982147217,6|8,3:2|0:0,0:0:0:0:
140,151,53580,1,10,0:0:0:0:
190,87,53726,1,0,3:0:0:0:
190,87,53798,1,0,3:0:0:0:
190,87,53871,2,0,L|260:100,1,58.4999982147217,14|0,0:0|3:0,0:0:0:0:
298,162,54162,2,0,L|355:151,1,58.4999982147217,14|0,0:0|3:0,0:0:0:0:
445,116,54454,6,0,L|432:33,2,65,14|0|0,0:0|3:0|3:0,0:0:0:0:
496,226,54891,2,0,L|485:290,2,65,14|0|0,0:0|3:0|3:0,0:0:0:0:
352,198,55328,2,0,L|339:115,2,65,14|0|0,0:0|3:0|3:0,0:0:0:0:
402,316,55765,2,0,L|391:380,2,65,14|0|0,0:0|3:0|3:0,0:0:0:0:
276,276,56201,2,0,P|233:281|204:309,1,65,12|0,0:0|3:0,0:0:0:0:
190,384,56493,1,12,0:0:0:0:
40,264,56784,6,0,L|60:123,1,130,4|0,3:2|3:0,0:0:0:0:
124,76,57221,1,0,3:0:0:0:
183,144,57366,1,8,0:0:0:0:
183,144,57512,1,8,0:0:0:0:
287,80,57658,1,8,0:0:0:0:
287,80,57803,1,8,0:0:0:0:
488,297,58531,5,4,0:3:0:0:
384,15,58968,6,0,L|372:186,1,143.000004364014,4|0,3:2|0:0,0:0:0:0:
405,252,59405,2,0,P|356:258|322:242,1,71.5000021820069,8|0,0:0|0:0,0:0:0:0:
268,176,59696,2,0,P|233:167|198:175,1,71.5000021820069,2|0,3:2|0:0,0:0:0:0:
134,253,59988,2,0,L|144:347,1,71.5000021820069,8|0,0:0|0:0,0:0:0:0:
31,251,60279,6,0,P|7:196|38:118,1,143.000004364014,2|8,3:2|0:0,0:0:0:0:
112,58,60716,1,0,0:0:0:0:
177,132,60861,2,0,L|261:147,1,71.5000021820069,2|0,3:2|0:0,0:0:0:0:
313,221,61153,1,8,0:0:0:0:
400,172,61298,6,0,P|420:137|421:87,1,71.5000021820069,2|0,0:0|3:0,0:0:0:0:
373,18,61590,1,2,0:0:0:0:
373,18,61735,2,0,L|282:40,1,71.5000021820069,10|0,0:0|0:0,0:0:0:0:
246,118,62027,2,0,L|176:101,1,71.5000021820069,0|0,3:0|0:0,0:0:0:0:
97,39,62318,1,10,0:0:0:0:
97,39,62463,1,2,0:0:0:0:
32,116,62609,5,2,3:2:0:0:
32,116,62755,2,0,B|20:154|20:154|34:192,1,71.5000021820069,0|10,0:0|0:0,0:0:0:0:
103,253,63046,1,2,0:0:0:0:
38,329,63192,1,2,3:2:0:0:
128,371,63337,2,0,P|185:370|215:352,1,71.5000021820069,2|8,3:2|0:0,0:0:0:0:
249,252,63628,6,0,B|307:256|307:256|330:278|330:278|409:283,1,143.000004364014,6|0,3:2|3:0,0:0:0:0:
476,319,64066,2,0,B|487:282|487:282|477:243,1,71.5000021820069,10|0,0:0|0:0,0:0:0:0:
401,186,64357,2,0,B|390:149|390:149|400:110,1,71.5000021820069,0|0,3:0|0:0,0:0:0:0:
468,46,64648,1,10,0:0:0:0:
468,46,64794,1,2,0:0:0:0:
372,15,64939,5,2,3:2:0:0:
372,15,65085,2,0,L|291:31,1,71.5000021820069,2|8,0:0|0:0,0:0:0:0:
233,102,65376,1,2,0:0:0:0:
166,26,65522,2,0,P|121:15|77:24,1,71.5000021820069,0|2,3:0|3:0,0:0:0:0:
24,87,65813,1,8,0:0:0:0:
109,173,65959,6,0,L|110:324,1,143.000004364014,4|0,2:0|3:2,0:0:0:0:
206,339,66395,2,0,B|216:305|216:305|205:264,1,71.5000021820069,10|0,0:0|0:0,0:0:0:0:
256,182,66687,1,0,3:0:0:0:
324,254,66832,2,0,L|409:246,1,71.5000021820069,2|8,3:2|0:0,0:0:0:0:
485,171,67124,6,0,P|515:222|494:305,1,143.000004364014,6|0,3:2|3:0,0:0:0:0:
421,366,67561,1,8,0:0:0:0:
329,344,67706,1,0,3:0:0:0:
329,344,67779,1,0,3:0:0:0:
329,344,67852,2,0,L|281:345,2,35.7500010910034,10|0|2,0:0|0:0|3:2,0:0:0:0:
391,265,68143,1,8,0:0:0:0:
312,202,68289,6,0,B|236:187|249:242|158:226,1,143.000004364014,6|0,3:2|3:0,0:0:0:0:
77,253,68726,2,0,B|69:217|69:217|81:177,1,71.5000021820069,8|0,0:0|0:0,0:0:0:0:
156,119,69017,2,0,L|148:38,1,71.5000021820069,2|0,3:2|0:0,0:0:0:0:
243,14,69308,2,0,L|250:85,1,71.5000021820069,8|0,0:2|0:0,0:0:0:0:
340,128,69599,6,0,P|369:97|481:105,1,143.000004364014,2|8,3:2|0:0,0:0:0:0:
505,184,70036,1,0,0:0:0:0:
419,235,70182,1,2,3:2:0:0:
419,235,70328,2,0,L|407:315,1,71.5000021820069,0|8,0:0|0:0,0:0:0:0:
321,355,70619,1,2,0:0:0:0:
267,270,70764,6,0,P|230:262|191:274,1,71.5000021820069,4|2,3:2|0:0,0:0:0:0:
144,356,71056,2,0,P|109:364|74:355,1,71.5000021820069,10|0,0:2|0:0,0:0:0:0:
28,267,71347,2,0,L|43:179,1,71.5000021820069,0|0,3:2|0:0,0:0:0:0:
55,97,71638,1,10,0:0:0:0:
55,97,71784,1,0,0:0:0:0:
138,43,71929,6,0,P|185:34|243:110,1,143.000004364014,2|10,3:2|0:0,0:0:0:0:
195,186,72366,1,0,0:0:0:0:
282,234,72512,2,0,L|371:222,1,71.5000021820069,2|0,3:2|0:0,0:0:0:0:
435,281,72803,1,10,0:0:0:0:
479,191,72949,5,4,0:3:0:0:
479,191,73022,1,4,0:3:0:0:
479,191,73095,2,0,B|484:154|484:154|459:118,1,71.5000021820069,6|0,3:2|0:0,0:0:0:0:
385,63,73386,1,10,0:0:0:0:
319,138,73531,1,2,0:0:0:0:
319,138,73677,2,0,P|276:147|241:132,1,71.5000021820069,0|0,3:0|0:0,0:0:0:0:
187,60,73968,2,0,P|152:50|118:59,1,71.5000021820069,10|0,0:0|0:0,0:0:0:0:
40,122,74260,5,2,3:2:0:0:
40,122,74405,2,0,L|51:205,1,71.5000021820069,2|8,0:0|0:0,0:0:0:0:
151,218,74696,1,0,0:0:0:0:
151,218,74842,2,0,L|139:308,1,71.5000021820069,2|0,3:2|0:0,0:0:0:0:
210,363,75134,1,10,0:0:0:0:
370,243,75425,6,0,P|335:212|289:212,1,71.5000021820069,2|0,3:2|3:0,0:0:0:0:
241,279,75716,1,12,0:0:0:0:
93,144,76007,2,0,P|128:113|174:113,1,71.5000021820069,2|0,3:2|3:0,0:0:0:0:
222,180,76298,1,12,0:0:0:0:
379,55,76590,5,8,3:2:0:0:
287,14,76735,2,0,L|293:99,1,71.5000021820069,2|8,3:2|0:2,0:0:0:0:
308,185,77027,2,0,B|379:157|379:157|449:196,1,143.000004364014,0|0,3:0|3:0,0:0:0:0:
475,221,77391,1,0,3:0:0:0:
475,221,77463,2,0,P|483:265|468:297,1,71.5000021820069,12|0,0:0|3:0,0:0:0:0:
388,343,77755,5,14,0:0:0:0:
388,343,77900,2,0,L|306:331,1,71.5000021820069,0|0,3:0|3:0,0:0:0:0:
207,250,78192,1,12,0:0:0:0:
207,250,78337,2,0,L|289:238,1,71.5000021820069,0|0,3:0|3:0,0:0:0:0:
416,160,78628,5,12,0:0:0:0:
416,160,78774,2,0,L|334:148,1,71.5000021820069,0|0,3:0|3:0,0:0:0:0:
235,67,79065,1,14,0:2:0:0:
235,67,79211,2,0,L|317:55,1,71.5000021820069,0|0,3:0|3:0,0:0:0:0:
191,156,79503,6,0,P|156:136|144:104,1,71.5000021820069,14|0,0:0|3:0,0:0:0:0:
46,132,79794,2,0,P|38:92|49:61,1,71.5000021820069,14|0,0:0|3:0,0:0:0:0:
101,209,80086,5,10,0:0:0:0:
101,209,80231,2,0,L|83:286,1,71.5000021820069,8|4,0:2|0:3,0:0:0:0:
68,325,80449,1,0,3:0:0:0:
68,325,80522,2,0,P|102:344|140:342,1,71.5000021820069,10|8,0:0|0:3,0:0:0:0:
207,275,80813,1,6,0:3:0:0:
262,347,80959,1,14,0:0:0:0:
496,131,81978,5,0,3:0:0:0:
496,131,82051,1,0,3:0:0:0:
496,131,82124,2,0,L|421:119,1,65,12|0,0:0|0:0,0:0:0:0:
373,41,82415,6,0,P|323:41|278:101,1,130,4|10,3:2|0:0,0:0:0:0:
330,183,82852,1,0,0:0:0:0:
243,226,82997,1,2,3:2:0:0:
243,226,83143,2,0,B|208:232|208:232|168:221,1,65,2|8,0:2|0:0,0:0:0:0:
121,153,83434,1,2,0:0:0:0:
39,193,83580,6,0,L|48:271,1,65,0|0,3:0|0:0,0:0:0:0:
129,295,83871,2,0,L|138:373,1,65,10|0,0:2|0:0,0:0:0:0:
226,374,84162,1,2,3:2:0:0:
226,374,84308,1,2,0:2:0:0:
297,317,84454,2,0,B|304:280|304:280|290:232,1,65,10|0,0:2|0:0,0:0:0:0:
215,211,84745,6,0,P|192:164|224:86,1,130,2|10,3:2|0:2,0:0:0:0:
297,53,85182,1,0,0:2:0:0:
369,107,85328,1,2,3:2:0:0:
369,107,85473,2,0,L|446:116,1,65,2|8,0:2|0:0,0:0:0:0:
453,208,85764,5,2,0:2:0:0:
453,208,85910,2,0,L|376:199,1,65,2|0,3:2|0:0,0:0:0:0:
296,207,86201,2,0,P|273:238|267:276,1,65,10|0,0:0|0:0,0:0:0:0:
175,260,86493,2,0,P|180:298|203:329,1,65,2|0,3:2|0:0,0:0:0:0:
119,372,86784,2,0,L|69:364,3,32.5,8|8|8|8,0:0|0:0|0:0|0:0,0:0:0:0:
42,358,87075,6,0,L|57:275,1,65,6|0,3:2|0:0,0:0:0:0:
102,216,87366,2,0,L|87:133,1,65,10|0,0:2|0:0,0:0:0:0:
79,60,87658,1,2,3:2:0:0:
79,60,87803,2,0,P|124:61|159:83,1,65,2|8,0:2|0:0,0:0:0:0:
215,132,88095,5,2,0:2:0:0:
215,132,88240,2,0,P|260:131|295:109,1,65,0|0,3:0|0:0,0:0:0:0:
331,49,88531,2,0,L|424:70,1,65,10|0,0:0|0:0,0:0:0:0:
467,118,88823,2,0,P|479:154|475:195,1,65,2|2,3:2|0:0,0:0:0:0:
395,219,89114,1,10,0:0:0:0:
395,219,89260,1,2,0:0:0:0:
453,305,89405,5,6,3:2:0:0:
280,362,89696,2,0,L|228:353,3,32.5,0|0|0|0,3:2|3:2|3:2|3:2,0:0:0:0:
202,349,89988,1,8,0:0:0:0:
166,265,90133,1,8,0:0:0:0:
256,106,90425,1,12,0:0:0:0:
