osu file format v14

[General]
AudioFilename: audio.mp3
AudioLeadIn: 0
PreviewTime: 58459
Countdown: 0
SampleSet: Soft
StackLeniency: 0.7
Mode: 0
LetterboxInBreaks: 0
WidescreenStoryboard: 0

[Editor]
Bookmarks: 7405
DistanceSpacing: 3.3
BeatDivisor: 4
GridSize: 16
TimelineZoom: 1

[Metadata]
Title:Realize (TV Size)
TitleUnicode:Realize (TV Size)
Artist:Suzuki Konomi
ArtistUnicode:鈴木このみ
Creator:Sotarks
Version:Grasp of the Undying
Source:Re:ゼロから始める異世界生活
Tags:zero re:zero rezero kara Hajimeru Isekai Seikatsu starting life in another world anime opening op female japanese vocalist basensorex kujinn reform kowari eli elinor [_eli_] 2nd season white fox emilia natsuki subaru rem ram from
BeatmapID:2480902
BeatmapSetID:1190710

[Difficulty]
HPDrainRate:5.5
CircleSize:3.8
OverallDifficulty:9.4
ApproachRate:9.6
SliderMultiplier:1.92
SliderTickRate:1

[Events]
//Background and Video events
0,0,"bg.jpg",0,0
//Break Periods
//Storyboard Layer 0 (Background)
//Storyboard Layer 1 (Fail)
//Storyboard Layer 2 (Pass)
//Storyboard Layer 3 (Foreground)
//Storyboard Layer 4 (Overlay)
//Storyboard Sound Samples

[TimingPoints]
862,291.26213592233,4,2,22,52,1,0
7269,-192.307692307692,4,2,22,52,0,0
7778,-192.307692307692,4,2,22,5,0,0
7852,-138.888888888889,4,2,22,62,0,0
14988,-121.951219512195,4,2,22,62,0,0
16298,-192.307692307693,4,2,22,62,0,0
17172,-312.500000000001,4,2,22,52,0,0
25619,-121.951219512195,4,2,22,62,0,0
26493,-121.951219512195,4,2,22,72,0,0
26784,-108.695652173913,4,2,22,72,0,0
35813,-121.951219512195,4,2,22,62,0,0
45133,-312.499999999999,4,2,22,52,0,0
49794,-108.695652173913,4,2,22,62,0,0
54454,-108.695652173913,4,2,22,72,0,0
57803,-161.290322580645,4,2,22,72,0,0
58385,-161.290322580645,4,2,22,22,0,0
58531,-454.545454545455,4,2,22,62,0,0
58895,-454.545454545455,4,2,22,5,0,0
58968,-98.0392156862745,4,2,22,82,0,0
81978,-98.0392156862745,4,2,22,72,0,0
82124,-138.888888888889,4,2,22,72,0,0
82342,-138.888888888889,4,2,22,5,0,0
82415,-121.951219512195,4,2,22,62,0,0
89405,-108.695652173913,4,2,22,62,0,0

[Colours]
Combo1 : 226,63,63
Combo2 : 60,101,164
Combo3 : 185,231,236

[HitObjects]
184,61,7269,6,0,B|156:89|133:109|133:109|161:167|174:214,1,174.962942933594,8|0,2:3|2:0,2:0:0:0:
177,287,7852,6,0,P|219:275|266:268,1,69.4195216875,6|0,3:2|2:0,2:0:0:0:
313,137,8143,2,0,P|279:127|246:120,1,69.4195216875,0|0,3:0|2:0,2:0:0:0:
351,248,8434,2,0,P|363:301|369:341,1,69.4195216875,0|0,3:0|2:0,2:0:0:0:
471,188,8726,2,0,P|477:154|485:120,1,69.4195216875,0|0,3:0|2:0,2:0:0:0:
341,24,9017,2,0,P|354:128|361:187,1,138.364419375,4|0,3:2|3:0,2:0:0:0:
357,161,9454,1,0,2:0:0:0:
260,73,9599,2,0,P|206:87|165:101,1,69.4195216875,4|0,3:2|2:0,2:0:0:0:
148,239,9891,2,0,P|181:247|214:257,1,69.4195216875,0|0,3:0|2:0,2:0:0:0:
68,121,10182,6,0,P|22:143|21:241,1,138.364419375,6|0,3:2|3:0,2:0:0:0:
9,223,10619,1,0,2:0:0:0:
121,323,10764,2,0,P|72:336|47:346,1,69.4195216875,0|0,3:0|2:0,2:0:0:0:
204,214,11056,2,0,P|171:202|137:194,1,69.4195216875,0|0,3:0|2:0,2:0:0:0:
278,316,11347,1,0,3:0:0:0:
208,137,11493,1,4,2:0:0:0:
278,316,11638,2,0,P|266:370|263:387,1,69.4195216875,0|0,3:0|2:0,2:0:0:0:
425,221,11929,2,0,P|411:122|401:62,1,138.364419375,4|0,3:2|3:0,2:0:0:0:
404,84,12366,1,0,2:0:0:0:
303,229,12512,6,0,P|259:220|220:213,1,69.4195216875,6|0,3:2|2:0,2:0:0:0:
296,140,12803,1,0,3:0:0:0:
245,292,12949,1,0,3:0:0:0:
151,162,13095,1,0,3:0:0:0:
321,220,13240,1,0,3:0:0:0:
159,312,13386,1,0,3:0:0:0:
266,134,13531,1,0,3:0:0:0:
327,333,13677,5,0,3:0:0:0:
150,204,13823,1,0,3:0:0:0:
363,127,13968,1,0,3:0:0:0:
256,360,14114,1,0,3:0:0:0:
199,102,14260,1,0,3:2:0:0:
420,229,14405,1,0,3:2:0:0:
274,25,14551,1,0,3:0:0:0:
180,284,14696,1,0,3:0:0:0:
450,115,14842,5,8,3:2:0:0:
130,20,14988,2,0,P|120:80|113:134,1,79.0611212011719,8|0,3:2|2:0,2:0:0:0:
420,229,15279,2,0,P|414:190|407:151,1,79.0611212011719,8|0,3:2|2:0,2:0:0:0:
151,348,15570,2,0,P|94:362|60:371,1,79.0611212011719,8|0,3:2|2:0,2:0:0:0:
326,294,15861,2,0,P|414:311|484:328,1,157.581698402344,8|0,3:2|3:0,2:0:0:0:
499,338,16226,1,0,3:0:0:0:
499,338,16298,6,0,P|504:286|506:268,1,50.1363196953125,14|0,2:0|2:0,2:0:0:0:
376,177,16590,1,0,3:0:0:0:
497,213,16735,1,8,2:3:0:0:
342,266,16881,1,4,2:3:0:0:
468,201,17027,1,0,3:0:0:0:
397,102,17172,6,0,B|354:77|304:116|326:129|276:175|228:149,1,184.485888,0|0,3:0|2:0,2:0:0:0:
106,35,18337,2,0,P|55:29|34:138,1,184.485888,2|0,2:0|2:0,2:0:0:0:
226,260,19502,2,0,B|165:240|110:219|110:219|81:239|49:261,1,184.485888,2|0,2:0|2:0,2:0:0:0:
195,354,20667,6,0,B|238:379|288:340|266:327|316:281|364:307,1,184.485888,2|0,2:0|2:0,2:0:0:0:
423,176,21832,2,0,B|452:197|480:210|480:210|455:267|437:333,1,184.485888,2|0,2:0|2:0,2:0:0:0:
335,177,22997,2,0,P|296:150|187:215,1,184.485888,2|0,2:0|2:0,2:0:0:0:
35,59,24162,6,0,P|57:105|231:110,1,245.77024,2|0,2:0|2:0,2:0:0:0:
228,112,25473,1,0,3:0:0:0:
417,3,25619,2,0,P|372:10|321:19,1,79.0611212011719,8|0,2:0|2:0,2:0:0:0:
442,205,25910,1,8,2:0:0:0:
442,205,25983,1,8,2:0:0:0:
442,205,26056,2,0,P|431:160|428:146,1,39.8008326005859,8|8,2:0|2:0,2:0:0:0:
272,125,26201,1,8,2:0:0:0:
272,125,26274,1,8,2:0:0:0:
272,125,26347,2,0,P|261:170|258:184,1,39.8008326005859,8|8,2:0|2:0,2:0:0:0:
328,277,26493,5,4,3:2:0:0:
414,93,26638,1,0,3:0:0:0:
176,154,26784,2,0,P|189:230|195:269,1,88.7027170351563,10|0,2:0|2:0,2:0:0:0:
337,171,27075,1,2,3:2:0:0:
168,59,27221,1,2,3:2:0:0:
296,261,27366,1,8,2:0:0:0:
103,183,27512,6,0,P|90:259|84:298,1,88.7027170351563,2|0,2:0|3:0,2:0:0:0:
254,156,27803,1,0,3:0:0:0:
82,58,27949,2,0,P|31:70|-24:85,1,88.7027170351563,10|0,2:0|2:0,2:0:0:0:
177,244,28240,1,2,3:2:0:0:
277,60,28386,1,2,3:2:0:0:
103,183,28531,1,8,2:0:0:0:
291,316,28677,6,0,P|333:304|376:294,1,88.7027170351563,2|0,2:0|3:0,2:0:0:0:
254,156,28968,1,0,3:0:0:0:
186,352,29114,1,10,2:0:0:0:
362,218,29260,1,0,2:0:0:0:
169,116,29405,2,0,P|181:183|188:228,1,88.7027170351563,2|0,3:2|3:0,2:0:0:0:
349,109,29696,1,8,2:0:0:0:
95,46,29842,6,0,P|83:113|76:158,1,88.7027170351563,2|0,2:0|3:0,2:0:0:0:
251,49,30133,1,0,3:0:0:0:
99,228,30279,1,8,2:0:0:0:
266,146,30425,1,0,3:0:0:0:
266,146,30497,1,0,3:0:0:0:
266,146,30570,2,0,P|275:201|278:217,1,44.6545905175782,10|8,2:0|2:0,2:0:0:0:
132,276,30716,2,0,P|135:254|138:232,1,44.6545905175782,0|0,3:0|3:0,2:0:0:0:
287,339,30861,2,0,P|335:293|420:309,1,132.750843552735,14|0,2:0|2:0,2:0:0:0:
421,313,31153,5,6,3:2:0:0:
246,257,31298,1,2,3:2:0:0:
393,100,31444,2,0,P|406:163|414:207,1,88.7027170351563,10|0,2:0|2:0,2:0:0:0:
180,124,31735,2,0,P|188:80|197:37,1,88.7027170351563,2|0,3:2|2:0,2:0:0:0:
308,161,32027,1,10,2:0:0:0:
117,234,32172,1,2,2:0:0:0:
287,62,32318,6,0,P|331:68|389:77,1,88.7027170351563,2|0,3:2|3:0,2:0:0:0:
439,291,32609,2,0,B|386:271|344:314|366:328|324:360|244:331,1,176.798970070313,8|0,2:0|3:2,2:0:0:0:
199,150,33046,1,2,3:2:0:0:
369,204,33192,1,10,2:0:0:0:
197,343,33337,1,2,2:0:0:0:
316,121,33483,5,6,3:2:0:0:
316,121,33628,2,0,P|325:182|332:227,1,88.7027170351563,2|8,3:2|2:0,2:0:0:0:
84,139,33920,2,0,P|90:95|97:51,1,88.7027170351563,2|0,2:0|3:0,2:0:0:0:
220,186,34211,1,2,3:2:0:0:
48,253,34357,1,8,2:0:0:0:
260,87,34502,6,0,B|294:109|316:120|316:120|299:175|291:230,1,176.798970070313,6|0,3:2|2:0,2:0:0:0:
151,354,34939,2,0,P|203:342|250:333,1,88.7027170351563,10|0,2:0|3:0,2:0:0:0:
261,345,35158,1,0,3:0:0:0:
261,345,35230,1,10,2:0:0:0:
144,186,35376,1,0,3:0:0:0:
326,237,35522,1,8,2:3:0:0:
326,237,35813,6,0,P|371:227|422:219,1,79.0611212011719,6|0,3:2|2:0,2:0:0:0:
455,133,36104,2,0,P|410:123|359:115,1,79.0611212011719,0|0,3:0|2:0,2:0:0:0:
246,55,36395,2,0,P|259:110|269:149,1,79.0611212011719,4|0,3:2|2:0,2:0:0:0:
92,229,36687,1,0,3:0:0:0:
172,105,36832,1,2,3:2:0:0:
264,258,36978,5,14,2:0:0:0:
182,192,37124,1,0,3:0:0:0:
290,111,37269,1,2,3:2:0:0:
229,228,37415,2,0,P|218:158|210:118,1,79.0611212011719,2|4,2:0|3:2,2:0:0:0:
328,81,37706,2,0,P|321:119|315:158,1,79.0611212011719,2|0,2:0|3:0,2:0:0:0:
235,54,37997,1,2,2:0:0:0:
392,135,38143,6,0,P|436:128|475:121,1,79.0611212011719,4|0,3:2|2:0,2:0:0:0:
415,259,38434,2,0,P|371:252|332:245,1,79.0611212011719,2|0,3:2|2:0,2:0:0:0:
220,189,38726,2,0,P|226:227|232:266,1,79.0611212011719,6|0,3:2|2:0,2:0:0:0:
71,359,39017,1,2,3:2:0:0:
144,240,39162,1,2,3:0:0:0:
198,343,39308,5,12,2:0:0:0:
51,248,39454,1,0,3:0:0:0:
193,133,39599,2,0,P|253:145|300:155,1,79.0611212011719,2|0,3:2|2:0,2:0:0:0:
379,214,39891,1,6,3:2:0:0:
322,36,40036,2,0,P|262:48|215:58,1,79.0611212011719,0|2,3:0|3:2,2:0:0:0:
203,216,40328,1,2,2:0:0:0:
357,118,40473,5,4,2:0:0:0:
217,28,40619,1,0,3:0:0:0:
338,200,40764,2,0,P|332:251|325:308,1,79.0611212011719,0|0,3:0|2:0,2:0:0:0:
191,138,41056,1,14,2:0:0:0:
382,70,41201,2,0,P|388:121|395:178,1,79.0611212011719,0|0,3:0|2:0,2:0:0:0:
223,290,41493,6,0,P|175:280|136:272,1,79.0611212011719,0|6,3:0|2:0,2:0:0:0:
273,135,41784,1,0,3:0:0:0:
388,331,41929,2,0,P|436:321|475:313,1,79.0611212011719,0|0,3:0|2:0,2:0:0:0:
342,85,42221,2,0,B|320:108|300:129|300:129|328:178|348:232,1,157.581698402344,14|0,2:0|3:0,2:0:0:0:
341,215,42803,5,6,3:2:0:0:
265,50,42949,1,0,3:0:0:0:
172,198,43095,2,0,P|186:274|190:299,1,79.0611212011719,0|0,3:0|2:0,2:0:0:0:
273,135,43386,1,12,2:0:0:0:
87,37,43531,2,0,P|72:137|62:208,2,157.581698402344,0|0|0,3:0|3:0|3:0,2:0:0:0:
250,243,44260,6,0,P|302:232|347:224,1,79.0611212011719,0|0,3:0|2:0,2:0:0:0:
424,91,44551,2,0,P|372:80|327:72,1,79.0611212011719,8|4,2:3|2:3,2:0:0:0:
435,228,44842,1,4,2:3:0:0:
492,131,44988,1,0,3:0:0:0:
375,161,45133,6,0,L|390:297,1,122.990592,2|0,2:0|2:0,2:0:0:0:
388,283,46007,1,0,2:0:0:0:
252,102,46298,2,0,L|238:204,2,92.242944,2|0|0,2:0|2:0|2:0,2:0:0:0:
140,212,47463,1,2,2:0:0:0:
140,212,47900,6,0,P|98:192|48:194,1,92.348416,2|0,2:0|2:0,2:0:0:0:
135,309,48628,2,0,L|171:303,1,30.85312,2|0,2:0|2:0,2:0:0:0:
235,277,48920,2,0,L|265:282,1,30.85312,0|0,2:0|2:0,2:0:0:0:
358,365,49211,2,0,L|388:359,1,30.85312,2|0,3:0|2:0,2:0:0:0:
426,183,49502,2,0,L|456:188,1,30.85312,6|0,2:3|2:0,2:0:0:0:
481,300,49794,6,0,B|436:319|392:288|410:277|357:239|310:268,1,176.798970070313,6|0,3:2|3:0,2:0:0:0:
164,299,50230,1,0,2:0:0:0:
280,196,50376,1,2,3:2:0:0:
132,112,50522,1,0,2:0:0:0:
207,219,50667,1,2,3:2:0:0:
292,105,50813,1,0,2:0:0:0:
127,195,50959,6,0,P|136:245|143:285,1,88.7027170351563,2|0,3:2|2:0,2:0:0:0:
220,139,51250,1,0,3:0:0:0:
97,99,51395,1,0,2:3:0:0:
207,219,51541,2,0,P|266:207|317:197,1,88.7027170351563,2|0,3:2|2:0,2:0:0:0:
389,94,51832,1,0,3:2:0:0:
251,45,51978,1,0,2:0:0:0:
391,221,52124,6,0,P|383:264|375:307,1,88.7027170351563,6|0,3:2|2:0,2:0:0:0:
301,181,52415,1,0,3:0:0:0:
462,121,52561,1,0,2:0:0:0:
305,276,52706,1,0,3:0:0:0:
389,94,52852,1,2,2:0:0:0:
458,296,52997,1,2,3:0:0:0:
279,164,53143,1,2,2:0:0:0:
244,383,53289,6,0,P|189:374|148:367,1,88.7027170351563,6|8,3:2|2:0,2:0:0:0:
72,141,53580,2,0,P|115:133|159:126,1,88.7027170351563,10|0,2:0|3:0,2:0:0:0:
245,173,53798,1,0,3:0:0:0:
245,173,53871,2,0,P|237:239|233:284,1,88.7027170351563,14|0,2:0|3:0,2:0:0:0:
53,326,54162,2,0,P|48:282|42:238,1,88.7027170351563,14|0,2:0|3:0,2:0:0:0:
270,78,54454,5,14,2:0:0:0:
151,271,54599,1,0,3:0:0:0:
114,37,54745,1,0,3:0:0:0:
364,189,54891,5,14,2:0:0:0:
99,151,55036,1,0,3:0:0:0:
330,13,55182,1,0,3:0:0:0:
235,296,55328,5,14,2:0:0:0:
141,69,55473,1,0,3:0:0:0:
376,153,55619,1,0,3:0:0:0:
83,285,55764,5,14,2:0:0:0:
296,140,55910,1,0,3:0:0:0:
275,384,56056,1,0,3:0:0:0:
223,100,56201,5,12,2:0:0:0:
388,333,56347,1,0,3:0:0:0:
283,44,56493,1,12,2:0:0:0:
173,339,56638,1,0,2:0:0:0:
218,10,56784,6,0,P|272:18|330:28,1,88.7027170351563,4|0,3:2|2:0,2:0:0:0:
344,263,57075,2,0,P|300:269|257:277,1,88.7027170351563,0|0,3:0|3:0,2:0:0:0:
101,104,57366,5,8,2:0:0:0:
404,168,57512,1,8,2:0:0:0:
81,271,57658,1,8,2:0:0:0:
430,90,57803,6,0,B|372:64|307:112|341:137|285:182|208:155,1,238.294262554688,8|0,2:0|2:0,2:0:0:0:
291,295,58531,6,0,L|285:242,1,52.8112656113282,4|0,2:3|2:0,2:0:0:0:
178,84,58968,6,0,B|149:116|121:136|121:136|150:192|175:259,1,196.016257195313,4|0,3:2|2:0,2:0:0:0:
291,93,59405,2,0,P|339:86|401:131,1,97.9200005976563,8|0,2:0|2:0,2:0:0:0:
201,335,59696,2,0,P|150:339|101:314,1,97.9200005976563,2|0,3:2|2:0,2:0:0:0:
308,179,59988,1,8,2:0:0:0:
356,362,60133,1,0,2:0:0:0:
141,192,60279,6,0,P|147:140|155:89,1,98.3443205976563,2|0,3:2|2:0,2:0:0:0:
369,15,60570,2,0,P|376:63|381:112,1,98.3443205976563,8|0,2:0|2:0,2:0:0:0:
207,294,60861,1,2,3:2:0:0:
291,93,61007,1,0,2:0:0:0:
416,278,61153,1,8,2:0:0:0:
141,192,61298,6,0,P|90:203|54:243,1,98.3443205976563,2|0,2:0|3:0,2:0:0:0:
215,380,61590,1,2,2:0:0:0:
359,198,61735,2,0,P|430:172|514:262,1,196.016257195313,10|0,2:0|3:0,2:0:0:0:
286,274,62172,1,0,2:0:0:0:
401,93,62318,1,10,2:0:0:0:
266,152,62463,1,2,2:0:0:0:
416,278,62609,5,2,3:2:0:0:
292,81,62755,1,0,2:0:0:0:
211,304,62900,1,10,2:0:0:0:
360,198,63046,1,2,2:0:0:0:
185,137,63192,1,2,3:2:0:0:
311,349,63337,1,2,3:2:0:0:
401,93,63483,1,8,2:0:0:0:
131,250,63628,6,0,B|200:231|260:214|260:214|281:233|312:259,1,196.016257195313,6|0,3:2|3:0,2:0:0:0:
93,153,64065,2,0,P|55:192|55:260,1,98.3443205976563,10|0,2:0|2:0,2:0:0:0:
360,159,64357,2,0,P|349:111|314:78,1,98.3443205976563,0|0,3:0|2:0,2:0:0:0:
211,304,64648,1,10,2:0:0:0:
420,237,64794,1,2,2:0:0:0:
275,152,64939,5,2,3:2:0:0:
371,335,65085,2,0,P|427:322|479:311,1,98.3443205976563,2|8,2:0|2:0,2:0:0:0:
512,104,65376,2,0,P|464:92|416:82,1,98.3443205976563,2|0,2:0|3:0,2:0:0:0:
283,239,65667,1,2,3:0:0:0:
462,168,65813,1,8,2:0:0:0:
260,36,65959,6,0,B|202:14|160:57|182:70|146:119|70:92,1,196.016257195313,4|0,2:0|3:2,2:0:0:0:
321,318,66395,2,0,B|348:282|375:256|375:256|348:209|328:148,1,196.016257195313,10|0,2:0|3:0,2:0:0:0:
194,267,66832,1,2,3:2:0:0:
432,194,66978,1,8,2:0:0:0:
260,36,67124,1,6,3:2:0:0:
260,36,67415,5,0,3:0:0:0:
321,318,67561,1,8,2:0:0:0:
159,154,67706,1,0,3:0:0:0:
159,154,67779,1,0,3:0:0:0:
159,154,67852,1,10,2:0:0:0:
416,207,67997,1,2,3:2:0:0:
140,347,68143,1,8,2:0:0:0:
360,105,68289,6,0,P|442:98|486:222,1,196.016257195313,6|0,3:2|3:0,2:0:0:0:
301,334,68726,2,0,P|309:264|315:218,1,98.3443205976563,8|0,2:0|2:0,2:0:0:0:
126,171,69017,2,0,P|132:219|137:268,1,98.3443205976563,2|0,3:2|2:0,2:0:0:0:
261,106,69308,1,8,2:0:0:0:
86,49,69454,1,0,2:0:0:0:
265,242,69599,6,0,B|322:263|364:220|342:207|378:158|454:185,1,196.016257195313,2|8,3:2|2:0,2:0:0:0:
436,180,70036,1,0,2:0:0:0:
296,54,70182,2,0,P|288:119|283:161,1,98.3443205976563,2|0,3:2|2:0,2:0:0:0:
417,37,70473,1,8,2:0:0:0:
185,0,70619,6,0,P|193:65|198:107,1,98.3443205976563,2|4,2:0|3:2,2:0:0:0:
307,307,70910,1,2,2:0:0:0:
110,73,71056,2,0,P|102:138|97:180,1,98.3443205976563,10|0,2:0|2:0,2:0:0:0:
198,278,71347,1,0,3:2:0:0:
19,209,71493,1,0,2:0:0:0:
200,127,71638,2,0,P|208:192|213:234,1,98.3443205976563,10|0,2:0|2:0,2:0:0:0:
410,328,71929,6,0,P|348:339|304:350,1,98.3443205976563,2|0,3:2|2:0,2:0:0:0:
367,110,72221,2,0,P|415:118|462:129,1,98.3443205976563,10|0,2:0|2:0,2:0:0:0:
300,223,72512,1,2,3:2:0:0:
396,23,72658,1,0,2:0:0:0:
455,243,72803,1,10,2:0:0:0:
274,116,72949,1,4,2:3:0:0:
274,116,73022,1,4,2:3:0:0:
274,116,73095,6,0,B|216:94|174:137|196:150|160:199|84:172,1,196.016257195313,6|10,3:2|2:0,2:0:0:0:
240,316,73531,2,0,P|247:247|252:203,1,98.3443205976563,2|0,2:0|3:0,2:0:0:0:
125,83,73823,1,0,2:0:0:0:
333,230,73968,2,0,P|326:161|321:117,1,98.3443205976563,10|0,2:0|2:0,2:0:0:0:
152,261,74260,5,2,3:2:0:0:
400,155,74405,2,0,P|454:165|514:177,1,98.3443205976563,2|8,2:0|2:0,2:0:0:0:
298,42,74696,1,0,2:0:0:0:
168,227,74842,2,0,P|114:237|54:249,1,98.3443205976563,2|0,3:2|2:0,2:0:0:0:
316,342,75133,2,0,P|370:352|430:364,1,98.3443205976563,10|0,2:0|2:0,2:0:0:0:
241,148,75425,5,2,3:2:0:0:
148,338,75570,1,0,3:0:0:0:
392,208,75716,2,0,P|376:135|366:92,1,98.3443205976563,12|0,2:0|2:0,2:0:0:0:
143,88,76007,5,2,3:2:0:0:
345,1,76153,1,0,3:0:0:0:
168,227,76298,2,0,P|119:217|71:208,1,98.3443205976563,12|0,2:0|2:0,2:0:0:0:
337,98,76590,5,8,3:2:0:0:
237,272,76735,1,2,3:2:0:0:
270,35,76881,1,8,2:0:0:0:
433,232,77027,1,0,3:0:0:0:
345,1,77172,2,0,P|339:85|334:127,1,98.3443205976563,10|0,2:0|3:0,2:0:0:0:
409,151,77391,1,0,3:0:0:0:
409,151,77463,2,0,P|413:102|416:53,1,98.3443205976563,12|0,2:0|3:0,2:0:0:0:
253,163,77755,5,14,2:0:0:0:
471,249,77900,1,0,3:0:0:0:
280,143,78046,1,0,3:0:0:0:
506,114,78192,5,12,2:0:0:0:
233,238,78337,1,0,3:0:0:0:
470,105,78483,1,0,3:0:0:0:
285,340,78628,5,12,2:0:0:0:
369,63,78774,1,0,3:0:0:0:
438,328,78920,1,0,3:0:0:0:
134,129,79065,5,14,2:0:0:0:
395,208,79211,1,0,3:0:0:0:
156,326,79357,1,0,3:0:0:0:
279,48,79502,6,0,P|292:113|298:147,1,98.3443205976563,14|0,2:0|3:0,2:0:0:0:
24,224,79794,2,0,P|32:175|42:127,1,98.3443205976563,14|0,2:0|3:0,2:0:0:0:
290,303,80085,5,10,2:0:0:0:
171,39,80230,1,8,2:0:0:0:
66,319,80376,1,4,2:3:0:0:
66,319,80449,1,0,3:0:0:0:
66,319,80522,1,10,2:0:0:0:
316,176,80667,1,8,2:3:0:0:
50,79,80813,1,6,2:3:0:0:
236,384,80959,1,14,2:0:0:0:
382,107,81978,5,0,3:0:0:0:
382,107,82051,1,0,3:0:0:0:
382,107,82124,2,0,P|390:179|397:241,1,103.89197053125,12|0,2:0|2:0,2:0:0:0:
476,229,82415,6,0,B|431:212|400:251|416:257|375:296|306:268,1,157.581698402344,4|10,3:2|2:0,2:0:0:0:
200,218,82852,1,0,2:0:0:0:
264,345,82997,1,2,3:2:0:0:
344,189,83143,2,0,P|297:153|258:151,1,79.0611212011719,2|8,2:0|2:0,2:0:0:0:
121,266,83434,6,0,P|197:254|285:238,1,157.581698402344,2|0,2:0|2:0,2:0:0:0:
163,121,83871,1,10,2:0:0:0:
279,149,84017,1,0,2:0:0:0:
200,218,84162,1,2,3:2:0:0:
271,73,84308,1,2,2:0:0:0:
344,189,84454,1,10,2:0:0:0:
197,135,84599,1,0,2:0:0:0:
348,28,84745,6,0,B|369:51|393:66|393:66|367:112|349:179,1,157.581698402344,2|10,3:2|2:0,2:0:0:0:
402,293,85182,1,0,2:0:0:0:
449,190,85328,1,2,3:2:0:0:
305,256,85473,2,0,P|318:329|323:359,1,79.0611212011719,2|8,2:0|2:0,2:0:0:0:
171,291,85764,6,0,P|121:281|92:276,1,79.0611212011719,2|2,2:0|3:2,2:0:0:0:
44,185,86056,1,0,2:0:0:0:
44,185,86201,2,0,P|94:175|123:170,1,79.0611212011719,10|0,2:0|2:0,2:0:0:0:
255,94,86493,1,2,3:2:0:0:
213,204,86638,1,0,2:0:0:0:
158,74,86784,1,8,2:0:0:0:
158,74,86857,1,8,2:0:0:0:
158,74,86929,1,8,2:0:0:0:
158,74,87002,1,8,2:0:0:0:
158,74,87075,6,0,B|199:89|230:50|214:44|260:11|304:31,1,157.581698402344,6|10,3:2|2:0,2:0:0:0:
401,121,87512,1,0,2:0:0:0:
455,18,87658,1,2,3:2:0:0:
299,68,87803,2,0,P|310:125|317:166,1,79.0611212011719,2|8,2:0|2:0,2:0:0:0:
486,261,88095,2,0,P|494:171|505:82,1,157.581698402344,2|0,2:0|2:0,2:0:0:0:
391,259,88531,2,0,P|340:257|315:239,1,79.0611212011719,10|0,2:0|2:0,2:0:0:0:
401,121,88823,1,2,3:2:0:0:
243,188,88968,1,2,2:0:0:0:
389,148,89114,1,10,2:0:0:0:
215,100,89260,1,2,2:0:0:0:
416,290,89405,6,0,P|295:309|245:318,1,132.750843552735,6|0,3:2|2:0,2:0:0:0:
188,261,89696,2,0,P|183:282|178:304,1,44.6545905175782,0|0,3:2|3:2,2:0:0:0:
332,225,89842,2,0,P|327:203|322:181,1,44.6545905175782,0|0,3:2|3:2,2:0:0:0:
143,129,89988,1,8,2:0:0:0:
343,33,90133,1,8,2:0:0:0:
61,318,90425,5,12,2:0:0:0:
