osu file format v14

[General]
AudioFilename: audio.mp3
AudioLeadIn: 0
PreviewTime: 58459
Countdown: 0
SampleSet: Soft
StackLeniency: 0.7
Mode: 0
LetterboxInBreaks: 0
WidescreenStoryboard: 0

[Editor]
Bookmarks: 7405,14395,16725,26046,35366,44686,49347,58667,67842,77308,81968
DistanceSpacing: 3.3
BeatDivisor: 4
GridSize: 32
TimelineZoom: 2

[Metadata]
Title:Realize (TV Size)
TitleUnicode:Realize (TV Size)
Artist:Suzuki Konomi
ArtistUnicode:鈴木このみ
Creator:Sotarks
Version:Eli's Insane
Source:Re:ゼロから始める異世界生活
Tags:zero re:zero rezero kara Hajimeru Isekai Seikatsu starting life in another world anime opening op female japanese vocalist basensorex kujinn reform kowari eli elinor [_eli_] 2nd season white fox emilia natsuki subaru rem ram from
BeatmapID:2480901
BeatmapSetID:1190710

[Difficulty]
HPDrainRate:5
CircleSize:3.8
OverallDifficulty:8.4
ApproachRate:9
SliderMultiplier:1.72
SliderTickRate:1

[Events]
//Background and Video events
0,0,"bg.jpg",0,0
//Break Periods
//Storyboard Layer 0 (Background)
//Storyboard Layer 1 (Fail)
//Storyboard Layer 2 (Pass)
//Storyboard Layer 3 (Foreground)
//Storyboard Layer 4 (Overlay)
//Storyboard Sound Samples

[TimingPoints]
862,291.26213592233,4,2,22,52,1,0
7269,-121.951219512195,4,2,22,52,0,0
7779,-121.951219512195,4,2,22,5,0,0
7852,-138.888888888889,4,2,22,62,0,0
17172,-138.888888888889,4,2,22,52,0,0
19648,-192.307692307693,4,2,22,52,0,0
20376,-138.888888888889,4,2,22,52,0,0
25619,-138.888888888889,4,2,22,62,0,0
26493,-108.695652173913,4,2,22,72,0,0
31080,-108.695652173913,4,2,22,72,0,0
31153,-108.695652173913,4,2,22,72,0,0
35813,-121.951219512195,4,2,22,62,0,0
45133,-161.290322580645,4,2,22,52,0,0
49211,-238.095238095238,4,2,22,52,0,0
49721,-161.290322580645,4,2,22,52,0,0
49794,-108.695652173913,4,2,22,62,0,0
54454,-108.695652173913,4,2,22,72,0,0
58386,-108.695652173913,4,2,22,22,0,0
58531,-161.290322580645,4,2,22,62,0,0
58895,-161.290322580645,4,2,22,5,0,0
58968,-98.0392156862745,4,2,22,82,0,1
67852,-98.0392156862745,4,2,22,82,0,0
68289,-98.0392156862745,4,2,22,82,0,1
77172,-98.0392156862745,4,2,22,82,0,0
77755,-98.0392156862745,4,2,22,82,0,1
80959,-98.0392156862745,4,2,22,82,0,0
81541,-121.951219512195,4,2,22,52,0,0
81978,-121.951219512195,4,2,22,72,0,0
82342,-121.951219512195,4,2,22,5,0,0
82415,-108.695652173913,4,2,22,62,0,0

[Colours]
Combo1 : 226,63,63
Combo2 : 60,101,164
Combo3 : 185,231,236

[HitObjects]
48,44,7269,5,8,0:3:0:0:
48,44,7852,6,0,P|52:69|64:168,1,123.840003023438,6|0,3:2|3:0,0:0:0:0:
144,256,8289,2,0,P|150:222|168:128,1,123.840003023438
220,32,8726,2,0,B|284:32|268:80|332:80,1,123.840003023438,0|4,3:0|3:2,0:0:0:0:
476,52,9162,5,0,0:0:0:0:
476,52,9308,2,0,L|464:116,1,61.9200015117188,0|0,3:0|0:0,0:0:0:0:
388,212,9599,2,0,L|376:151,1,61.9200015117188,4|0,3:2|0:0,0:0:0:0:
304,40,9891,2,0,L|292:100,1,61.9200015117188,0|0,3:0|0:0,0:0:0:0:
264,256,10182,6,0,P|216:212|160:212,1,123.840003023438,6|0,3:2|3:0,0:0:0:0:
60,280,10619,2,0,P|52:224|36:144,1,123.840003023438
168,32,11056,2,0,P|156:92|147:154,1,123.840003023438,0|0,3:0|3:0,0:0:0:0:
168,268,11493,5,4,0:0:0:0:
168,268,11638,2,0,P|200:288|232:288,1,61.9200015117188,0|0,3:0|0:0,0:0:0:0:
288,164,11929,2,0,P|257:167|232:185,1,61.9200015117188,4|0,3:2|0:0,0:0:0:0:
336,272,12221,2,0,P|368:272|392:252,1,61.9200015117188,0|0,3:0|0:0,0:0:0:0:
480,92,12512,6,0,B|412:92|432:44|372:44,1,123.840003023438,6|0,3:2|0:0,0:0:0:0:
264,32,12949,2,0,P|252:88|240:160,1,123.840003023438,0|0,3:0|3:0,0:0:0:0:
144,272,13386,2,0,P|133:210|120:150,1,123.840003023438,0|0,3:0|3:0,0:0:0:0:
96,40,13823,5,0,3:0:0:0:
96,40,13968,2,0,P|136:48|164:52,1,61.9200015117188,0|0,3:0|3:0,0:0:0:0:
296,168,14260,2,0,P|265:172|235:179,1,61.9200015117188,0|0,3:2|3:2,0:0:0:0:
72,296,14551,2,0,P|102:302|132:307,1,61.9200015117188,0|0,3:0|3:0,0:0:0:0:
364,352,14842,5,8,3:2:0:0:
364,352,14988,2,0,P|372:308|376:292,1,61.9200015117188,8|0,3:2|0:0,0:0:0:0:
256,204,15279,2,0,P|263:234|268:264,1,61.9200015117188,8|0,3:2|0:0,0:0:0:0:
380,176,15570,2,0,P|385:145|392:115,1,61.9200015117188,8|0,3:2|0:0,0:0:0:0:
256,36,15861,1,8,3:2:0:0:
256,36,16153,5,0,3:0:0:0:
256,36,16226,1,0,3:0:0:0:
256,36,16298,2,0,P|216:36|192:52,1,61.9200015117188,14|0,0:0|0:0,0:0:0:0:
136,176,16590,2,0,P|172:176|196:164,1,61.9200015117188,0|8,3:0|0:3,0:0:0:0:
72,36,16881,2,0,P|60:68|56:100,1,61.9200015117188,4|0,0:3|3:0,0:0:0:0:
57,211,17172,5,0,3:0:0:0:
57,211,17463,2,0,P|91:203|120:194,1,61.9200015117188,2|0,0:0|0:0,0:0:0:0:
209,195,17755,2,0,P|217:239|233:323,1,123.840003023438,2|0,0:0|0:0,0:0:0:0:
326,359,18192,6,0,P|337:298|348:237,1,123.840003023438,2|0,0:0|0:0,0:0:0:0:
364,128,18628,2,0,P|336:112|308:104,1,61.9200015117188,2|0,0:0|0:0,0:0:0:0:
229,152,18920,2,0,P|201:168|173:176,1,61.9200015117188,2|0,0:0|0:0,0:0:0:0:
75,118,19211,1,2,0:0:0:0:
75,118,19357,2,0,P|80:143|87:186,1,61.9200015117188,2|0,0:0|0:0,0:0:0:0:
130,274,19648,6,0,B|224:274|192:344|288:344,1,178.879998908203,2|0,0:0|0:0,0:0:0:0:
369,288,20376,2,0,P|376:250|381:226,1,61.9200015117188,2|0,0:0|0:0,0:0:0:0:
356,120,20667,6,0,B|252:112|296:192|188:184,1,185.760004535156,2|0,0:0|0:0,0:0:0:0:
80,72,21250,2,0,P|88:112|116:260,1,185.760004535156,2|0,0:0|0:0,0:0:0:0:
192,352,21832,2,0,P|209:260|226:169,1,185.760004535156,2|0,0:0|0:0,0:0:0:0:
271,66,22415,2,0,P|323:54|395:34,1,123.840003023438,2|0,0:0|0:0,0:0:0:0:
492,200,22997,6,0,P|444:188|432:184,1,61.9200015117188,2|0,0:0|0:0,0:0:0:0:
328,256,23289,1,2,0:0:0:0:
328,256,23434,2,0,P|392:252|428:296,1,123.840003023438,2|0,0:0|0:0,0:0:0:0:
263,351,23871,2,0,P|255:311|251:291,1,61.9200015117188,2|0,0:0|0:0,0:0:0:0:
212,176,24162,6,0,B|120:152|144:244|40:220,1,185.760004535156,2|0,0:0|0:0,0:0:0:0:
8,132,24745,2,0,P|8:80|120:48,1,185.760004535156,2|0,0:0|0:0,0:0:0:0:
148,136,25328,6,0,P|156:176|160:200,1,61.9200015117188,2|0,0:0|3:0,0:0:0:0:
232,272,25619,2,0,P|237:241|243:211,1,61.9200015117188,8|0,0:0|0:0,0:0:0:0:
260,108,25910,1,8,0:0:0:0:
260,108,25983,1,8,0:0:0:0:
260,108,26056,1,8,0:0:0:0:
260,108,26128,1,8,0:0:0:0:
260,108,26201,2,0,L|300:100,1,30.9600007558594,8|8,0:0|0:0,0:0:0:0:
376,184,26347,2,0,L|345:177,1,30.9600007558594,8|8,0:0|0:0,0:0:0:0:
484,92,26493,6,0,P|476:128|468:176,1,79.1199973439942,4|0,3:2|3:0,0:0:0:0:
428,328,26784,2,0,P|400:348|356:348,1,79.1199973439942,10|0,0:2|0:0,0:0:0:0:
224,208,27075,1,2,3:2:0:0:
224,208,27221,2,0,P|272:208|296:227,1,79.1199973439942,2|8,3:2|0:0,0:0:0:0:
200,344,27512,6,0,B|124:356|140:288|52:300,1,158.239994687988,2|0,0:0|3:0,0:0:0:0:
24,184,27949,2,0,P|64:176|100:164,1,79.1199973439942,10|0,0:0|0:0,0:0:0:0:
256,92,28240,1,2,3:2:0:0:
256,92,28386,2,0,P|218:79|179:71,1,79.1199973439942,2|8,3:2|0:0,0:0:0:0:
28,40,28677,6,0,P|40:88|56:200,1,158.239994687988,2|0,0:0|3:0,0:0:0:0:
80,348,29114,1,10,0:2:0:0:
80,348,29260,1,0,0:2:0:0:
184,248,29405,2,0,B|268:232|252:300|332:284,1,158.239994687988,2|8,3:2|0:0,0:0:0:0:
472,188,29842,6,0,P|412:156|324:132,1,158.239994687988,2|0,0:0|3:0,0:0:0:0:
192,104,30279,2,0,P|180:156|176:184,1,79.1199973439942,8|0,0:0|3:0,0:0:0:0:
64,304,30570,1,10,0:0:0:0:
64,304,30643,1,8,0:0:0:0:
64,304,30716,1,0,3:0:0:0:
64,304,30789,1,0,3:0:0:0:
64,304,30861,2,0,P|60:272|44:188,1,118.679996015991,14|0,0:2|0:0,0:0:0:0:
40,136,31153,6,0,P|72:108|112:108,1,79.1199973439942,6|2,3:2|3:2,0:0:0:0:
248,244,31444,2,0,P|209:241|180:214,1,79.1199973439942,10|0,0:0|0:0,0:0:0:0:
288,72,31735,2,0,P|332:64|368:56,1,79.1199973439942,2|0,3:2|0:0,0:0:0:0:
440,208,32027,2,0,P|401:199|362:192,1,79.1199973439942,10|0,0:2|0:0,0:0:0:0:
200,316,32318,6,0,B|292:304|272:360|352:352,2,158.239994687988,2|8|0,3:2|0:0|3:2,0:0:0:0:
60,344,33046,1,2,3:2:0:0:
60,344,33192,2,0,P|51:296|40:253,1,79.1199973439942,10|2,0:2|0:2,0:0:0:0:
185,133,33483,5,6,3:2:0:0:
185,133,33629,2,0,P|175:171|169:210,1,79.1199973439942,2|8,3:2|0:0,0:0:0:0:
56,80,33920,2,0,P|88:56|128:48,1,79.1199973439942,2|0,0:2|3:0,0:0:0:0:
240,128,34211,2,0,P|272:152|312:156,1,79.1199973439942,2|8,3:2|0:0,0:0:0:0:
464,48,34502,6,0,P|444:112|424:208,1,158.239994687988,6|0,3:2|0:0,0:0:0:0:
412,352,34939,1,10,0:0:0:0:
308,264,35085,1,0,3:0:0:0:
308,264,35158,1,0,3:0:0:0:
308,264,35230,2,0,P|252:252|220:244,1,79.1199973439942,10|0,0:0|3:0,0:0:0:0:
104,352,35522,2,0,P|142:342|181:334,1,79.1199973439942,8|0,0:3|0:0,0:0:0:0:
236,144,35813,6,0,P|160:144|136:204,1,141.0400021521,6|0,3:2|3:0,0:0:0:0:
376,352,36395,2,0,P|384:304|404:208,1,141.0400021521,4|0,3:2|3:0,0:0:0:0:
431,85,36832,1,2,3:2:0:0:
431,85,36978,6,0,P|398:66|366:66,1,70.5200010760498,14|0,0:2|3:0,0:0:0:0:
248,195,37269,1,2,3:2:0:0:
248,195,37415,2,0,P|289:195|313:178,1,70.5200010760498,2|4,0:0|3:2,0:0:0:0:
217,65,37706,2,0,P|183:47|151:47,1,70.5200010760498,2|0,0:0|3:0,0:0:0:0:
45,98,37997,1,2,0:0:0:0:
45,98,38143,6,0,P|53:142|65:246,1,141.0400021521,4|2,3:2|3:2,0:0:0:0:
235,357,38726,2,0,P|242:286|254:217,1,141.0400021521,6|2,3:2|3:2,0:0:0:0:
270,94,39162,1,2,3:0:0:0:
270,94,39308,6,0,P|314:82|342:74,1,70.5200010760498,12|0,0:2|3:0,0:0:0:0:
440,195,39599,2,0,P|406:185|372:176,1,70.5200010760498,2|0,3:2|0:0,0:0:0:0:
492,48,39891,2,0,P|484:96|480:128,1,70.5200010760498,6|0,3:2|3:0,0:0:0:0:
452,272,40182,1,2,3:2:0:0:
452,272,40328,1,2,0:0:0:0:
368,144,40473,6,0,B|296:136|316:204|232:196,1,141.0400021521,4|0,0:2|3:0,0:0:0:0:
104,48,41056,2,0,B|176:40|156:108|228:100,1,141.0400021521,14|0,0:2|0:0,0:0:0:0:
332,44,41493,1,0,3:0:0:0:
332,44,41638,6,0,P|352:88|344:184,1,141.0400021521,6|0,0:2|3:0,0:0:0:0:
271,347,42221,2,0,P|211:327|127:311,1,141.0400021521,14|0,0:0|3:0,0:0:0:0:
35,160,42803,6,0,P|100:147|171:124,1,141.0400021521,6|0,3:2|3:0,0:0:0:0:
341,34,43386,2,0,P|352:73|359:104,1,70.5200010760498,12|0,0:0|3:0,0:0:0:0:
432,256,43677,2,0,P|439:221|449:187,1,70.5200010760498,0|0,0:0|3:0,0:0:0:0:
496,52,43968,6,0,P|460:60|424:64,1,70.5200010760498,0|0,0:0|3:0,0:0:0:0:
291,185,44260,2,0,P|326:189|360:196,1,70.5200010760498,0|0,3:0|0:0,0:0:0:0:
242,36,44551,2,0,P|230:68|222:108,1,70.5200010760498,8|4,0:3|0:3,0:0:0:0:
138,268,44842,2,0,P|130:233|118:200,1,70.5200010760498,4|0,0:3|3:3,0:0:0:0:
48,48,45133,5,2,0:0:0:0:
48,48,45716,2,0,P|84:40|108:32,1,53.3199978846436,2|0,0:0|0:0,0:0:0:0:
179,129,46007,2,0,P|153:121|127:116,1,53.3199978846436,2|0,0:0|0:0,0:0:0:0:
203,33,46298,6,0,B|255:29|251:69|303:65,1,106.639995769287,2|0,0:0|0:0,0:0:0:0:
387,22,46735,2,0,P|421:55|421:113,1,106.639995769287,2|0,0:0|0:0,0:0:0:0:
464,177,47172,2,0,P|457:202|452:229,1,53.3199978846436,2|0,0:0|0:0,0:0:0:0:
357,278,47463,6,0,P|349:216|341:172,1,106.639995769287,2|0,0:0|0:0,0:0:0:0:
296,84,47900,2,0,P|244:68|196:96,1,106.639995769287,2|0,0:0|0:0,0:0:0:0:
183,168,48337,2,0,P|192:216|196:240,1,53.3199978846436,2|0,0:0|0:0,0:0:0:0:
188,321,48628,6,0,B|136:313|140:353|84:345,1,106.639995769287,2|0,0:0|0:0,0:0:0:0:
32,252,49211,2,0,P|24:168|17:124,1,126.419996141968,2|0,3:0|0:0,0:0:0:0:
44,80,49794,6,0,B|124:68|112:132|192:120,1,158.239994687988,6|0,3:2|3:0,0:0:0:0:
324,68,50230,1,0,0:0:0:0:
324,68,50376,2,0,P|364:60|400:48,1,79.1199973439942,2|0,3:2|0:0,0:0:0:0:
480,204,50667,2,0,P|442:191|403:183,1,79.1199973439942,2|0,3:2|0:0,0:0:0:0:
264,168,50959,6,0,P|256:212|252:248,1,79.1199973439942,2|0,3:2|0:0,0:0:0:0:
127,317,51250,2,0,P|122:277|115:238,1,79.1199973439942,0|0,3:0|0:3,0:0:0:0:
124,96,51541,2,0,P|160:68|196:64,1,79.1199973439942,2|0,3:2|0:0,0:0:0:0:
337,189,51832,2,0,P|293:185|261:165,1,79.1199973439942,0|0,3:2|0:0,0:0:0:0:
412,40,52124,6,0,P|484:52|496:136,1,158.239994687988,6|0,3:2|3:0,0:0:0:0:
460,276,52561,1,0,0:0:0:0:
326,168,52706,2,0,P|358:152|402:144,1,79.1199973439942,0|0,3:0|0:0,0:0:0:0:
312,300,52997,2,0,P|273:293|237:276,1,79.1199973439942,2|0,3:0|0:0,0:0:0:0:
168,120,53289,5,6,3:2:0:0:
168,120,53434,1,8,0:0:0:0:
108,244,53580,2,0,P|100:276|92:324,1,79.1199973439942,10|0,0:0|3:0,0:0:0:0:
44,348,53798,1,0,3:0:0:0:
44,348,53871,2,0,P|37:308|28:270,1,79.1199973439942,14|0,0:0|3:0,0:0:0:0:
16,136,54162,2,0,P|56:124|92:108,1,79.1199973439942,14|0,0:0|3:0,0:0:0:0:
344,232,54454,6,0,P|304:232|268:208,1,79.1199973439942,14|0,0:0|3:0,0:0:0:0:
208,64,54745,1,0,3:0:0:0:
164,304,54891,2,0,P|140:256|140:216,1,79.1199973439942,14|0,0:0|3:0,0:0:0:0:
216,40,55182,1,0,3:0:0:0:
316,200,55328,2,0,P|356:192|400:184,1,79.1199973439942,14|0,0:0|3:0,0:0:0:0:
248,36,55619,5,0,3:0:0:0:
196,220,55764,2,0,P|156:212|112:204,1,79.1199973439942,14|0,0:0|3:0,0:0:0:0:
56,20,56056,1,0,3:0:0:0:
0,179,56201,2,0,P|12:231|16:267,1,79.1199973439942,12|0,0:0|3:0,0:0:0:0:
130,364,56493,2,0,P|135:324|145:286,1,79.1199973439942,12|0,0:0|0:0,0:0:0:0:
172,82,56784,6,0,B|252:74|236:142|316:134,1,158.239994687988,4|0,3:2|3:0,0:0:0:0:
407,39,57221,1,0,3:0:0:0:
292,176,57366,1,8,0:0:0:0:
460,134,57512,1,8,0:0:0:0:
307,69,57658,1,8,0:0:0:0:
384,218,57803,1,8,0:0:0:0:
384,218,58531,6,0,P|372:274|360:350,1,133.299994711609,4|0,0:3|0:0,0:0:0:0:
312,352,58968,6,0,B|224:356|260:276|160:280,1,175.440001070801,4|0,3:2|0:0,0:0:0:0:
48,348,59405,2,0,P|40:296|32:256,1,87.7200005354004,8|0,0:0|0:0,0:0:0:0:
40,104,59696,2,0,P|72:76|116:68,1,87.7200005354004,2|0,3:2|0:0,0:0:0:0:
228,216,59988,2,0,P|185:208|152:179,1,87.7200005354004,8|0,0:0|0:0,0:0:0:0:
304,40,60279,6,0,P|312:88|332:216,1,175.440001070801,2|8,3:2|0:0,0:0:0:0:
436,344,60716,1,0,0:0:0:0:
436,344,60861,2,0,P|449:257|463:170,1,175.440001070801,2|8,3:2|0:0,0:0:0:0:
400,36,61298,6,0,P|356:24|316:40,1,87.7200005354004,2|0,0:0|3:0,0:0:0:0:
216,176,61590,1,2,0:0:0:0:
216,176,61735,2,0,P|256:190|298:178,1,87.7200005354004,10|0,0:0|0:0,0:0:0:0:
176,36,62027,2,0,P|132:36|96:60,1,87.7200005354004,0|0,3:0|0:0,0:0:0:0:
50,244,62318,5,10,0:0:0:0:
50,244,62463,1,2,0:0:0:0:
216,176,62609,1,2,3:2:0:0:
36,148,62755,1,0,0:0:0:0:
148,280,62900,1,10,0:0:0:0:
152,96,63046,1,2,0:0:0:0:
37,258,63192,1,2,3:2:0:0:
176,108,63337,2,0,P|184:148|192:196,1,87.7200005354004,2|8,3:2|0:0,0:0:0:0:
343,360,63628,6,0,P|355:281|376:186,1,175.440001070801,6|0,3:2|3:0,0:0:0:0:
388,48,64065,2,0,B|294:48|341:117|234:117,1,175.440001070801,10|0,0:0|3:0,0:0:0:0:
28,40,64648,6,0,P|40:88|48:136,1,87.7200005354004,10|2,0:0|0:0,0:0:0:0:
128,232,64939,1,2,3:2:0:0:
128,232,65085,2,0,P|135:188|146:146,1,87.7200005354004,2|8,0:0|0:0,0:0:0:0:
228,40,65376,2,0,P|264:24|316:36,1,87.7200005354004,2|0,0:0|3:0,0:0:0:0:
364,180,65667,2,0,P|321:188|281:172,1,87.7200005354004,2|8,3:0|0:0,0:0:0:0:
512,52,65959,6,0,P|500:112|480:232,1,175.440001070801,4|0,2:0|3:2,0:0:0:0:
394,352,66395,2,0,P|379:265|363:179,1,175.440001070801,10|0,0:0|3:0,0:0:0:0:
164,208,66832,1,2,3:2:0:0:
304,284,66978,1,8,0:0:0:0:
296,72,67124,6,0,B|204:64|232:140|136:128,1,175.440001070801,6|0,3:2|3:0,0:0:0:0:
156,32,67561,1,8,0:0:0:0:
280,160,67706,1,0,3:0:0:0:
280,160,67779,1,0,3:0:0:0:
280,160,67852,1,10,0:0:0:0:
139,262,67997,2,0,P|131:218|123:175,1,87.7200005354004,2|8,3:2|0:0,0:0:0:0:
268,31,68289,6,0,P|356:31|379:103,1,175.440001070801,6|0,3:2|3:0,0:0:0:0:
342,265,68726,2,0,P|302:293|262:293,1,87.7200005354004,8|0,0:0|0:0,0:0:0:0:
72,112,69017,2,0,P|84:156|92:204,1,87.7200005354004,2|0,3:2|0:0,0:0:0:0:
174,302,69308,2,0,P|181:258|193:216,1,87.7200005354004,8|0,0:2|0:0,0:0:0:0:
216,72,69599,6,0,B|304:64|280:136|376:124,1,175.440001070801,2|8,3:2|0:0,0:0:0:0:
479,357,70182,2,0,P|419:337|303:313,1,175.440001070801,2|8,3:2|0:0,0:0:0:0:
172,257,70619,6,0,P|231:242|259:232,1,87.7200005354004,2|4,0:0|3:2,0:0:0:0:
357,145,70910,1,2,0:0:0:0:
357,145,71056,2,0,P|315:132|272:122,1,87.7200005354004,10|0,0:2|0:0,0:0:0:0:
124,65,71347,2,0,P|160:41|204:41,1,87.7200005354004,0|0,3:2|0:0,0:0:0:0:
72,320,71638,6,0,P|62:267|56:231,1,87.7200005354004,10|0,0:0|0:0,0:0:0:0:
184,120,71929,2,0,P|176:163|169:206,1,87.7200005354004,2|0,3:2|0:0,0:0:0:0:
280,332,72221,2,0,P|272:288|265:245,1,87.7200005354004,10|0,0:0|0:0,0:0:0:0:
336,80,72512,2,0,P|384:80|416:108,1,87.7200005354004,2|0,3:2|0:0,0:0:0:0:
440,240,72803,1,10,0:0:0:0:
280,332,72949,1,4,0:3:0:0:
280,332,73022,1,4,0:3:0:0:
280,332,73095,6,0,B|184:332|228:260|128:260,1,175.440001070801,6|10,3:2|0:0,0:0:0:0:
40,352,73531,2,0,P|36:296|20:176,1,175.440001070801,2|0,0:0|0:0,0:0:0:0:
96,72,73968,6,0,P|144:60|180:48,1,87.7200005354004,10|0,0:0|0:0,0:0:0:0:
300,192,74260,1,2,3:2:0:0:
300,192,74405,2,0,P|258:178|215:167,1,87.7200005354004,2|8,0:0|0:0,0:0:0:0:
327,32,74842,6,0,P|335:68|343:120,1,87.7200005354004,2|0,3:2|0:0,0:0:0:0:
435,309,75133,2,0,P|441:265|450:222,1,87.7200005354004,10|0,0:0|0:0,0:0:0:0:
466,61,75425,1,2,3:2:0:0:
466,61,75570,1,0,3:0:0:0:
306,200,75716,2,0,P|270:188|218:176,1,87.7200005354004,12|0,0:0|0:0,0:0:0:0:
99,339,76007,5,2,3:2:0:0:
241,262,76153,1,0,3:0:0:0:
94,138,76298,2,0,P|104:185|112:225,1,87.7200005354004,12|0,0:0|0:0,0:0:0:0:
306,200,76590,1,8,3:2:0:0:
178,133,76735,1,2,3:2:0:0:
219,354,76881,2,0,P|267:338|307:326,1,87.7200005354004,8|0,0:2|3:0,0:0:0:0:
472,205,77172,2,0,P|428:189|384:181,1,87.7200005354004,10|0,0:0|3:0,0:0:0:0:
312,121,77391,1,0,3:0:0:0:
312,121,77463,2,0,P|355:112|396:97,1,87.7200005354004,12|0,0:0|3:0,0:0:0:0:
228,30,77755,6,0,P|220:79|215:118,1,87.7200005354004,14|0,0:0|3:0,0:0:0:0:
182,291,78046,1,0,3:0:0:0:
78,90,78192,2,0,P|86:139|91:178,1,87.7200005354004,12|0,0:0|3:0,0:0:0:0:
188,314,78483,1,0,3:0:0:0:
238,50,78628,2,0,P|230:99|225:138,1,87.7200005354004,12|0,0:0|3:0,0:0:0:0:
188,314,78920,1,0,3:0:0:0:
363,205,79065,6,0,P|399:182|445:182,1,87.7200005354004,14|0,0:2|3:0,0:0:0:0:
312,347,79357,1,0,3:0:0:0:
312,347,79502,2,0,P|263:347|228:323,1,87.7200005354004,14|0,0:0|3:0,0:0:0:0:
138,188,79794,2,0,P|176:165|218:165,1,87.7200005354004,14|0,0:0|3:0,0:0:0:0:
49,350,80085,6,0,P|42:280|27:177,1,175.440001070801,10|4,0:0|0:3,0:0:0:0:
185,38,80522,2,0,P|171:124|162:211,1,175.440001070801,10|6,0:0|0:3,0:0:0:0:
162,211,80959,1,14,0:0:0:0:
162,211,81541,6,0,P|202:200|233:192,1,70.5200010760498,2|0,0:0|0:0,0:0:0:0:
402,184,81832,1,2,0:0:0:0:
355,50,81978,1,2,3:0:0:0:
355,50,82051,1,0,3:0:0:0:
355,50,82124,2,0,B|306:45|304:86|256:81,1,105.780001614075,12|0,0:0|0:0,0:0:0:0:
208,84,82415,6,0,P|201:118|193:166,1,79.1199973439942,4|0,3:2|0:0,0:0:0:0:
105,304,82706,2,0,P|98:264|90:226,1,79.1199973439942,10|0,0:0|0:0,0:0:0:0:
66,73,82997,1,2,3:2:0:0:
66,73,83143,2,0,P|99:51|141:48,1,79.1199973439942,2|8,0:2|0:0,0:0:0:0:
229,174,83434,1,2,0:0:0:0:
229,174,83580,6,0,P|262:196|304:199,1,79.1199973439942,0|0,3:0|0:0,0:0:0:0:
382,29,83871,2,0,P|390:71|397:110,1,79.1199973439942,10|0,0:2|0:0,0:0:0:0:
486,248,84162,2,0,P|478:290|471:329,2,79.1199973439942,2|2|10,3:2|0:2|0:2,0:0:0:0:
510,96,84599,1,0,0:0:0:0:
510,96,84745,6,0,P|480:75|434:70,1,79.1199973439942,2|0,3:2|0:0,0:0:0:0:
292,196,85036,2,0,P|330:193|364:169,1,79.1199973439942,10|0,0:2|0:2,0:0:0:0:
248,40,85328,1,2,3:2:0:0:
248,40,85473,2,0,L|232:124,1,79.1199973439942,2|8,0:2|0:0,0:0:0:0:
151,282,85764,6,0,L|136:204,1,79.1199973439942,2|2,0:2|3:2,0:0:0:0:
62,36,86056,1,0,0:0:0:0:
62,36,86201,2,0,L|47:113,1,79.1199973439942,10|0,0:0|0:0,0:0:0:0:
180,293,86493,2,0,L|165:215,1,79.1199973439942,2|0,3:2|0:0,0:0:0:0:
248,40,86784,1,8,0:0:0:0:
248,40,86857,1,8,0:0:0:0:
248,40,86929,1,8,0:0:0:0:
248,40,87002,1,8,0:0:0:0:
248,40,87075,6,0,P|289:28|327:21,1,79.1199973439942,6|0,3:2|0:0,0:0:0:0:
467,176,87366,2,0,P|428:168|390:157,1,79.1199973439942,10|0,0:2|0:0,0:0:0:0:
236,138,87658,2,0,P|246:179|253:221,1,79.1199973439942,2|2,3:2|0:2,0:0:0:0:
361,347,87949,1,8,0:0:0:0:
361,347,88095,6,0,P|367:308|377:269,1,79.1199973439942,2|0,0:2|3:0,0:0:0:0:
445,96,88386,1,0,0:0:0:0:
445,96,88531,2,0,P|412:75|370:70,1,79.1199973439942,10|0,0:0|0:0,0:0:0:0:
248,197,88823,2,0,P|286:191|320:170,2,79.1199973439942,2|2|10,3:2|0:0|0:0,0:0:0:0:
109,84,89260,1,2,0:0:0:0:
109,84,89405,6,0,P|113:118|118:166,1,79.1199973439942,6|0,3:2|0:0,0:0:0:0:
149,289,89696,1,0,3:2:0:0:
149,289,89769,1,0,3:2:0:0:
149,289,89842,2,0,L|187:279,1,39.5599986719971,0|0,3:2|3:2,0:0:0:0:
275,195,89988,2,0,L|226:184,1,39.5599986719971,8|0,0:0|0:0,0:0:0:0:
117,162,90133,1,8,0:0:0:0:
416,34,90425,5,12,0:0:0:0:
