osu file format v14

[General]
AudioFilename: audio.mp3
AudioLeadIn: 0
PreviewTime: 58459
Countdown: 0
SampleSet: Soft
StackLeniency: 0.5
Mode: 0
LetterboxInBreaks: 0
WidescreenStoryboard: 1

[Editor]
Bookmarks: 7405
DistanceSpacing: 1
BeatDivisor: 4
GridSize: 16
TimelineZoom: 1.6

[Metadata]
Title:Realize (TV Size)
TitleUnicode:Realize (TV Size)
Artist:Suzuki Konomi
ArtistUnicode:鈴木このみ
Creator:Sotarks
Version:Basen's Normal
Source:Re:ゼロから始める異世界生活
Tags:zero re:zero rezero kara Hajimeru Isekai Seikatsu starting life in another world anime opening op female japanese vocalist basensorex kujinn reform kowari eli elinor [_eli_] 2nd season white fox emilia natsuki subaru rem ram from
BeatmapID:2480900
BeatmapSetID:1190710

[Difficulty]
HPDrainRate:3.2
CircleSize:3
OverallDifficulty:4
ApproachRate:5.4
SliderMultiplier:0.999999999999999
SliderTickRate:1

[Events]
//Background and Video events
0,0,"bg.jpg",0,0
//Break Periods
2,17372,24334
2,45333,48072
//Storyboard Layer 0 (Background)
//Storyboard Layer 1 (Fail)
//Storyboard Layer 2 (Pass)
//Storyboard Layer 3 (Foreground)
//Storyboard Layer 4 (Overlay)
//Storyboard Sound Samples

[TimingPoints]
862,291.26213592233,4,2,22,52,1,0
7779,-100,4,2,22,5,0,0
7852,-111.111111111111,4,2,22,62,0,0
12512,-100,4,2,22,62,0,0
17172,-100,4,2,22,52,0,0
25473,-111.111111111111,4,2,22,52,0,0
25619,-111.111111111111,4,2,22,62,0,0
26493,-111.111111111111,4,2,22,72,0,0
35813,-111.111111111111,4,2,22,62,0,0
45133,-111.111111111111,4,2,22,52,0,0
49211,-111.111111111111,4,2,22,52,0,0
49794,-111.111111111111,4,2,22,62,0,0
54454,-100,4,2,22,72,0,0
58386,-100,4,2,22,22,0,0
58531,-100,4,2,22,62,0,0
58895,-100,4,2,22,5,0,0
58968,-90.9090909090909,4,2,22,82,0,1
80959,-100,4,2,22,82,0,0
81978,-100,4,2,22,72,0,0
82342,-100,4,2,22,5,0,0
82415,-100,4,2,22,62,0,0

[Colours]
Combo1 : 226,63,63
Combo2 : 60,101,164
Combo3 : 185,231,236

[HitObjects]
477,292,7852,6,0,L|494:149,2,134.999995880127,6|0|0,3:2|0:0|3:0,0:0:0:0:
396,333,9017,2,0,L|300:321,1,89.999997253418,4|0,3:2|3:0,0:0:0:0:
231,273,9599,2,0,L|135:284,1,89.999997253418,4|0,3:2|3:0,0:0:0:0:
85,213,10182,6,0,P|54:250|68:340,2,134.999995880127,6|0|0,3:2|0:0|3:0,0:0:0:0:
178,202,11347,1,0,3:0:0:0:
178,202,11493,2,0,L|183:154,1,44.999998626709,4|0,0:0|3:0,0:0:0:0:
129,85,11929,2,0,P|174:66|223:76,1,89.999997253418,4|0,3:2|3:0,0:0:0:0:
302,25,12512,6,0,P|348:42|400:34,1,99.9999999999999,6|0,3:2|0:0,0:0:0:0:
475,97,13095,1,0,3:0:0:0:
399,162,13386,1,0,3:0:0:0:
476,225,13677,2,0,L|462:336,1,99.9999999999999,0|0,3:0|3:0,0:0:0:0:
369,357,14260,1,0,3:2:0:0:
298,286,14551,1,0,3:0:0:0:
216,342,14842,5,8,3:2:0:0:
216,342,14988,2,0,B|166:330|166:330|117:342,2,99.9999999999999,8|8|8,3:2|3:2|3:2,0:0:0:0:
298,286,15861,1,8,3:2:0:0:
397,321,16153,1,0,3:0:0:0:
397,321,16298,2,0,B|419:267|385:221|385:221|409:188|409:188|381:138|400:76,1,250,14|0,0:0|3:0,0:0:0:0:
411,40,17172,1,0,3:0:0:0:
47,31,25473,5,0,3:0:0:0:
47,31,25619,2,0,L|54:91,1,44.999998626709,8|0,0:0|0:0,0:0:0:0:
86,105,25910,2,0,L|73:203,1,89.999997253418,8|8,0:0|0:0,0:0:0:0:
18,264,26493,6,0,P|63:283|112:273,1,89.999997253418,4|10,3:2|0:2,0:0:0:0:
193,256,27075,1,2,3:2:0:0:
193,256,27221,2,0,P|238:237|287:247,1,89.999997253418,2|2,3:2|0:0,0:0:0:0:
314,268,27658,1,0,3:0:0:0:
389,317,27949,1,10,0:0:0:0:
469,263,28240,1,2,3:2:0:0:
469,263,28386,2,0,L|456:165,1,89.999997253418,2|2,3:2|0:0,0:0:0:0:
453,128,28823,5,0,3:0:0:0:
409,49,29114,2,0,P|387:43|364:43,1,44.999998626709,10|0,0:2|0:2,0:0:0:0:
328,17,29405,2,0,P|263:44|193:29,1,134.999995880127,2|2,3:2|0:0,0:0:0:0:
160,12,29988,1,0,3:0:0:0:
73,34,30279,1,8,0:0:0:0:
30,113,30570,2,0,L|43:211,1,89.999997253418,10|14,0:0|0:2,0:0:0:0:
108,263,31153,6,0,L|100:326,2,44.999998626709,6|2|10,3:2|3:2|0:0,0:0:0:0:
181,210,31735,1,2,3:2:0:0:
122,141,32027,1,10,0:2:0:0:
190,82,32318,2,0,B|248:67|277:96|277:96|306:125|365:111,1,179.999994506836,2|0,3:2|3:2,0:0:0:0:
433,164,33192,2,0,L|425:227,1,44.999998626709,10|2,0:2|0:2,0:0:0:0:
419,253,33483,6,0,P|374:272|325:262,1,89.999997253418,6|8,3:2|0:0,0:0:0:0:
297,292,33920,2,0,P|252:273|203:283,1,89.999997253418,2|2,0:2|3:2,0:0:0:0:
158,350,34502,2,0,P|127:313|141:223,1,134.999995880127,6|10,3:2|0:0,0:0:0:0:
188,158,35230,1,10,0:0:0:0:
135,84,35522,1,8,0:3:0:0:
201,23,35813,6,0,B|274:32|274:32|296:59|296:59|382:70,1,179.999994506836,6|4,3:2|3:2,0:0:0:0:
451,37,36687,2,0,P|456:58|456:81,1,44.999998626709,0|2,3:0|3:2,0:0:0:0:
456,126,36978,1,14,0:2:0:0:
390,186,37269,1,2,3:2:0:0:
390,186,37415,2,0,L|401:281,1,89.999997253418,2|2,0:0|0:0,0:0:0:0:
334,335,37997,1,2,0:0:0:0:
334,335,38143,6,0,L|238:346,1,89.999997253418,4|2,3:2|3:2,0:0:0:0:
169,295,38726,2,0,P|188:250|178:201,1,89.999997253418,6|2,3:2|3:2,0:0:0:0:
211,177,39162,1,2,3:0:0:0:
211,177,39308,2,0,P|192:132|202:83,1,89.999997253418,12|2,0:2|3:2,0:0:0:0:
130,31,39891,1,6,3:2:0:0:
55,81,40182,2,0,L|49:128,1,44.999998626709,2|2,3:2|0:0,0:0:0:0:
18,158,40473,6,0,L|29:253,1,89.999997253418,4|0,0:2|3:0,0:0:0:0:
95,316,41056,1,14,0:2:0:0:
95,316,41201,2,0,B|141:303|141:303|187:314,1,89.999997253418,0|0,3:0|3:0,0:0:0:0:
223,331,41638,2,0,B|269:344|269:344|315:333,1,89.999997253418,6|0,0:2|3:0,0:0:0:0:
393,298,42221,2,0,P|412:253|402:204,1,89.999997253418,14|0,0:0|3:0,0:0:0:0:
441,130,42803,6,0,B|382:115|353:144|353:144|324:173|265:159,1,179.999994506836,6|12,3:2|0:0,0:0:0:0:
253,72,43677,2,0,P|186:121|202:219,1,179.999994506836,0|0,0:0|3:0,0:0:0:0:
259,271,44551,1,8,0:3:0:0:
226,354,44842,1,4,0:3:0:0:
136,345,45133,1,2,0:0:0:0:
331,93,49211,6,0,L|319:188,1,89.999997253418,2|6,3:0|0:3,0:0:0:0:
370,257,49794,1,6,3:2:0:0:
319,331,50085,1,0,3:0:0:0:
229,318,50376,2,0,P|184:299|135:309,1,89.999997253418,2|2,3:2|3:2,0:0:0:0:
57,329,50959,2,0,L|45:233,1,89.999997253418,2|0,3:2|3:0,0:0:0:0:
117,185,51541,2,0,L|128:89,1,89.999997253418,2|0,3:2|3:2,0:0:0:0:
199,41,52124,6,0,B|272:50|272:50|294:77|294:77|380:88,1,179.999994506836,6|0,3:2|3:0,0:0:0:0:
424,153,52997,2,0,L|431:216,1,44.999998626709,2|2,3:0|0:0,0:0:0:0:
464,227,53289,2,0,L|452:322,1,89.999997253418,6|10,3:2|0:0,0:0:0:0:
372,355,53871,1,14,0:0:0:0:
299,301,54162,1,14,0:0:0:0:
208,344,54454,6,0,B|157:358|157:358|107:346,1,99.9999999999999,14|0,0:0|3:0,0:0:0:0:
68,320,54891,2,0,L|81:208,1,99.9999999999999,14|0,0:0|3:0,0:0:0:0:
88,171,55328,1,14,0:0:0:0:
31,95,55619,1,0,3:0:0:0:
31,95,55764,2,0,P|76:76|125:86,1,99.9999999999999,14|0,0:0|3:0,0:0:0:0:
168,110,56201,1,12,0:0:0:0:
253,57,56493,1,12,0:0:0:0:
330,120,56784,5,4,3:2:0:0:
424,87,57075,2,0,P|430:112|429:137,1,50,0|0,3:0|3:0,0:0:0:0:
453,180,57366,2,0,P|446:205|447:230,1,50,8|8,0:0|0:0,0:0:0:0:
446,279,57658,1,8,0:0:0:0:
446,279,57803,1,8,0:0:0:0:
446,279,58531,2,0,P|400:259|352:269,1,99.9999999999999,4|0,0:3|0:0,0:0:0:0:
302,290,58968,6,0,B|315:236|289:209|289:209|262:182|275:128,1,165.0000050354,4|8,3:2|0:0,0:0:0:0:
222,49,59696,1,2,3:2:0:0:
130,87,59988,1,8,0:0:0:0:
57,20,60279,2,0,P|29:71|35:128,1,110.000003356934,2|8,3:2|0:0,0:0:0:0:
110,182,60861,2,0,L|94:309,1,110.000003356934,2|8,3:2|0:0,0:0:0:0:
94,340,61298,6,0,P|145:312|202:318,1,110.000003356934,2|2,0:0|0:0,0:0:0:0:
240,335,61735,1,10,0:0:0:0:
331,292,62027,1,0,3:0:0:0:
417,339,62318,2,0,L|426:259,1,55.0000016784668,10|2,0:0|0:0,0:0:0:0:
427,234,62609,1,2,3:2:0:0:
486,154,62900,1,10,0:0:0:0:
414,85,63192,2,0,L|404:5,2,55.0000016784668,2|2|8,3:2|3:2|0:0,0:0:0:0:
371,109,63628,6,0,B|317:122|290:96|290:96|263:69|209:82,1,165.0000050354,6|10,3:2|0:0,0:0:0:0:
121,46,64357,1,0,3:0:0:0:
54,119,64648,2,0,P|63:146|64:174,1,55.0000016784668,10|2,0:0|0:0,0:0:0:0:
103,203,64939,1,2,3:2:0:0:
103,203,65085,2,0,P|75:254|81:311,2,110.000003356934,2|2|2,0:0|0:0|3:0,0:0:0:0:
176,136,65959,6,0,L|287:122,1,110.000003356934,4|0,2:0|3:2,0:0:0:0:
315,83,66395,2,0,L|426:96,1,110.000003356934,10|0,0:0|3:0,0:0:0:0:
473,103,66832,1,2,3:2:0:0:
503,197,67124,2,0,B|466:210|431:195|431:195|410:207|410:207|380:189|338:205,1,165.0000050354,6|8,3:2|0:0,0:0:0:0:
280,276,67852,2,0,L|290:356,2,55.0000016784668,10|2|8,0:0|3:2|0:0,0:0:0:0:
236,252,68289,6,0,B|182:239|155:265|155:265|128:292|74:279,1,165.0000050354,6|8,3:2|0:0,0:0:0:0:
15,205,69017,1,2,3:2:0:0:
70,122,69309,1,8,0:2:0:0:
0,51,69600,2,0,P|51:23|108:29,1,110.000003356934,2|8,3:2|0:0,0:0:0:0:
189,71,70182,2,0,P|240:99|297:93,1,110.000003356934,2|8,3:2|0:0,0:0:0:0:
339,89,70619,6,0,L|354:216,1,110.000003356934,2|2,0:0|0:0,0:0:0:0:
391,228,71056,2,0,L|375:355,1,110.000003356934,10|0,0:2|3:2,0:0:0:0:
281,360,71638,1,10,0:0:0:0:
194,311,71929,2,0,P|143:339|86:333,1,110.000003356934,2|10,3:2|0:0,0:0:0:0:
25,262,72512,2,0,L|40:134,1,110.000003356934,2|10,3:2|0:0,0:0:0:0:
45,107,72949,1,4,0:3:0:0:
45,107,73095,6,0,P|96:79|153:85,1,110.000003356934,6|10,3:2|0:0,0:0:0:0:
181,48,73531,2,0,P|232:76|289:70,1,110.000003356934,2|0,0:0|0:0,0:0:0:0:
329,56,73968,1,10,0:0:0:0:
356,156,74260,1,2,3:2:0:0:
356,156,74405,2,0,L|342:267,1,110.000003356934,2|0,0:0|0:0,0:0:0:0:
335,314,74842,1,2,3:2:0:0:
417,368,75133,1,10,0:0:0:0:
492,303,75425,6,0,L|498:248,1,55.0000016784668,2|0,3:2|3:0,0:0:0:0:
503,199,75716,1,12,0:0:0:0:
448,116,76007,2,0,P|397:88|340:94,1,110.000003356934,2|12,3:2|0:0,0:0:0:0:
249,74,76590,2,0,P|198:102|141:96,1,110.000003356934,8|8,3:2|0:2,0:0:0:0:
50,82,77172,2,0,L|63:193,1,110.000003356934,10|12,0:0|0:0,0:0:0:0:
5,271,77755,6,0,B|61:284|61:284|117:271,1,110.000003356934,14|0,0:0|3:0,0:0:0:0:
159,259,78192,1,12,0:0:0:0:
235,330,78483,1,0,3:0:0:0:
235,330,78628,2,0,B|291:316|291:316|347:330,1,110.000003356934,12|0,0:0|3:0,0:0:0:0:
388,347,79065,1,14,0:2:0:0:
473,293,79357,1,0,3:0:0:0:
473,293,79502,2,0,L|459:181,1,110.000003356934,14|14,0:0|0:0,0:0:0:0:
476,85,80085,6,0,B|422:72|395:98|395:98|368:125|314:112,1,165.0000050354,10|10,0:0|0:0,0:0:0:0:
229,89,80813,1,6,0:3:0:0:
229,89,80959,1,14,0:0:0:0:
229,89,82415,6,0,B|166:96|166:96|147:119|147:119|86:127,1,150,4|0,3:2|0:0,0:0:0:0:
15,257,83289,2,0,B|77:264|77:264|96:287|96:287|157:295,1,150,8|0,0:0|0:0,0:0:0:0:
300,321,84162,1,2,3:2:0:0:
387,370,84454,1,10,0:2:0:0:
463,306,84745,6,0,L|482:147,1,150,2|0,3:2|0:2,0:0:0:0:
375,50,85619,2,0,L|216:30,1,150,8|0,0:0|0:0,0:0:0:0:
76,19,86492,1,2,3:2:0:0:
21,103,86784,2,0,L|28:166,1,50,8|8,0:0|0:0,0:0:0:0:
33,202,87075,6,0,P|111:164|183:183,1,150,6|0,3:2|0:0,0:0:0:0:
278,71,87949,2,0,P|356:109|428:90,1,150,8|0,0:0|0:0,0:0:0:0:
504,217,88822,1,2,3:2:0:0:
483,315,89114,1,10,0:0:0:0:
387,343,89405,6,0,B|323:358|292:327|292:327|260:296|197:311,1,200,6|8,3:2|0:0,0:0:0:0:
148,318,90133,1,8,0:0:0:0:
72,252,90425,1,12,0:0:0:0:
