osu file format v14

[General]
AudioFilename: audio.mp3
AudioLeadIn: 0
PreviewTime: 58459
Countdown: 0
SampleSet: Soft
StackLeniency: 0.7
Mode: 2
LetterboxInBreaks: 0
WidescreenStoryboard: 1

[Editor]
Bookmarks: 7269
DistanceSpacing: 3.3
BeatDivisor: 4
GridSize: 16
TimelineZoom: 2.3

[Metadata]
Title:Realize (TV Size)
TitleUnicode:Realize (TV Size)
Artist:Suzuki Konomi
ArtistUnicode:鈴木このみ
Creator:Greaper
Version:Secre's Overdose
Source:Re:ゼロから始める異世界生活
Tags:Secre chickenbible re: starting another life in a different world from zero second 2nd season re rezero re:zero kara hajimeru isekai seikatsu emilia natsuki subaru rem ram white fox op opening theme song anime japanese pop jpop j-pop female vocalist
BeatmapID:2522106
BeatmapSetID:1196770

[Difficulty]
HPDrainRate:5
CircleSize:3.8
OverallDifficulty:9.2
ApproachRate:9.2
SliderMultiplier:1.88
SliderTickRate:2

[Events]
//Background and Video events
0,0,"bg.jpg",0,0
//Break Periods
//Storyboard Layer 0 (Background)
//Storyboard Layer 1 (Fail)
//Storyboard Layer 2 (Pass)
//Storyboard Layer 3 (Foreground)
//Storyboard Layer 4 (Overlay)
//Storyboard Sound Samples

[TimingPoints]
852,291.26213592233,4,2,11,50,1,0
6968,-100,4,2,11,5,0,0
7259,-100,4,2,11,50,0,0
12502,-100,4,2,11,55,0,0
13667,-100,4,2,11,60,0,0
14832,-100,4,2,11,65,0,0
16580,-100,4,2,13,50,0,0
16871,-100,4,2,14,50,0,0
17162,-100,4,2,11,40,0,0
24152,-100,4,2,11,50,0,0
25900,-100,4,2,11,40,0,0
26483,-100,4,2,11,50,0,0
31143,-100,4,2,12,50,0,0
34492,-100,4,2,11,50,0,0
35803,-100,4,2,11,60,0,0
35876,-100,4,2,11,50,0,0
38133,-100,4,2,11,60,0,0
38206,-100,4,2,11,50,0,0
45123,-100,4,2,11,35,0,0
49128,-100,4,2,11,50,0,0
50075,-100,4,2,12,50,0,0
53716,-100,4,2,11,50,0,0
54444,-100,4,2,11,60,0,0
58958,-100,4,2,11,75,0,1
66385,-90.9090909090909,4,2,11,75,0,1
66822,-100,4,2,11,75,0,1
80949,-100,4,2,11,65,0,0

[Colours]
Combo1 : 226,63,63
Combo2 : 60,101,164
Combo3 : 185,231,236

[HitObjects]
256,192,852,12,0,6968,0:0:0:0:
394,233,7259,6,0,P|445:143|382:65,1,188,8|0,0:3|0:0,0:0:0:0:
56,231,7842,6,0,L|43:98,1,94,4|0,0:0|0:0,0:0:0:0:
166,68,8133,2,0,L|179:179,1,94,8|0,0:3|0:0,0:0:0:0:
82,213,8424,2,0,L|201:214,1,94,8|0,0:3|0:0,0:0:0:0:
284,159,8716,2,0,L|297:298,1,94,8|0,0:3|0:0,0:0:0:0:
136,281,9007,6,0,L|239:284,1,94,4|0,0:0|0:0,0:0:0:0:
347,201,9298,2,0,L|243:200,1,94,8|0,0:3|0:0,0:0:0:0:
416,116,9589,2,0,L|425:235,1,94,4|0,0:0|0:0,0:0:0:0:
315,283,9881,2,0,L|415:280,1,94,8|0,0:3|0:0,0:0:0:0:
151,126,10172,6,0,P|99:158|148:254,1,188,4|8,0:0|0:3,0:0:0:0:
299,193,10609,2,0,L|418:196,2,94,0|8|0,0:0|0:3|0:0,0:0:0:0:
146,110,11046,2,0,L|151:233,1,94,8|0,0:3|0:0,0:0:0:0:
297,183,11337,5,8,0:3:0:0:
149,203,11483,1,4,0:0:0:0:
297,183,11628,2,0,L|411:181,1,94,8|0,0:3|0:0,0:0:0:0:
236,117,11919,2,0,L|108:119,1,94,4|0,0:0|0:0,0:0:0:0:
309,60,12211,2,0,L|321:186,1,94,8|0,0:3|0:0,0:0:0:0:
236,190,12429,1,0,0:0:0:0:
56,243,12502,6,0,P|58:167|171:116,1,188,4|8,0:0|0:3,0:0:0:0:
294,137,12939,1,8,0:3:0:0:
147,146,13085,1,8,0:3:0:0:
294,137,13230,1,8,0:3:0:0:
147,146,13376,2,0,L|138:23,1,94,8|8,0:3|0:3,0:0:0:0:
402,169,13667,6,0,L|291:169,1,94,8|8,0:3|0:3,0:0:0:0:
162,207,13958,1,8,0:3:0:0:
308,169,14104,1,8,0:3:0:0:
162,207,14250,2,0,L|292:211,1,94,8|8,0:3|0:3,0:0:0:0:
409,149,14541,1,8,0:3:0:0:
255,209,14686,1,8,0:3:0:0:
25,140,14832,5,8,0:3:0:0:
306,131,14978,1,8,0:3:0:0:
95,208,15269,2,0,L|312:210,1,188,8|8,0:3|0:3,0:0:0:0:
130,150,15706,1,0,0:0:0:0:
414,119,15851,6,0,P|469:169|395:237,1,188,8|8,0:3|0:3,0:0:0:0:
326,235,16216,1,8,0:3:0:0:
119,226,16288,2,0,B|126:139|126:139|236:125,1,188,4|8,0:0|0:3,0:0:0:0:
319,118,16725,1,8,0:3:0:0:
172,201,16871,1,8,0:3:0:0:
319,118,17017,1,8,0:3:0:0:
60,140,17162,5,8,0:3:0:0:
211,193,17453,2,0,L|27:258,2,188,2|0|0,0:0|0:0|0:0,0:0:0:0:
371,97,18182,6,0,L|394:407,1,282,2|0,0:0|0:0,0:0:0:0:
201,219,18910,1,2,0:0:0:0:
383,138,19201,2,0,L|400:239,1,94,0|2,0:0|0:0,0:0:0:0:
143,244,19638,1,0,0:0:0:0:
158,166,19784,2,0,P|192:107|293:43,1,188,2|0,0:0|0:0,0:0:0:0:
123,122,20366,1,0,0:0:0:0:
376,187,20657,6,0,L|166:203,1,188,2|0,0:0|0:0,0:0:0:0:
458,72,21240,2,0,L|474:292,1,188,2|0,0:0|0:0,0:0:0:0:
374,273,21677,1,0,0:0:0:0:
139,259,21822,6,0,P|78:217|153:151,1,188,2|0,0:0|0:0,0:0:0:0:
330,163,22405,2,0,L|133:177,1,188
398,95,22987,5,2,0:0:0:0:
130,243,23279,2,0,L|118:144,1,94,0|2,0:0|0:0,0:0:0:0:
348,153,23861,1,0,0:0:0:0:
62,265,24152,6,0,P|59:173|175:127,1,188,2|0,0:0|0:0,0:0:0:0:
235,149,24589,1,0,0:0:0:0:
395,214,24735,2,0,P|481:167|363:72,1,282,2|0,0:0|0:0,0:0:0:0:
82,161,25318,5,2,0:0:0:0:
224,133,25463,1,8,0:3:0:0:
82,161,25609,2,0,P|73:92|154:45,1,141,12|0,0:0|0:0,0:0:0:0:
368,109,25900,2,0,L|322:108,1,47,8|8,0:0|0:0,0:0:0:0:
185,202,26046,2,0,L|121:196,1,47,8|8,0:0|0:0,0:0:0:0:
320,152,26191,2,0,L|367:150,1,47,8|8,0:0|0:0,0:0:0:0:
182,108,26337,2,0,L|90:113,1,47,8|8,0:0|0:0,0:0:0:0:
278,100,26483,6,0,L|394:100,1,94,4|8,0:0|0:3,0:0:0:0:
132,121,26774,2,0,P|50:151|46:219,1,141,8|0,0:0|0:0,0:0:0:0:
281,163,27065,2,0,L|289:290,1,94,8|8,0:3|0:3,0:0:0:0:
50,300,27356,2,0,P|57:245|141:192,1,141,8|0,0:0|0:0,0:0:0:0:
339,170,27648,6,0,L|223:170,1,94,8|8,0:3|0:3,0:0:0:0:
476,76,27939,2,0,P|486:147|398:184,1,141,8|0,0:0|0:0,0:0:0:0:
222,182,28230,1,8,0:3:0:0:
360,119,28376,1,8,0:3:0:0:
117,99,28521,1,8,0:0:0:0:
360,119,28667,1,0,0:0:0:0:
117,99,28813,6,0,L|18:101,1,94,8|8,0:3|0:3,0:0:0:0:
249,202,29104,2,0,L|119:209,1,94,8|0,0:0|0:0,0:0:0:0:
303,168,29395,1,8,0:3:0:0:
155,207,29541,1,8,0:3:0:0:
303,168,29686,1,8,0:0:0:0:
155,207,29832,1,0,0:0:0:0:
425,82,29978,6,0,L|433:201,1,94,8|8,0:3|0:3,0:0:0:0:
178,267,30269,2,0,L|307:261,1,94,12|8,0:0|0:3,0:0:0:0:
215,211,30487,1,8,0:3:0:0:
76,186,30560,1,8,0:0:0:0:
52,127,30633,1,8,0:0:0:0:
274,136,30706,1,8,0:3:0:0:
335,121,30779,1,8,0:3:0:0:
119,60,30851,2,0,P|72:109|132:151,1,141,4|0,0:0|0:0,0:0:0:0:
349,74,31143,6,0,L|365:180,1,94,4|0,0:0|0:0,0:0:0:0:
114,247,31434,2,0,L|292:241,1,141,8|0,0:0|0:0,0:0:0:0:
91,242,31725,2,0,L|77:127,1,94,0|0,0:3|0:0,0:0:0:0:
233,122,32017,1,8,0:0:0:0:
79,148,32162,1,0,0:0:0:0:
372,67,32308,6,0,L|246:74,2,94,0|0|8,0:0|0:0|0:0,0:0:0:0:
477,115,32745,1,0,0:0:0:0:
368,189,32890,1,8,0:3:0:0:
108,174,33036,2,0,L|14:174,2,94,0|8|0,0:0|0:0|0:0,0:0:0:0:
351,139,33473,5,4,0:0:0:0:
94,212,33618,2,0,L|214:210,1,94,0|8,0:0|0:0,0:0:0:0:
451,81,33910,2,0,L|464:209,1,94,0|8,0:0|0:3,0:0:0:0:
190,93,34201,2,0,L|171:207,1,94,0|8,0:0|0:0,0:0:0:0:
410,210,34492,6,0,L|191:232,1,188,4|8,0:0|0:0,0:0:0:0:
444,117,34929,1,8,0:0:0:0:
292,156,35075,1,8,0:3:0:0:
155,162,35220,1,8,0:3:0:0:
292,156,35366,1,8,0:3:0:0:
155,162,35512,1,8,0:0:0:0:
292,156,35657,1,0,0:0:0:0:
48,276,35803,6,0,L|39:53,1,188,4|8,0:0|0:3,0:0:0:0:
323,149,36385,1,4,0:0:0:0:
63,235,36677,2,0,L|48:133,1,94,8|8,0:3|0:3,0:0:0:0:
336,236,36968,6,0,L|134:257,1,188,4|8,0:0|0:3,0:0:0:0:
380,85,37405,2,0,L|388:194,1,94,0|4,0:0|0:0,0:0:0:0:
118,260,37696,2,0,L|102:142,1,94,0|8,0:0|0:3,0:0:0:0:
340,162,37987,6,0,L|111:187,1,188
466,192,38424,2,0,L|256:212,2,188,8|4|8,0:3|0:0|0:3,0:0:0:0:
212,152,39152,1,8,0:3:0:0:
442,179,39298,6,0,P|437:106|314:59,1,188,4|8,0:0|0:3,0:0:0:0:
51,253,39881,2,0,L|43:142,1,94,4|8,0:0|0:3,0:0:0:0:
297,168,40172,1,8,0:3:0:0:
92,207,40318,6,0,P|97:135|226:87,1,188,8|8,0:3|0:3,0:0:0:0:
347,62,40754,2,0,L|355:176,1,94,8|0,0:3|0:0,0:0:0:0:
37,233,41046,2,0,L|332:241,1,282,8|8,0:0|0:3,0:0:0:0:
104,80,41628,6,0,P|40:166|150:266,1,282,4|0,0:0|0:0,0:0:0:0:
476,175,42211,2,0,L|152:206,1,282,8|0,0:0|0:0,0:0:0:0:
452,86,42793,6,0,L|472:223,1,94,4|8,0:0|0:3,0:0:0:0:
317,232,43085,1,8,0:3:0:0:
127,189,43376,2,0,L|348:200,1,188,8|0,0:0|0:0,0:0:0:0:
132,255,43958,6,0,L|20:253,1,94,4|8,0:0|0:3,0:0:0:0:
181,149,44250,1,8,0:3:0:0:
346,248,44541,2,0,L|337:143,1,94,8|8,0:3|0:3,0:0:0:0:
449,225,44832,2,0,L|449:123,1,94,8|8,0:3|0:3,0:0:0:0:
125,174,45123,5,2,0:0:0:0:
291,195,45706,2,0,L|97:211,1,188
288,114,46288,6,0,P|369:136|456:309,2,282,2|0|0,0:0|0:0|0:0,0:0:0:0:
91,140,47453,5,2,0:0:0:0:
363,199,47890,2,0,L|45:240,1,282
381,74,48618,6,0,P|469:122|480:209,1,188,2|0,0:0|0:0,0:0:0:0:
67,249,49201,2,0,L|49:47,1,188
143,81,49638,1,0,0:0:0:0:
437,172,49784,6,0,P|440:82|340:40,1,188,4|8,0:0|0:0,0:0:0:0:
270,75,50220,1,0,0:0:0:0:
119,213,50366,2,0,L|106:100,1,94,8|0,0:3|0:0,0:0:0:0:
270,75,50657,2,0,L|281:174,1,94,8|0,0:0|0:0,0:0:0:0:
61,254,50949,6,0,L|186:254,1,94
316,186,51240,2,0,L|189:185,1,94,8|4,0:0|0:0,0:0:0:0:
451,118,51531,2,0,L|461:237,1,94,8|0,0:3|0:0,0:0:0:0:
304,279,51822,2,0,L|418:272,1,94,8|0,0:0|0:0,0:0:0:0:
121,98,52114,6,0,P|34:125|32:244,1,188,4|8,0:0|0:0,0:0:0:0:
109,210,52551,1,0,0:0:0:0:
274,125,52696,2,0,L|283:230,1,94,8|0,0:3|0:0,0:0:0:0:
129,251,52987,1,8,0:0:0:0:
282,218,53133,1,0,0:0:0:0:
36,290,53279,6,0,L|21:155,1,94,4|8,0:0|0:0,0:0:0:0:
284,152,53570,1,8,0:0:0:0:
137,166,53716,1,8,0:3:0:0:
433,70,53861,2,0,L|450:200,1,94,4|0,0:0|0:0,0:0:0:0:
126,78,54152,2,0,L|115:202,1,94,8|0,0:3|0:0,0:0:0:0:
401,188,54444,6,0,L|272:198,1,94,12|8,0:0|0:3,0:0:0:0:
156,106,54735,1,8,0:3:0:0:
452,139,54881,2,0,L|339:142,1,94,12|8,0:0|0:3,0:0:0:0:
151,159,55172,1,8,0:3:0:0:
396,200,55318,6,0,L|273:203,2,94,12|8|8,0:0|0:3|0:3,0:0:0:0:
55,197,55754,2,0,L|165:197,1,94,12|8,0:0|0:3,0:0:0:0:
363,129,56046,1,8,0:3:0:0:
143,143,56191,2,0,L|45:143,1,94,12|8,0:0|0:3,0:0:0:0:
346,94,56483,2,0,L|451:93,1,94,12|8,0:0|0:3,0:0:0:0:
195,76,56774,6,0,P|107:93|74:202,1,188,4|8,0:0|0:3,0:0:0:0:
223,163,57211,1,0,0:0:0:0:
69,176,57356,1,8,0:3:0:0:
223,163,57502,1,0,0:0:0:0:
388,134,57648,1,8,0:0:0:0:
136,149,57793,6,0,B|138:357|138:357|133:117,1,423,8|0,0:0|0:0,0:0:0:0:
391,49,58521,2,0,P|461:83|473:211,1,188,8|0,0:3|0:0,0:0:0:0:
175,198,58958,6,0,L|47:195,1,94,4|0,0:0|0:0,0:0:0:0:
229,129,59250,1,0,0:0:0:0:
374,113,59395,1,8,0:0:0:0:
229,129,59541,1,0,0:0:0:0:
478,71,59686,2,0,P|485:163|394:190,1,188,8|8,0:3|0:0,0:0:0:0:
177,184,60123,1,0,0:0:0:0:
428,249,60269,6,0,L|201:264,1,188,8|8,0:3|0:0,0:0:0:0:
386,171,60706,1,0,0:0:0:0:
177,184,60851,2,0,L|49:187,2,94,8|0|8,0:3|0:0|0:0,0:0:0:0:
445,128,61288,6,0,L|315:130,1,94,0|8,0:0|0:3,0:0:0:0:
190,226,61580,1,0,0:0:0:0:
460,73,61725,2,0,L|469:198,1,94,8|0,0:0|0:0,0:0:0:0:
317,228,62017,2,0,L|445:233,1,94,8|0,0:3|0:0,0:0:0:0:
129,193,62308,2,0,L|114:87,1,94,8|0,0:0|0:0,0:0:0:0:
363,143,62599,6,0,L|253:147,1,94,8|0,0:3|0:0,0:0:0:0:
417,83,62890,1,8,0:0:0:0:
269,146,63036,1,0,0:0:0:0:
417,83,63182,1,8,0:3:0:0:
152,147,63327,2,0,L|27:147,1,94,8|8,0:3|0:0,0:0:0:0:
329,243,63618,6,0,L|116:263,1,188,4|8,0:0|0:3,0:0:0:0:
422,85,64055,2,0,P|480:146|390:217,1,188,8|8,0:0|0:3,0:0:0:0:
327,216,64492,1,0,0:0:0:0:
188,184,64638,1,8,0:0:0:0:
327,216,64784,1,0,0:0:0:0:
83,153,64929,5,8,0:3:0:0:
212,133,65075,2,0,L|324:140,1,94,0|8,0:0|0:0,0:0:0:0:
74,271,65366,2,0,L|47:142,1,94,0|8,0:0|0:3,0:0:0:0:
320,78,65657,2,0,L|355:199,1,94,8|8,0:3|0:0,0:0:0:0:
103,222,65949,6,0,L|230:222,1,94,4|0,0:0|0:0,0:0:0:0:
50,162,66240,1,8,0:3:0:0:
372,222,66385,2,0,L|522:222,2,103.400003155518,8|0|8,0:0|0:0|0:3,0:0:0:0:
112,210,66822,1,8,0:3:0:0:
375,166,66968,1,8,0:0:0:0:
111,143,67114,6,0,L|99:27,1,94,4|0,0:0|0:0,0:0:0:0:
247,179,67405,1,8,0:0:0:0:
102,180,67551,1,8,0:0:0:0:
314,202,67696,2,0,L|381:203,1,47,0|8,0:3|0:3,0:0:0:0:
157,152,67842,2,0,L|87:153,1,47,8|0,0:0|0:0,0:0:0:0:
370,43,67987,2,0,P|421:75|420:175,1,141,8|0,0:0|0:0,0:0:0:0:
175,198,68279,6,0,L|47:195,1,94,4|0,0:0|0:0,0:0:0:0:
229,129,68571,1,8,0:3:0:0:
355,122,68716,1,8,0:0:0:0:
229,129,68862,1,0,0:0:0:0:
478,71,69007,2,0,P|485:163|394:190,1,188,8|8,0:3|0:0,0:0:0:0:
179,181,69444,1,0,0:0:0:0:
428,249,69590,6,0,L|201:264,1,188,8|8,0:3|0:0,0:0:0:0:
463,182,70027,1,0,0:0:0:0:
156,152,70172,2,0,L|28:155,2,94,8|0|8,0:3|0:0|0:0,0:0:0:0:
432,128,70609,6,0,L|302:130,1,94,0|8,0:0|0:3,0:0:0:0:
201,225,70901,1,0,0:0:0:0:
460,73,71046,2,0,L|469:198,1,94,8|0,0:0|0:0,0:0:0:0:
314,222,71338,2,0,L|442:227,1,94,8|0,0:3|0:0,0:0:0:0:
129,193,71629,2,0,L|114:87,1,94,8|0,0:0|0:0,0:0:0:0:
408,152,71920,5,8,0:3:0:0:
269,146,72065,1,0,0:0:0:0:
417,83,72211,1,8,0:0:0:0:
269,146,72357,1,0,0:0:0:0:
417,83,72502,2,0,L|409:211,1,94,8|0,0:3|0:0,0:0:0:0:
253,192,72793,2,0,L|134:192,1,94,4|8,0:0|0:0,0:0:0:0:
219,128,73012,1,8,0:0:0:0:
475,210,73085,6,0,L|348:204,2,94,4|0|8,0:0|0:0|0:0,0:0:0:0:
221,189,73521,2,0,L|440:191,1,188
128,88,73958,2,0,L|121:204,1,94,8|0,0:0|0:0,0:0:0:0:
371,238,74250,5,8,0:3:0:0:
151,180,74395,2,0,L|50:182,2,94,0|8|0,0:0|0:0|0:0,0:0:0:0:
403,265,74832,2,0,L|419:129,1,94,8|0,0:3|0:0,0:0:0:0:
126,56,75123,2,0,L|106:171,1,94,8|0,0:0|0:0,0:0:0:0:
479,189,75415,6,0,L|372:188,1,94,8|8,0:3|0:3,0:0:0:0:
146,116,75706,2,0,P|148:198|215:206,1,141,12|0,0:0|0:0,0:0:0:0:
468,262,75997,2,0,L|478:138,1,94,8|8,0:3|0:3,0:0:0:0:
248,110,76288,2,0,P|189:107|149:16,1,141,12|0,0:0|0:0,0:0:0:0:
431,178,76580,5,8,0:3:0:0:
298,149,76725,1,8,0:3:0:0:
166,137,76871,1,8,0:0:0:0:
36,128,77017,1,8,0:3:0:0:
316,234,77162,1,0,0:0:0:0:
186,222,77308,2,0,L|177:145,1,47,8|8,0:3|0:3,0:0:0:0:
401,86,77453,2,0,P|464:97|501:184,1,141,8|0,0:0|0:0,0:0:0:0:
166,150,77745,6,0,L|61:154,2,94,12|8|8,0:0|0:3|0:3,0:0:0:0:
396,183,78182,1,12,0:0:0:0:
251,143,78327,1,8,0:3:0:0:
104,108,78473,1,8,0:3:0:0:
396,183,78618,6,0,L|500:187,2,94,12|8|8,0:0|0:3|0:3,0:0:0:0:
78,217,79055,2,0,L|206:218,2,94,12|8|8,0:0|0:3|0:3,0:0:0:0:
383,272,79492,2,0,L|403:148,1,94,12|8,0:0|0:3,0:0:0:0:
96,80,79784,2,0,L|71:180,1,94,12|8,0:0|0:3,0:0:0:0:
351,227,80075,5,12,0:0:0:0:
94,153,80220,2,0,L|179:152,1,47,8|0,0:3|0:0,0:0:0:0:
331,90,80366,2,0,L|411:90,1,47,8|8,0:3|0:3,0:0:0:0:
197,139,80512,2,0,L|82:138,1,94,12|8,0:0|0:3,0:0:0:0:
153,211,80730,1,0,0:0:0:0:
382,196,80803,2,0,L|395:127,1,47,8|8,0:3|0:3,0:0:0:0:
181,66,80949,6,0,P|112:88|71:207,1,188,12|0,0:0|0:0,0:0:0:0:
164,213,81385,1,0,0:0:0:0:
385,181,81531,2,0,L|277:185,1,94
138,135,81822,1,0,0:0:0:0:
426,119,81968,2,0,L|420:227,1,94,0|4,0:0|0:0,0:0:0:0:
333,217,82259,1,0,0:0:0:0:
72,253,82405,6,0,P|73:197|182:129,1,188,4|8,0:0|0:0,0:0:0:0:
329,140,82842,1,0,0:0:0:0:
174,128,82987,1,8,0:3:0:0:
329,140,83133,2,0,L|435:141,2,94,0|8|0,0:0|0:0|0:0,0:0:0:0:
167,75,83570,6,0,L|155:196,1,94,8|0,0:3|0:0,0:0:0:0:
319,239,83861,2,0,L|326:142,1,94,8|0,0:0|0:0,0:0:0:0:
71,148,84152,1,8,0:3:0:0:
213,177,84298,1,0,0:0:0:0:
71,148,84444,1,8,0:0:0:0:
213,177,84589,1,0,0:0:0:0:
488,273,84735,6,0,P|495:215|389:151,1,188,8|8,0:3|0:0,0:0:0:0:
159,138,85172,1,0,0:0:0:0:
304,134,85317,1,8,0:3:0:0:
159,138,85463,2,0,L|53:139,2,94,0|8|0,0:0|0:0|0:0,0:0:0:0:
321,73,85900,6,0,L|333:194,1,94,8|0,0:3|0:0,0:0:0:0:
169,237,86191,2,0,L|162:140,1,94,8|0,0:0|0:0,0:0:0:0:
450,139,86482,1,8,0:3:0:0:
307,166,86628,1,0,0:0:0:0:
450,139,86774,2,0,L|376:137,1,47,8|0,0:0|0:3,0:0:0:0:
211,169,86919,2,0,L|151:168,1,47,8|8,0:3|0:3,0:0:0:0:
428,250,87065,6,0,P|483:205|415:138,1,188,4|8,0:0|0:0,0:0:0:0:
279,126,87502,1,0,0:0:0:0:
139,205,87648,2,0,L|237:209,1,94,8|0,0:3|0:0,0:0:0:0:
391,174,87939,1,8,0:0:0:0:
247,200,88085,1,0,0:0:0:0:
391,174,88230,6,0,L|402:284,1,94,8|0,0:3|0:0,0:0:0:0:
242,286,88521,2,0,L|225:169,1,94,8|0,0:0|0:0,0:0:0:0:
461,157,88813,2,0,L|366:161,1,94,8|0,0:3|0:0,0:0:0:0:
57,172,89104,2,0,L|161:171,1,94,8|0,0:0|0:0,0:0:0:0:
439,216,89395,6,0,P|445:154|359:126,1,141,4|0,0:0|0:0,0:0:0:0:
201,163,89686,2,0,L|111:159,1,47,8|8,0:3|0:3,0:0:0:0:
353,88,89832,2,0,L|416:87,1,47,8|8,0:3|0:3,0:0:0:0:
154,92,89978,2,0,L|142:223,1,94,8|8,0:0|0:0,0:0:0:0:
269,203,90269,1,0,0:0:0:0:
486,166,90415,1,4,0:0:0:0:
