osu file format v14

[General]
AudioFilename: audio.mp3
AudioLeadIn: 0
PreviewTime: 58459
Countdown: 0
SampleSet: Soft
StackLeniency: 0.7
Mode: 2
LetterboxInBreaks: 0
WidescreenStoryboard: 1

[Editor]
DistanceSpacing: 3.3
BeatDivisor: 4
GridSize: 16
TimelineZoom: 2.3

[Metadata]
Title:Realize (TV Size)
TitleUnicode:Realize (TV Size)
Artist:Suzuki Konomi
ArtistUnicode:鈴木このみ
Creator:Greaper
Version:Platter
Source:Re:ゼロから始める異世界生活
Tags:Secre chickenbible re: starting another life in a different world from zero second 2nd season re rezero re:zero kara hajimeru isekai seikatsu emilia natsuki subaru rem ram white fox op opening theme song anime japanese pop jpop j-pop female vocalist
BeatmapID:2502343
BeatmapSetID:1196770

[Difficulty]
HPDrainRate:5
CircleSize:3.5
OverallDifficulty:8
ApproachRate:8
SliderMultiplier:1.6
SliderTickRate:2

[Events]
//Background and Video events
0,0,"bg.jpg"
//Break Periods
//Storyboard Layer 0 (Background)
//Storyboard Layer 1 (Fail)
//Storyboard Layer 2 (Pass)
//Storyboard Layer 3 (Foreground)
//Storyboard Layer 4 (Overlay)
//Storyboard Sound Samples

[TimingPoints]
852,291.26213592233,4,2,11,50,1,0
6968,-100,4,2,11,5,0,0
7259,-100,4,2,11,50,0,0
12502,-100,4,2,11,55,0,0
13667,-100,4,2,11,60,0,0
14832,-100,4,2,11,65,0,0
16580,-100,4,2,13,50,0,0
16871,-100,4,2,14,50,0,0
17162,-100,4,2,11,40,0,0
24152,-100,4,2,11,50,0,0
25900,-100,4,2,11,40,0,0
26483,-100,4,2,11,50,0,0
31143,-100,4,2,12,50,0,0
34492,-100,4,2,11,50,0,0
35803,-100,4,2,11,60,0,0
35876,-100,4,2,11,50,0,0
38133,-100,4,2,11,60,0,0
38206,-100,4,2,11,50,0,0
45123,-100,4,2,11,35,0,0
49128,-100,4,2,11,50,0,0
50075,-100,4,2,12,50,0,0
53716,-100,4,2,11,50,0,0
54444,-100,4,2,11,60,0,0
58958,-100,4,2,11,75,0,1
80949,-100,4,2,11,65,0,0

[Colours]
Combo1 : 226,63,63
Combo2 : 60,101,164
Combo3 : 185,231,236

[HitObjects]
256,192,852,12,0,6968,0:0:0:0:
395,270,7259,6,0,P|444:254|389:124,1,240,8|0,0:3|0:0,0:0:0:0:
181,134,7842,2,0,L|7:127,1,160,4|8,0:0|0:3,0:0:0:0:
183,183,8424,2,0,P|229:227|158:289,1,160,8|8,0:3|0:3,0:0:0:0:
406,303,9007,6,0,L|411:135,1,160,4|8,0:0|0:3,0:0:0:0:
182,200,9589,2,0,P|107:182|76:97,1,160,4|8,0:0|0:3,0:0:0:0:
320,114,10172,6,0,L|491:85,2,160,4|8|8,0:0|0:3|0:3,0:0:0:0:
472,141,11046,2,0,P|496:211|447:289,1,160,8|8,0:3|0:3,0:0:0:0:
304,281,11483,6,0,L|214:281,1,80,4|8,0:0|0:3,0:0:0:0:
384,256,11919,2,0,P|452:243|492:142,1,160,4|8,0:0|0:3,0:0:0:0:
126,205,12502,6,0,P|124:156|238:96,1,160,4|8,0:0|0:3,0:0:0:0:
307,34,12939,1,8,0:3:0:0:
224,31,13085,1,8,0:3:0:0:
142,27,13230,1,8,0:3:0:0:
133,108,13376,1,8,0:3:0:0:
212,130,13521,1,8,0:3:0:0:
365,146,13667,6,0,L|369:234,1,80,8|8,0:3|0:3,0:0:0:0:
272,214,13958,2,0,L|270:307,1,80,8|8,0:3|0:3,0:0:0:0:
368,302,14250,1,8,0:3:0:0:
450,284,14395,1,8,0:3:0:0:
442,207,14541,1,8,0:3:0:0:
363,196,14686,1,8,0:3:0:0:
149,182,14832,6,0,L|144:101,1,80,8|8,0:3|0:3,0:0:0:0:
276,73,15269,1,8,0:3:0:0:
138,63,15560,1,8,0:3:0:0:
290,48,15851,2,0,P|335:68|288:145,1,160,8|8,0:3|0:3,0:0:0:0:
78,169,16288,6,0,P|76:217|297:324,1,320,4|8,0:0|0:3,0:0:0:0:
360,302,17017,1,8,0:3:0:0:
207,226,17162,6,0,P|156:168|207:119,1,160,8|2,0:3|0:0,0:0:0:0:
355,103,17745,2,0,L|185:98,1,160
350,164,18182,6,0,P|402:180|332:297,1,240,2|0,0:0|0:0,0:0:0:0:
184,315,18910,2,0,L|180:142,1,160,2|0,0:0|0:0,0:0:0:0:
333,168,19347,6,0,P|341:125|247:71,1,160,2|0,0:0|0:0,0:0:0:0:
174,77,19784,1,2,0:0:0:0:
428,62,20366,1,0,0:0:0:0:
197,79,20657,6,0,P|75:150|202:212,1,320,2|2,0:0|0:0,0:0:0:0:
397,219,21822,2,0,P|210:234|139:344,1,320,2|0,0:0|0:0,0:0:0:0:
306,352,22696,1,0,0:0:0:0:
71,350,22987,6,0,L|65:182,1,160,2|0,0:0|0:0,0:0:0:0:
147,179,23424,1,2,0:0:0:0:
364,161,23861,1,0,0:0:0:0:
141,145,24152,6,0,L|381:137,1,240,2|0,0:0|0:0,0:0:0:0:
299,113,24735,2,0,P|233:63|336:3,1,240,2|0,0:0|0:0,0:0:0:0:
112,32,25318,6,0,L|102:119,1,80,2|8,0:0|0:3,0:0:0:0:
255,131,25609,2,0,L|420:140,1,160,12|8,0:0|0:0,0:0:0:0:
374,176,25973,1,8,0:0:0:0:
334,218,26046,1,8,0:0:0:0:
329,248,26118,1,8,0:0:0:0:
333,274,26191,1,8,0:0:0:0:
373,311,26264,1,8,0:0:0:0:
413,322,26337,1,8,0:0:0:0:
192,308,26483,6,0,L|84:303,1,80,4|8,0:0|0:3,0:0:0:0:
194,250,26774,2,0,P|246:229|183:163,1,160,8|8,0:0|0:3,0:0:0:0:
55,155,27211,2,0,L|42:58,1,80,8|8,0:3|0:0,0:0:0:0:
199,83,27502,6,0,L|284:78,2,80,0|8|8,0:0|0:3|0:3,0:0:0:0:
119,87,27939,1,8,0:0:0:0:
347,137,28230,2,0,L|355:224,1,80,8|8,0:3|0:3,0:0:0:0:
275,228,28521,1,8,0:0:0:0:
116,230,28667,6,0,L|26:231,2,80,0|8|8,0:0|0:3|0:3,0:0:0:0:
198,224,29104,2,0,L|198:140,1,80,8|0,0:0|0:0,0:0:0:0:
54,147,29395,2,0,P|53:117|154:46,1,160,8|8,0:3|0:0,0:0:0:0:
296,51,29832,6,0,L|377:55,1,80,0|8,0:0|0:3,0:0:0:0:
381,125,30123,1,8,0:3:0:0:
159,60,30269,2,0,L|72:63,1,80,12|8,0:0|0:3,0:0:0:0:
37,110,30487,1,8,0:3:0:0:
31,163,30560,1,8,0:0:0:0:
47,205,30633,1,8,0:0:0:0:
87,245,30706,1,8,0:3:0:0:
234,251,30851,2,0,L|336:252,1,80,4|0,0:0|0:0,0:0:0:0:
92,269,31143,6,0,L|90:171,1,80,4|0,0:0|0:0,0:0:0:0:
174,201,31434,2,0,L|175:117,1,80,8|0,0:0|0:0,0:0:0:0:
16,96,31725,2,0,L|190:88,1,160,0|8,0:3|0:0,0:0:0:0:
96,48,32162,1,0,0:0:0:0:
247,49,32308,6,0,L|331:50,2,80,0|0|8,0:0|0:0|0:0,0:0:0:0:
167,48,32745,2,0,L|162:129,1,80,0|8,0:0|0:3,0:0:0:0:
245,140,33036,1,0,0:0:0:0:
92,193,33182,2,0,L|88:282,1,80,8|0,0:0|0:0,0:0:0:0:
311,272,33473,6,0,L|405:273,2,80,4|0|8,0:0|0:0|0:0,0:0:0:0:
156,222,33910,1,0,0:0:0:0:
76,204,34055,1,8,0:3:0:0:
78,130,34201,1,0,0:0:0:0:
159,113,34347,1,8,0:0:0:0:
379,111,34492,6,0,P|406:195|353:237,1,160,4|8,0:0|0:0,0:0:0:0:
207,223,34929,2,0,L|203:317,1,80,8|8,0:0|0:3,0:0:0:0:
357,256,35220,2,0,L|440:259,1,80,8|8,0:3|0:3,0:0:0:0:
356,313,35512,2,0,L|275:313,1,80,8|0,0:0|0:0,0:0:0:0:
49,304,35803,6,0,P|50:258|148:192,1,160,4|8,0:0|0:3,0:0:0:0:
284,192,36385,2,0,L|96:182,1,160,4|8,0:0|0:3,0:0:0:0:
126,117,36822,1,8,0:3:0:0:
280,99,36968,6,0,L|361:94,2,80,4|8|8,0:0|0:3|0:3,0:0:0:0:
200,108,37405,2,0,L|197:189,1,80,0|4,0:0|0:0,0:0:0:0:
286,173,37696,2,0,L|289:256,1,80,0|8,0:0|0:3,0:0:0:0:
370,256,37987,1,0,0:0:0:0:
143,257,38133,6,0,P|101:196|166:155,1,160,4|8,0:0|0:3,0:0:0:0:
318,166,38716,2,0,P|315:113|213:59,1,160,4|8,0:0|0:3,0:0:0:0:
151,59,39152,1,8,0:3:0:0:
302,52,39298,6,0,L|390:53,2,80,4|8|8,0:0|0:3|0:3,0:0:0:0:
146,208,39881,2,0,P|96:257|152:313,1,160,4|8,0:0|0:3,0:0:0:0:
227,310,40318,1,8,0:3:0:0:
460,304,40463,6,0,L|460:208,1,80,4|8,0:0|0:3,0:0:0:0:
380,210,40754,1,8,0:3:0:0:
141,223,41046,2,0,L|42:214,2,80,8|8|0,0:0|0:3|0:0,0:0:0:0:
221,231,41483,1,8,0:3:0:0:
68,169,41628,6,0,P|18:132|85:78,1,160,4|8,0:0|0:3,0:0:0:0:
232,65,42211,2,0,L|316:62,2,80,8|0|8,0:0|0:0|0:3,0:0:0:0:
463,97,42793,6,0,L|468:187,1,80,4|8,0:0|0:3,0:0:0:0:
386,196,43085,2,0,L|214:198,1,160,8|8,0:3|0:0,0:0:0:0:
307,249,43521,1,8,0:3:0:0:
229,250,43667,1,0,0:0:0:0:
149,244,43813,1,8,0:3:0:0:
291,176,43958,6,0,L|376:168,2,80,4|8|8,0:0|0:3|0:3,0:0:0:0:
126,175,44541,2,0,L|121:89,1,80,8|8,0:3|0:3,0:0:0:0:
38,123,44832,2,0,L|31:39,1,80,8|8,0:3|0:3,0:0:0:0:
265,53,45123,6,0,P|257:156|85:278,1,320,2|0,0:0|0:0,0:0:0:0:
261,230,45997,1,0,0:0:0:0:
101,280,46288,6,0,L|345:306,2,240,2|0|0,0:0|0:0|0:0,0:0:0:0:
337,238,47453,5,2,0:0:0:0:
108,247,47890,2,0,P|59:231|131:108,1,240
286,109,48618,6,0,L|103:104,1,160,2|0,0:0|0:0,0:0:0:0:
361,164,49201,2,0,P|403:181|352:270,1,160
20,259,49784,6,0,P|26:192|123:141,1,160,4|8,0:0|0:0,0:0:0:0:
177,138,50220,1,0,0:0:0:0:
96,111,50366,2,0,L|90:25,1,80,8|0,0:3|0:0,0:0:0:0:
176,91,50657,2,0,L|177:6,1,80,8|0,0:0|0:0,0:0:0:0:
330,27,50949,6,0,L|335:109,1,80
250,142,51240,2,0,L|152:150,1,80,8|4,0:0|0:0,0:0:0:0:
322,196,51531,2,0,P|344:234|261:319,1,160,8|8,0:3|0:0,0:0:0:0:
206,306,51968,1,0,0:0:0:0:
427,299,52114,6,0,P|426:249|331:187,1,160,4|8,0:0|0:0,0:0:0:0:
264,188,52551,2,0,L|257:105,1,80,0|8,0:0|0:3,0:0:0:0:
409,96,52842,2,0,L|493:99,2,80,0|8|0,0:0|0:0|0:0,0:0:0:0:
175,120,53279,6,0,L|74:132,2,80,4|8|8,0:0|0:0|0:0,0:0:0:0:
333,173,53861,2,0,L|148:192,1,160,4|8,0:0|0:3,0:0:0:0:
166,248,54298,1,0,0:0:0:0:
401,257,54444,6,0,P|442:245|386:168,1,160,12|8,0:0|0:3,0:0:0:0:
256,158,54881,2,0,P|256:111|365:52,1,160,12|8,0:0|0:3,0:0:0:0:
184,49,55318,2,0,L|20:43,1,160,12|8,0:0|0:3,0:0:0:0:
174,130,55754,6,0,P|215:142|162:218,1,160,12|8,0:0|0:3,0:0:0:0:
91,223,56191,2,0,L|88:310,1,80,12|8,0:0|0:3,0:0:0:0:
243,304,56483,2,0,L|337:308,1,80,12|8,0:0|0:3,0:0:0:0:
97,330,56774,6,0,P|60:313|164:139,1,320,4|8,0:0|0:3,0:0:0:0:
375,170,57648,2,0,L|383:79,1,80,8|8,0:0|0:0,0:0:0:0:
199,59,58521,2,0,L|382:52,1,160,8|0,0:3|0:0,0:0:0:0:
132,139,58958,6,0,P|76:162|151:285,1,240,4|8,0:0|0:0,0:0:0:0:
282,291,59686,2,0,L|112:307,1,160,8|8,0:3|0:0,0:0:0:0:
352,318,60269,6,0,P|400:267|346:210,1,160,8|8,0:3|0:0,0:0:0:0:
191,194,60851,2,0,L|97:190,2,80,8|0|8,0:3|0:0|0:0,0:0:0:0:
403,259,61288,6,0,P|442:241|382:156,1,160
327,150,61725,2,0,L|491:138,1,160,8|8,0:0|0:3,0:0:0:0:
325,79,62308,2,0,L|235:73,1,80,8|0,0:0|0:0,0:0:0:0:
28,83,62599,6,0,L|26:183,1,80,8|0,0:3|0:0,0:0:0:0:
110,204,62890,2,0,L|210:204,1,80,8|0,0:0|0:0,0:0:0:0:
43,237,63182,2,0,L|36:318,1,80,8|8,0:3|0:3,0:0:0:0:
119,328,63473,1,8,0:0:0:0:
351,319,63618,6,0,P|391:305|345:225,1,160,4|8,0:0|0:3,0:0:0:0:
271,227,64055,2,0,L|266:60,1,160,8|8,0:0|0:3,0:0:0:0:
430,118,64638,2,0,L|434:35,1,80,8|0,0:0|0:0,0:0:0:0:
282,78,64929,6,0,L|189:77,2,80,8|0|8,0:3|0:0|0:0,0:0:0:0:
362,124,65366,2,0,L|365:210,1,80,0|8,0:0|0:3,0:0:0:0:
284,212,65657,2,0,L|367:214,1,80,8|8,0:3|0:0,0:0:0:0:
147,295,65949,6,0,P|105:273|155:197,1,160,4|8,0:0|0:3,0:0:0:0:
231,190,66385,2,0,L|61:170,1,160,8|8,0:0|0:3,0:0:0:0:
226,126,66822,2,0,L|322:120,1,80,8|8,0:3|0:0,0:0:0:0:
84,71,67114,6,0,P|36:91|89:163,1,160,4|8,0:0|0:0,0:0:0:0:
230,174,67551,2,0,L|236:268,1,80,8|0,0:0|0:3,0:0:0:0:
195,263,67769,1,8,0:3:0:0:
153,279,67842,2,0,L|44:287,2,80,8|8|8,0:0|0:0|0:0,0:0:0:0:
387,277,68279,6,0,P|426:253|364:172,1,160,4|8,0:0|0:3,0:0:0:0:
301,170,68716,1,8,0:0:0:0:
141,156,69007,2,0,L|333:143,1,160,8|8,0:3|0:0,0:0:0:0:
77,137,69589,6,0,P|80:193|187:243,1,160,8|8,0:3|0:0,0:0:0:0:
375,235,70172,2,0,L|201:253,1,160,8|8,0:3|0:0,0:0:0:0:
427,181,70609,6,0,L|431:84,1,80,0|8,0:0|0:3,0:0:0:0:
351,93,70900,1,0,0:0:0:0:
197,86,71046,2,0,P|154:109|213:191,1,160,8|8,0:0|0:3,0:0:0:0:
360,201,71628,1,8,0:0:0:0:
135,258,71919,6,0,L|302:269,1,160,8|8,0:3|0:0,0:0:0:0:
82,209,72502,2,0,P|40:192|92:116,1,160,8|4,0:3|0:0,0:0:0:0:
162,112,72939,1,8,0:0:0:0:
402,110,73085,6,0,P|448:126|384:196,1,160,4|8,0:0|0:0,0:0:0:0:
330,213,73521,2,0,L|324:301,1,80,0|8,0:0|0:3,0:0:0:0:
487,278,73958,1,8,0:0:0:0:
261,304,74250,6,0,L|168:308,2,80,8|0|8,0:3|0:0|0:0,0:0:0:0:
413,271,74832,2,0,P|466:225|412:179,1,160,8|8,0:3|0:0,0:0:0:0:
56,215,75415,6,0,L|50:122,1,80,8|8,0:3|0:3,0:0:0:0:
133,130,75706,1,12,0:0:0:0:
364,127,75997,2,0,L|466:124,2,80,8|8|12,0:3|0:3|0:0,0:0:0:0:
136,78,76580,5,8,0:3:0:0:
54,102,76725,1,8,0:3:0:0:
50,173,76871,1,8,0:0:0:0:
129,193,77017,1,8,0:3:0:0:
281,196,77162,2,0,L|286:287,1,80,0|8,0:0|0:3,0:0:0:0:
244,289,77381,1,8,0:3:0:0:
202,307,77453,2,0,L|195:207,1,80,8|8,0:0|0:3,0:0:0:0:
424,283,77745,6,0,L|519:275,2,80,12|8|8,0:0|0:3|0:3,0:0:0:0:
211,208,78182,2,0,L|122:204,2,80,12|8|8,0:0|0:3|0:3,0:0:0:0:
356,176,78618,2,0,L|357:85,1,80,12|8,0:0|0:3,0:0:0:0:
276,95,78910,1,8,0:3:0:0:
57,66,79055,6,0,L|53:157,1,80,12|8,0:0|0:3,0:0:0:0:
138,154,79347,1,8,0:3:0:0:
289,202,79492,2,0,L|294:287,1,80,12|8,0:0|0:3,0:0:0:0:
142,246,79784,2,0,L|136:333,1,80,12|8,0:0|0:3,0:0:0:0:
367,313,80075,6,0,L|456:315,1,80,12|8,0:0|0:3,0:0:0:0:
451,253,80293,1,0,0:0:0:0:
447,201,80366,1,8,0:3:0:0:
407,186,80439,1,8,0:3:0:0:
367,176,80512,2,0,L|456:168,2,80,12|8|8,0:0|0:3|0:3,0:0:0:0:
142,204,80949,5,12,0:0:0:0:
395,200,81968,2,0,L|402:154,2,40,0|8|4,0:0|0:3|0:0,0:0:0:0:
40,263,82405,6,0,L|34:94,1,160,4|8,0:0|0:0,0:0:0:0:
116,103,82842,1,0,0:0:0:0:
268,101,82987,2,0,L|358:102,2,80,8|0|8,0:3|0:0|0:0,0:0:0:0:
187,98,83424,1,0,0:0:0:0:
340,153,83570,6,0,L|346:236,1,80,8|0,0:3|0:0,0:0:0:0:
247,237,83861,2,0,L|243:332,1,80,8|0,0:0|0:0,0:0:0:0:
397,229,84152,1,8,0:3:0:0:
477,245,84298,1,0,0:0:0:0:
481,304,84444,1,8,0:0:0:0:
402,323,84589,1,0,0:0:0:0:
177,328,84735,6,0,P|135:250|185:214,1,160,8|8,0:3|0:0,0:0:0:0:
262,212,85172,1,0,0:0:0:0:
109,156,85318,2,0,L|23:152,2,80,8|0|8,0:3|0:0|0:0,0:0:0:0:
191,157,85754,1,0,0:0:0:0:
344,150,85900,6,0,L|348:51,1,80,8|0,0:3|0:0,0:0:0:0:
244,82,86191,2,0,L|236:-10,1,80,8|0,0:0|0:0,0:0:0:0:
391,32,86483,2,0,L|405:112,1,80,8|0,0:3|0:0,0:0:0:0:
318,178,86774,1,8,0:0:0:0:
360,183,86847,1,0,0:3:0:0:
399,184,86919,1,8,0:3:0:0:
174,269,87065,6,0,P|107:212|142:162,1,160,4|8,0:0|0:0,0:0:0:0:
221,161,87502,1,0,0:0:0:0:
66,146,87648,2,0,L|54:53,1,80,8|0,0:3|0:0,0:0:0:0:
140,62,87939,2,0,L|48:59,1,80,8|0,0:0|0:0,0:0:0:0:
215,93,88230,6,0,L|299:95,2,80,8|0|8,0:3|0:0|0:0,0:0:0:0:
135,92,88667,1,0,0:0:0:0:
360,177,88813,1,8,0:3:0:0:
440,195,88958,1,0,0:0:0:0:
436,272,89104,1,8,0:0:0:0:
357,280,89250,1,0,0:0:0:0:
116,300,89395,6,0,P|76:283|132:201,1,160,4|8,0:0|0:3,0:0:0:0:
154,176,89759,1,8,0:3:0:0:
114,156,89832,1,8,0:3:0:0:
74,144,89905,1,8,0:3:0:0:
34,134,89978,2,0,L|33:45,1,80,8|8,0:0|0:0,0:0:0:0:
412,66,90415,5,4,0:0:0:0:
