osu file format v14

[General]
AudioFilename: audio.mp3
AudioLeadIn: 0
PreviewTime: 58459
Countdown: 0
SampleSet: Soft
StackLeniency: 0.7
Mode: 2
LetterboxInBreaks: 0
WidescreenStoryboard: 1

[Editor]
DistanceSpacing: 3.3
BeatDivisor: 4
GridSize: 16
TimelineZoom: 1.6

[Metadata]
Title:Realize (TV Size)
TitleUnicode:Realize (TV Size)
Artist:Suzuki Konomi
ArtistUnicode:鈴木このみ
Creator:Greaper
Version:Cup
Source:Re:ゼロから始める異世界生活
Tags:Secre chickenbible re: starting another life in a different world from zero second 2nd season re rezero re:zero kara hajimeru isekai seikatsu emilia natsuki subaru rem ram white fox op opening theme song anime japanese pop jpop j-pop female vocalist
BeatmapID:2522105
BeatmapSetID:1196770

[Difficulty]
HPDrainRate:3
CircleSize:2.5
OverallDifficulty:6
ApproachRate:6
SliderMultiplier:1.34
SliderTickRate:1

[Events]
//Background and Video events
0,0,"bg.jpg"
//Break Periods
//Storyboard Layer 0 (Background)
//Storyboard Layer 1 (Fail)
//Storyboard Layer 2 (Pass)
//Storyboard Layer 3 (Foreground)
//Storyboard Layer 4 (Overlay)
//Storyboard Sound Samples

[TimingPoints]
852,291.26213592233,4,2,11,50,1,0
6968,-100,4,2,11,5,0,0
7259,-100,4,2,11,50,0,0
12502,-100,4,2,11,55,0,0
13667,-100,4,2,11,60,0,0
14832,-100,4,2,11,65,0,0
16580,-100,4,2,13,50,0,0
16871,-100,4,2,14,50,0,0
17162,-100,4,2,11,40,0,0
24152,-100,4,2,11,50,0,0
25900,-100,4,2,11,40,0,0
26483,-100,4,2,11,50,0,0
31143,-100,4,2,12,50,0,0
34492,-100,4,2,11,50,0,0
35803,-100,4,2,11,60,0,0
35876,-100,4,2,11,50,0,0
38133,-100,4,2,11,60,0,0
38206,-100,4,2,11,50,0,0
45123,-100,4,2,11,35,0,0
49128,-100,4,2,11,50,0,0
50075,-100,4,2,12,50,0,0
53716,-100,4,2,11,50,0,0
54444,-100,4,2,11,60,0,0
58958,-100,4,2,11,75,0,1
80949,-100,4,2,11,65,0,0

[Colours]
Combo1 : 226,63,63
Combo2 : 60,101,164
Combo3 : 185,231,236

[HitObjects]
256,192,852,12,8,7259,0:3:0:0:
183,235,7842,6,0,L|180:95,1,134,4|8,0:0|0:3,0:0:0:0:
318,216,8424,2,0,L|324:58,1,134,8|8,0:3|0:3,0:0:0:0:
162,82,9007,2,0,P|126:113|159:181,1,134,4|8,0:0|0:3,0:0:0:0:
288,187,9589,2,0,L|294:335,1,134,4|8,0:0|0:3,0:0:0:0:
449,310,10172,6,0,P|475:283|428:186,1,134,4|8,0:0|0:3,0:0:0:0:
308,196,10754,2,0,L|447:190,2,134,8|8|8,0:3|0:3|0:3,0:0:0:0:
218,197,11483,2,0,L|211:115,1,67,4|8,0:0|0:3,0:0:0:0:
347,156,11919,2,0,L|348:10,1,134,4|8,0:0|0:3,0:0:0:0:
191,45,12502,6,0,P|157:86|182:174,1,134,4|8,0:0|0:3,0:0:0:0:
303,178,13085,2,0,L|448:191,1,134,8|8,0:3|0:3,0:0:0:0:
282,286,13667,2,0,P|237:263|372:48,1,402,8|8,0:3|0:3,0:0:0:0:
190,88,14832,6,0,L|191:160,1,67,8|8,0:3|0:3,0:0:0:0:
310,167,15269,1,8,0:3:0:0:
179,192,15560,1,8,0:3:0:0:
310,167,15851,1,8,0:3:0:0:
427,334,16143,1,8,0:3:0:0:
347,332,16288,2,0,P|285:304|424:116,1,402,4|8,0:0|0:3,0:0:0:0:
280,133,17453,5,2,0:0:0:0:
399,155,17745,2,0,L|396:297,1,134
328,227,18182,2,0,L|114:238,1,201,2|0,0:0|0:0,0:0:0:0:
247,282,18910,1,2,0:0:0:0:
369,266,19201,1,0,0:0:0:0:
444,254,19347,6,0,L|452:116,1,134,2|0,0:0|0:0,0:0:0:0:
390,115,19784,1,2,0:0:0:0:
196,122,20366,1,0,0:0:0:0:
319,125,20657,2,0,L|59:191,2,268,2|2|2,0:0|0:0|0:0,0:0:0:0:
131,265,22405,6,0,L|118:73,1,134
295,162,22987,2,0,L|438:149,1,134,2|0,0:0|0:0,0:0:0:0:
427,83,23424,1,2,0:0:0:0:
243,82,23861,1,0,0:0:0:0:
404,127,24152,6,0,P|470:167|384:292,1,268,2|2,0:0|0:0,0:0:0:0:
125,336,25318,2,0,L|123:265,1,67,2|8,0:0|0:3,0:0:0:0:
194,259,25609,1,12,0:0:0:0:
325,249,25900,1,8,0:0:0:0:
391,228,26046,1,8,0:0:0:0:
384,158,26191,1,8,0:0:0:0:
218,156,26483,6,0,L|208:8,1,134,4|8,0:0|0:0,0:0:0:0:
353,80,27065,1,8,0:3:0:0:
388,117,27211,1,8,0:3:0:0:
353,151,27356,1,8,0:0:0:0:
211,261,27648,6,0,P|181:232|215:148,1,134,8|8,0:3|0:0,0:0:0:0:
329,152,28230,2,0,L|328:71,1,67,8|8,0:3|0:3,0:0:0:0:
261,77,28521,1,8,0:0:0:0:
419,83,28813,6,0,P|456:139|402:210,1,134,8|8,0:3|0:0,0:0:0:0:
365,212,29250,1,0,0:0:0:0:
300,217,29395,2,0,L|455:232,1,134,8|8,0:3|0:0,0:0:0:0:
270,282,29978,6,0,L|101:299,1,134,8|12,0:3|0:0,0:0:0:0:
244,221,30560,2,0,L|248:88,1,134,8|4,0:0|0:0,0:0:0:0:
86,97,31143,6,0,L|78:237,1,134,4|8,0:0|0:0,0:0:0:0:
226,223,31725,2,0,L|376:232,1,134,0|8,0:3|0:0,0:0:0:0:
349,298,32162,1,0,0:0:0:0:
266,339,32308,6,0,L|115:330,2,134,0|8|8,0:0|0:0|0:3,0:0:0:0:
396,300,33182,2,0,L|397:214,1,67,8|0,0:0|0:0,0:0:0:0:
305,230,33473,6,0,L|159:216,1,134,4|8,0:0|0:0,0:0:0:0:
171,152,33910,1,0,0:0:0:0:
278,143,34201,1,0,0:0:0:0:
116,104,34492,6,0,P|63:144|125:251,1,201,4|8,0:0|0:0,0:0:0:0:
249,251,35220,1,8,0:3:0:0:
123,298,35512,1,8,0:0:0:0:
281,313,35803,6,0,L|427:321,2,134,4|8|4,0:0|0:3|0:0,0:0:0:0:
168,286,36677,2,0,L|166:212,1,67,8|8,0:3|0:3,0:0:0:0:
255,220,36968,6,0,L|392:209,1,134,4|8,0:0|0:3,0:0:0:0:
383,144,37405,1,0,0:0:0:0:
248,138,37696,2,0,L|241:-25,1,134
331,8,38133,6,0,P|372:59|317:113,1,134,4|8,0:0|0:3,0:0:0:0:
225,139,38716,2,0,L|397:156,1,134,4|8,0:0|0:3,0:0:0:0:
361,212,39152,1,8,0:3:0:0:
273,249,39298,6,0,L|112:259,1,134,4|8,0:0|0:3,0:0:0:0:
246,188,39881,2,0,P|274:117|239:62,1,134,4|8,0:0|0:3,0:0:0:0:
182,65,40318,1,8,0:3:0:0:
94,67,40463,6,0,L|86:224,1,134,4|8,0:0|0:3,0:0:0:0:
201,176,41046,2,0,L|16:267,1,201,8|8,0:0|0:3,0:0:0:0:
92,237,41628,6,0,P|143:266|166:347,1,134,4|8,0:0|0:3,0:0:0:0:
44,358,42211,2,0,L|211:362,1,134,8|8,0:0|0:3,0:0:0:0:
316,315,42793,6,0,L|171:313,2,134,4|8|8,0:0|0:3|0:0,0:0:0:0:
435,307,43667,1,0,0:0:0:0:
275,273,43958,6,0,P|249:218|321:177,1,134,4|8,0:0|0:3,0:0:0:0:
432,168,44541,2,0,L|510:164,2,67,8|8|8,0:3|0:3|0:3,0:0:0:0:
290,152,45123,6,0,P|243:193|325:351,1,268,2|0,0:0|0:0,0:0:0:0:
431,285,45997,1,0,0:0:0:0:
284,307,46288,2,0,L|72:291,2,201,2|0|0,0:0|0:0|0:0,0:0:0:0:
118,228,47453,5,2,0:0:0:0:
333,238,47890,2,0,P|393:158|341:79,1,201
225,82,48618,2,0,L|394:72,1,134,2|0,0:0|0:0,0:0:0:0:
222,161,49201,2,0,L|218:296,1,134
385,289,49784,6,0,P|420:238|375:170,1,134,4|8,0:0|0:0,0:0:0:0:
261,172,50366,2,0,L|404:163,1,134,8|8,0:3|0:0,0:0:0:0:
238,202,50949,2,0,L|231:344,1,134,0|8,0:0|0:0,0:0:0:0:
299,339,51385,1,4,0:0:0:0:
364,342,51531,2,0,L|211:343,1,134,8|8,0:3|0:0,0:0:0:0:
400,280,52114,6,0,P|460:232|472:167,1,134,4|8,0:0|0:0,0:0:0:0:
264,254,52842,2,0,L|265:173,1,67,0|8,0:0|0:0,0:0:0:0:
345,171,53133,1,0,0:0:0:0:
264,107,53279,2,0,L|116:100,1,134,4|8,0:0|0:0,0:0:0:0:
253,173,53861,2,0,L|246:333,1,134,4|8,0:0|0:3,0:0:0:0:
102,313,54444,6,0,L|315:263,3,201,12|12|12|12,0:0|0:0|0:0|0:0,0:0:0:0:
97,229,56191,2,0,P|72:147|110:89,1,134,12|12,0:0|0:0,0:0:0:0:
253,71,56774,6,0,P|328:97|171:293,1,469,4|8,0:0|0:0,0:0:0:0:
360,324,58521,1,8,0:3:0:0:
147,313,58958,6,0,P|94:281|156:181,1,201,4|8,0:0|0:0,0:0:0:0:
281,179,59686,2,0,L|126:166,1,134,8|8,0:3|0:0,0:0:0:0:
298,283,60269,2,0,P|334:218|280:162,1,134,8|8,0:3|0:0,0:0:0:0:
176,163,60851,2,0,L|31:152,1,134,8|8,0:3|0:0,0:0:0:0:
121,95,61288,6,0,L|123:258,1,134
52,243,61725,1,8,0:0:0:0:
173,238,62017,1,8,0:3:0:0:
292,234,62308,2,0,L|298:148,1,67,8|0,0:0|0:0,0:0:0:0:
209,151,62599,2,0,L|203:8,1,134,8|8,0:3|0:0,0:0:0:0:
342,36,63182,2,0,L|425:34,1,67,8|8,0:3|0:3,0:0:0:0:
236,74,63618,6,0,P|172:121|156:192,1,134,4|8,0:0|0:3,0:0:0:0:
225,198,64055,2,0,L|399:202,1,134,8|8,0:0|0:3,0:0:0:0:
482,245,64638,2,0,L|484:330,1,67,8|0,0:0|0:0,0:0:0:0:
398,313,64929,1,8,0:3:0:0:
331,308,65075,2,0,L|327:163,1,134
448,207,65657,2,0,L|453:136,1,67,8|8,0:3|0:0,0:0:0:0:
370,126,65949,6,0,L|233:113,1,134,4|8,0:0|0:3,0:0:0:0:
222,184,66385,1,8,0:0:0:0:
331,203,66677,2,0,L|332:284,1,67,8|8,0:3|0:3,0:0:0:0:
167,283,67114,2,0,P|132:225|163:173,1,134,4|8,0:0|0:0,0:0:0:0:
216,163,67551,1,8,0:0:0:0:
336,157,67842,2,0,L|338:86,1,67,8|8,0:0|0:0,0:0:0:0:
178,106,68279,6,0,L|44:95,1,134,4|8,0:0|0:3,0:0:0:0:
113,167,68716,1,8,0:0:0:0:
260,177,69007,2,0,P|275:241|216:294,1,134,8|8,0:3|0:0,0:0:0:0:
96,292,69589,2,0,L|241:297,1,134,8|8,0:3|0:0,0:0:0:0:
109,236,70172,2,0,P|67:182|109:122,1,134,8|8,0:3|0:0,0:0:0:0:
175,125,70609,6,0,L|314:118,1,134
316,185,71046,1,8,0:0:0:0:
196,202,71337,1,8,0:3:0:0:
75,215,71628,1,8,0:0:0:0:
226,308,71919,2,0,P|261:241|228:179,1,134,8|8,0:3|0:0,0:0:0:0:
116,207,72502,2,0,L|260:182,1,134,8|4,0:3|0:0,0:0:0:0:
406,172,73085,6,0,P|441:109|399:45,1,134,4|8,0:0|0:0,0:0:0:0:
352,45,73521,1,0,0:0:0:0:
186,32,73958,2,0,L|176:176,1,134,8|8,0:0|0:3,0:0:0:0:
238,177,74395,1,0,0:0:0:0:
54,178,74832,2,0,P|31:241|68:323,1,134,8|8,0:3|0:0,0:0:0:0:
210,321,75415,6,0,L|291:326,2,67,8|8|12,0:3|0:3|0:0,0:0:0:0:
83,285,75997,2,0,L|82:125,1,134,8|12,0:3|0:0,0:0:0:0:
215,151,76580,2,0,L|366:134,1,134,8|8,0:3|0:0,0:0:0:0:
226,84,77162,2,0,L|220:5,1,67,0|8,0:0|0:3,0:0:0:0:
289,9,77453,1,8,0:0:0:0:
446,298,77745,6,0,L|257:218,3,201,12|12|12|12,0:0|0:0|0:0|0:0,0:0:0:0:
425,228,79492,2,0,L|430:90,1,134,12|12,0:0|0:0,0:0:0:0:
276,122,80075,6,0,L|82:49,1,201,12|12,0:0|0:0,0:0:0:0:
292,146,80949,1,12,0:0:0:0:
181,184,81968,2,0,L|175:74,1,67,0|4,0:0|0:0,0:0:0:0:
339,88,82405,6,0,L|486:80,2,134,4|8|8,0:0|0:0|0:3,0:0:0:0:
462,134,83279,2,0,L|465:211,1,67,8|0,0:0|0:0,0:0:0:0:
394,208,83570,6,0,L|249:215,1,134,8|8,0:3|0:0,0:0:0:0:
127,206,84152,2,0,P|101:146|136:68,1,134,8|8,0:3|0:0,0:0:0:0:
279,72,84735,6,0,L|430:68,2,134,8|8|8,0:3|0:0|0:3,0:0:0:0:
149,126,85609,2,0,L|147:204,1,67,8|0,0:0|0:0,0:0:0:0:
221,195,85900,6,0,L|400:199,1,134,8|8,0:3|0:0,0:0:0:0:
249,127,86483,1,8,0:3:0:0:
373,134,86774,2,0,L|381:52,1,67,8|8,0:0|0:3,0:0:0:0:
295,51,87065,6,0,L|151:44,2,134,4|8|8,0:0|0:0|0:3,0:0:0:0:
174,98,87939,2,0,L|88:103,1,67,8|0,0:0|0:0,0:0:0:0:
187,159,88230,6,0,P|222:229|181:278,1,134,8|8,0:3|0:0,0:0:0:0:
55,271,88813,2,0,L|206:277,1,134,8|8,0:3|0:0,0:0:0:0:
350,281,89395,5,4,0:0:0:0:
221,271,89686,2,0,P|199:186|233:141,1,134,8|8,0:3|0:0,0:0:0:0:
288,147,90123,1,8,0:0:0:0:
126,123,90415,1,4,0:0:0:0:
