osu file format v14

[General]
AudioFilename: Suzuki Konomi - Realize (TV Size).mp3
AudioLeadIn: 0
PreviewTime: 58559
Countdown: 0
SampleSet: Soft
StackLeniency: 0.7
Mode: 3
LetterboxInBreaks: 0
SpecialStyle: 0
WidescreenStoryboard: 0

[Editor]
Bookmarks: 90430
DistanceSpacing: 1
BeatDivisor: 4
GridSize: 32
TimelineZoom: 1.6

[Metadata]
Title:Realize (TV Size)
TitleUnicode:Realize (TV Size)
Artist:Suzuki Konomi
ArtistUnicode:鈴木このみ
Creator:Amiichii
Version:Easy
Source:Re:ゼロから始める異世界生活
Tags:re: starting another life in a different world from zero second 2nd season re rezero re:zero kara hajimeru isekai seikatsu emilia natsuki subaru rem ram white fox op opening theme song anime japanese pop jpop j-pop female vocalist realise Roger ][ -GH- ][
BeatmapID:2487374
BeatmapSetID:1192653

[Difficulty]
HPDrainRate:7
CircleSize:4
OverallDifficulty:7
ApproachRate:9.2
SliderMultiplier:1.6
SliderTickRate:0.5

[Events]
//Background and Video events
0,0,"mania-easy.jpg",0,0
//Break Periods
//Storyboard Layer 0 (Background)
//Storyboard Layer 1 (Fail)
//Storyboard Layer 2 (Pass)
//Storyboard Layer 3 (Foreground)
//Storyboard Layer 4 (Overlay)
//Storyboard Sound Samples

[TimingPoints]
902,291.26213592233,4,2,1,15,1,0
3220,291.26213592233,4,2,1,15,1,0
7880,-100,4,2,1,50,0,0
17200,-100,4,2,1,15,0,0
25501,-100,4,2,1,50,0,0
45161,-100,4,2,1,15,0,0
49821,-100,4,2,1,50,0,0
58996,-100,4,2,1,50,0,1
68244,-100,4,2,1,50,0,0
68317,-100,4,2,1,50,0,1
77710,-100,4,2,1,50,0,0

[HitObjects]
64,192,902,5,0,0:0:0:0:
448,192,1193,128,0,1630:0:0:0:0:
64,192,1630,128,0,2067:0:0:0:0:
320,192,2067,128,0,2503:0:0:0:0:
192,192,2503,128,0,2940:0:0:0:0:
448,192,2940,128,0,3220:0:0:0:0:
64,192,3220,1,0,0:0:0:0:
320,192,3511,128,0,3948:0:0:0:0:
192,192,3948,128,0,4385:0:0:0:0:
448,192,4385,128,0,4821:0:0:0:0:
64,192,4821,128,0,5258:0:0:0:0:
320,192,5258,128,0,5550:0:0:0:0:
192,192,5550,1,0,0:0:0:0:
448,192,5841,128,0,6278:0:0:0:0:
192,192,6278,128,0,6715:0:0:0:0:
320,192,6715,128,0,7152:0:0:0:0:
64,192,7152,128,0,7588:0:0:0:0:
448,192,7588,128,0,7880:0:0:0:0:
320,192,7880,1,2,0:0:0:0:
64,192,7880,1,4,0:0:0:0:
192,192,8171,1,2,0:0:0:0:
320,192,8462,1,2,0:0:0:0:
448,192,8753,1,2,0:0:0:0:
64,192,9045,1,2,0:0:0:0:
192,192,9336,1,2,0:0:0:0:
448,192,9627,1,2,0:0:0:0:
64,192,9919,1,2,0:0:0:0:
320,192,10210,1,2,0:0:0:0:
448,192,10210,1,4,0:0:0:0:
192,192,10501,1,2,0:0:0:0:
448,192,10792,1,2,0:0:0:0:
64,192,11084,1,2,0:0:0:0:
320,192,11375,1,2,0:0:0:0:
192,192,11666,1,2,0:0:0:0:
448,192,11957,1,6,0:0:0:0:
192,192,12249,1,2,0:0:0:0:
64,192,12540,1,4,0:0:0:0:
448,192,12540,1,2,0:0:0:0:
320,192,12831,1,2,0:0:0:0:
192,192,13122,1,2,0:0:0:0:
320,192,13414,1,2,0:0:0:0:
64,192,13705,1,2,0:0:0:0:
320,192,13996,1,2,0:0:0:0:
192,192,14287,1,2,0:0:0:0:
448,192,14579,1,2,0:0:0:0:
192,192,14870,1,10,0:0:0:0:
320,192,15016,1,10,0:0:0:0:
64,192,15307,1,10,0:0:0:0:
64,192,15598,1,10,0:0:0:0:
320,192,15889,1,10,0:0:0:0:
64,192,16181,1,2,0:0:0:0:
448,192,16326,128,12,16618:0:0:0:0:
64,192,16618,1,0,0:0:0:50:Tom1.wav
320,192,16763,1,0,0:0:0:50:Tom1.wav
192,192,16909,1,0,0:0:0:50:Tom2.wav
64,192,17054,1,0,0:0:0:50:Tom2.wav
448,192,17200,1,0,0:0:0:50:Tom3.wav
64,192,17491,128,0,17783:0:0:0:0:
448,192,17783,128,0,18365:0:0:0:0:
320,192,18365,128,0,18948:0:0:0:0:
192,192,18948,128,0,19530:0:0:0:0:
64,192,19530,128,0,20695:0:0:0:0:
320,192,20695,128,0,21278:0:0:0:0:
448,192,21278,128,0,21860:0:0:0:0:
192,192,21860,1,0,0:0:0:0:
64,192,22443,1,0,0:0:0:0:
192,192,22734,1,0,0:0:0:0:
448,192,23025,1,0,0:0:0:0:
64,192,23317,1,0,0:0:0:0:
320,192,23462,128,0,23899:0:0:0:0:
192,192,23899,128,0,24190:0:0:0:0:
448,192,24190,128,0,24773:0:0:0:0:
64,192,24773,128,0,25355:0:0:0:0:
320,192,25355,1,0,0:0:0:0:
192,192,25501,1,2,0:0:0:0:
448,192,25647,1,12,0:0:0:0:
64,192,25938,128,8,26229:0:0:0:0:
448,192,26229,128,8,26520:0:0:0:0:
64,192,26520,1,2,0:0:0:0:
192,192,26520,1,4,0:0:0:0:
320,192,26666,1,2,0:0:0:0:
64,192,26812,1,8,0:0:0:0:
448,192,27103,1,2,0:0:0:0:
192,192,27249,1,2,0:0:0:0:
320,192,27394,1,8,0:0:0:0:
64,192,27686,1,2,0:0:0:0:
448,192,27831,1,2,0:0:0:0:
192,192,27977,1,8,0:0:0:0:
320,192,28268,1,2,0:0:0:0:
192,192,28414,1,2,0:0:0:0:
448,192,28559,1,8,0:0:0:0:
64,192,28851,1,2,0:0:0:0:
192,192,28996,1,2,0:0:0:0:
448,192,29142,1,8,0:0:0:0:
320,192,29433,1,2,0:0:0:0:
192,192,29579,1,2,0:0:0:0:
64,192,29724,1,8,0:0:0:0:
448,192,30016,1,2,0:0:0:0:
192,192,30161,1,2,0:0:0:0:
320,192,30307,1,8,0:0:0:0:
448,192,30307,1,4,0:0:0:0:
64,192,30598,128,8,30889:0:0:0:0:
448,192,30889,128,12,31181:0:0:0:0:
192,192,31181,1,2,0:0:0:0:
64,192,31181,1,4,0:0:0:0:
320,192,31472,1,8,0:0:0:0:
64,192,31763,1,2,0:0:0:0:
320,192,32054,1,8,0:0:0:0:
64,192,32346,1,2,0:0:0:0:
448,192,32637,1,8,0:0:0:0:
192,192,32928,1,2,0:0:0:0:
448,192,33219,1,8,0:0:0:0:
64,192,33511,1,2,0:0:0:0:
192,192,33511,1,4,0:0:0:0:
320,192,33802,1,8,0:0:0:0:
64,192,34093,1,2,0:0:0:0:
192,192,34239,1,2,0:0:0:0:
448,192,34385,1,8,0:0:0:0:
64,192,34530,1,2,0:0:0:0:
320,192,34530,1,4,0:0:0:0:
192,192,34821,1,8,0:0:0:0:
448,192,34967,1,8,0:0:0:0:
320,192,35258,1,8,0:0:0:0:
192,192,35550,1,0,0:0:0:50:Tom3.wav
64,192,35841,1,2,0:0:0:0:
448,192,35841,1,4,0:0:0:0:
320,192,36132,1,2,0:0:0:0:
192,192,36423,1,6,0:0:0:0:
448,192,36715,1,2,0:0:0:0:
320,192,36860,1,2,0:0:0:0:
64,192,37006,1,12,0:0:0:0:
192,192,37152,1,2,0:0:0:0:
448,192,37297,1,2,0:0:0:0:
192,192,37588,1,6,0:0:0:0:
320,192,37880,1,2,0:0:0:0:
64,192,38171,1,4,0:0:0:0:
448,192,38171,1,2,0:0:0:0:
320,192,38462,1,2,0:0:0:0:
192,192,38753,1,6,0:0:0:0:
448,192,39045,1,2,0:0:0:0:
64,192,39190,1,2,0:0:0:0:
320,192,39336,1,12,0:0:0:0:
192,192,39482,1,2,0:0:0:0:
64,192,39627,1,2,0:0:0:0:
448,192,39919,128,12,40210:0:0:0:0:
192,192,40210,1,0,0:0:0:50:Tom3.wav
320,192,40355,1,0,0:0:0:50:Tom3.wav
64,192,40501,128,2,40792:0:0:0:0:
192,192,40501,1,4,0:0:0:0:
448,192,40792,1,2,0:0:0:0:
192,192,41084,1,12,0:0:0:0:
320,192,41229,1,2,0:0:0:0:
192,192,41520,1,2,0:0:0:0:
448,192,41812,1,2,0:0:0:0:
64,192,41957,1,2,0:0:0:0:
320,192,42249,1,12,0:0:0:0:
192,192,42540,1,2,0:0:0:0:
448,192,42831,1,2,0:0:0:0:
320,192,42831,1,4,0:0:0:0:
64,192,42977,1,2,0:0:0:0:
320,192,43122,1,2,0:0:0:0:
192,192,43414,1,12,0:0:0:0:
448,192,43559,1,2,0:0:0:0:
320,192,43851,1,2,0:0:0:0:
64,192,44142,1,2,0:0:0:0:
448,192,44287,1,2,0:0:0:0:
192,192,44579,1,0,0:0:0:50:Tom1.wav
448,192,44724,1,0,0:0:0:50:Tom1.wav
320,192,44870,1,0,0:0:0:50:Tom2.wav
192,192,45016,1,0,0:0:0:50:Tom2.wav
64,192,45161,128,0,46326:0:0:0:50:Tom3.wav
320,192,46326,128,0,47491:0:0:0:0:
192,192,47491,128,0,48656:0:0:0:0:
448,192,48656,128,0,49239:0:0:0:0:
64,192,49239,128,0,49821:0:0:0:50:Tom2.wav
320,192,49530,1,0,0:0:0:50:Tom3.wav
192,192,49821,1,4,0:0:0:0:
448,192,49821,1,2,0:0:0:0:
320,192,50113,1,2,0:0:0:0:
64,192,50404,1,2,0:0:0:0:
64,192,50695,1,2,0:0:0:0:
320,192,50986,1,2,0:0:0:0:
320,192,51278,1,2,0:0:0:0:
448,192,51569,1,2,0:0:0:0:
448,192,51860,1,2,0:0:0:0:
64,192,52152,1,2,0:0:0:0:
192,192,52152,1,4,0:0:0:0:
192,192,52443,1,2,0:0:0:0:
320,192,52734,1,2,0:0:0:0:
320,192,53025,1,2,0:0:0:0:
64,192,53317,1,2,0:0:0:0:
448,192,53462,1,8,0:0:0:0:
192,192,53608,1,8,0:0:0:0:
320,192,53899,128,12,54190:0:0:0:0:
64,192,54190,128,0,54482:0:0:0:50:Tom2.wav
192,192,54482,1,2,0:0:0:0:
448,192,54482,1,4,0:0:0:0:
320,192,54773,1,2,0:0:0:0:
64,192,54919,1,4,0:0:0:0:
448,192,54919,1,8,0:0:0:0:
192,192,55210,1,2,0:0:0:0:
320,192,55355,1,4,0:0:0:0:
448,192,55355,1,8,0:0:0:0:
64,192,55647,1,2,0:0:0:0:
192,192,55792,1,4,0:0:0:0:
320,192,55792,1,8,0:0:0:0:
448,192,56084,1,2,0:0:0:0:
64,192,56229,1,4,0:0:0:0:
192,192,56229,1,8,0:0:0:0:
64,192,56520,128,4,56812:0:0:0:0:
448,192,56520,1,8,0:0:0:0:
192,192,56812,1,2,0:0:0:0:
320,192,56812,1,4,0:0:0:0:
448,192,57103,1,2,0:0:0:0:
64,192,57394,1,2,0:0:0:0:
320,192,57540,1,8,0:0:0:0:
192,192,57686,1,8,0:0:0:0:
448,192,57831,1,8,0:0:0:0:
192,192,58559,1,0,0:0:0:50:Tom3.wav
64,192,58996,1,4,0:0:0:0:
448,192,58996,128,2,59433:0:0:0:0:
192,192,59433,1,8,0:0:0:0:
320,192,59724,1,2,0:0:0:0:
64,192,60016,1,8,0:0:0:0:
448,192,60307,1,2,0:0:0:0:
192,192,60598,1,8,0:0:0:0:
320,192,60889,1,2,0:0:0:0:
64,192,61181,1,8,0:0:0:0:
192,192,61472,1,2,0:0:0:0:
448,192,61763,1,8,0:0:0:0:
320,192,62054,1,2,0:0:0:0:
192,192,62346,1,8,0:0:0:0:
320,192,62637,1,2,0:0:0:0:
64,192,62928,1,8,0:0:0:0:
448,192,63219,1,2,0:0:0:0:
192,192,63365,1,2,0:0:0:0:
320,192,63511,1,8,0:0:0:0:
64,192,63656,1,2,0:0:0:0:
448,192,63656,1,4,0:0:0:0:
192,192,63948,1,2,0:0:0:0:
320,192,64093,1,8,0:0:0:0:
64,192,64385,1,2,0:0:0:0:
448,192,64676,1,8,0:0:0:0:
192,192,64967,1,2,0:0:0:0:
320,192,65258,1,8,0:0:0:0:
64,192,65550,1,2,0:0:0:0:
448,192,65695,1,2,0:0:0:0:
192,192,65841,1,8,0:0:0:0:
320,192,65986,1,2,0:0:0:0:
448,192,65986,1,4,0:0:0:0:
64,192,66278,1,2,0:0:0:0:
448,192,66423,1,8,0:0:0:0:
192,192,66715,1,2,0:0:0:0:
320,192,66860,1,2,0:0:0:0:
64,192,67006,1,8,0:0:0:0:
320,192,67152,1,2,0:0:0:0:
448,192,67152,1,4,0:0:0:0:
192,192,67443,1,8,0:0:0:0:
448,192,67588,1,8,0:0:0:0:
320,192,67880,1,8,0:0:0:0:
64,192,68025,1,2,0:0:0:0:
448,192,68171,1,8,0:0:0:0:
192,192,68317,1,4,0:0:0:0:
320,192,68317,1,2,0:0:0:0:
64,192,68608,1,2,0:0:0:0:
448,192,68753,1,8,0:0:0:0:
192,192,69045,1,2,0:0:0:0:
320,192,69336,1,8,0:0:0:0:
448,192,69627,1,2,0:0:0:0:
64,192,69919,1,8,0:0:0:0:
320,192,70210,1,2,0:0:0:0:
192,192,70501,1,8,0:0:0:0:
448,192,70792,1,2,0:0:0:0:
64,192,71084,1,8,0:0:0:0:
320,192,71375,1,2,0:0:0:0:
192,192,71666,128,8,71957:0:0:0:0:
448,192,71957,128,2,72249:0:0:0:0:
320,192,72249,128,8,72540:0:0:0:0:
192,192,72540,128,2,72831:0:0:0:0:
64,192,72831,128,8,73122:0:0:0:0:
448,192,73122,1,2,0:0:0:0:
320,192,73122,1,4,0:0:0:0:
192,192,73414,1,8,0:0:0:0:
320,192,73705,1,2,0:0:0:0:
64,192,73996,1,8,0:0:0:0:
448,192,74287,1,2,0:0:0:0:
320,192,74579,1,8,0:0:0:0:
64,192,74870,128,2,75161:0:0:0:0:
448,192,75161,128,8,75453:0:0:0:0:
192,192,75453,1,2,0:0:0:0:
320,192,75598,1,2,0:0:0:0:
64,192,75744,1,4,0:0:0:0:
192,192,75744,1,8,0:0:0:0:
448,192,76035,1,2,0:0:0:0:
192,192,76181,1,2,0:0:0:0:
320,192,76326,1,8,0:0:0:0:
448,192,76326,1,4,0:0:0:0:
64,192,76618,1,2,0:0:0:0:
192,192,76763,1,2,0:0:0:0:
448,192,76909,1,8,0:0:0:0:
64,192,77054,1,2,0:0:0:0:
320,192,77346,1,2,0:0:0:0:
64,192,77491,128,8,77783:0:0:0:0:
192,192,77491,1,4,0:0:0:0:
320,192,77783,1,4,0:0:0:0:
448,192,77783,1,8,0:0:0:0:
192,192,78074,1,2,0:0:0:0:
64,192,78219,1,8,0:0:0:0:
448,192,78219,1,4,0:0:0:0:
320,192,78511,1,2,0:0:0:0:
192,192,78656,1,8,0:0:0:0:
448,192,78656,1,4,0:0:0:0:
64,192,78948,1,2,0:0:0:0:
320,192,79093,1,4,0:0:0:0:
448,192,79093,1,8,0:0:0:0:
192,192,79385,1,2,0:0:0:0:
64,192,79530,1,8,0:0:0:0:
448,192,79530,1,4,0:0:0:0:
192,192,79821,1,8,0:0:0:0:
320,192,79821,1,4,0:0:0:0:
64,192,80113,1,8,0:0:0:0:
320,192,80113,1,4,0:0:0:0:
192,192,80404,1,2,0:0:0:0:
320,192,80550,1,8,0:0:0:0:
448,192,80550,1,4,0:0:0:0:
448,192,80841,1,2,0:0:0:0:
64,192,80986,1,0,0:0:0:0:
192,192,80986,1,8,0:0:0:0:
320,192,82006,1,0,0:0:0:0:
64,192,82152,128,12,82443:0:0:0:0:
192,192,82443,1,2,0:0:0:0:
448,192,82443,1,4,0:0:0:0:
320,192,82734,1,8,0:0:0:0:
64,192,83025,1,2,0:0:0:0:
448,192,83317,1,8,0:0:0:0:
192,192,83608,1,2,0:0:0:0:
320,192,83899,1,8,0:0:0:0:
64,192,84190,1,2,0:0:0:0:
448,192,84482,1,8,0:0:0:0:
192,192,84773,1,2,0:0:0:0:
320,192,85064,1,8,0:0:0:0:
64,192,85355,1,2,0:0:0:0:
448,192,85647,1,8,0:0:0:0:
192,192,85938,1,2,0:0:0:0:
320,192,86229,1,8,0:0:0:0:
64,192,86520,1,2,0:0:0:0:
448,192,86812,128,8,87103:0:0:0:0:
64,192,87103,1,2,0:0:0:0:
320,192,87103,1,4,0:0:0:0:
192,192,87394,1,8,0:0:0:0:
448,192,87686,1,2,0:0:0:0:
64,192,87977,1,8,0:0:0:0:
192,192,88268,1,2,0:0:0:0:
320,192,88559,1,8,0:0:0:0:
192,192,88851,1,2,0:0:0:0:
448,192,89142,1,8,0:0:0:0:
64,192,89433,1,2,0:0:0:0:
320,192,89433,1,4,0:0:0:0:
192,192,89724,128,0,90016:0:0:0:50:Tom2.wav
448,192,90016,1,8,0:0:0:0:
64,192,90161,1,8,0:0:0:0:
320,192,90453,1,8,0:0:0:0:
448,192,90453,1,4,0:0:0:0:
