osu file format v14

[General]
AudioFilename: audio.mp3
AudioLeadIn: 0
PreviewTime: 207192
Countdown: 0
SampleSet: None
StackLeniency: 0.4
Mode: 0
LetterboxInBreaks: 0
WidescreenStoryboard: 1

[Editor]
DistanceSpacing: 0.6
BeatDivisor: 4
GridSize: 32
TimelineZoom: 1.5

[Metadata]
Title:Realize
TitleUnicode:Realize
Artist:Suzuki Konomi
ArtistUnicode:鈴木このみ
Creator:Sotarks
Version:SMOKELIND's Insane
Source:Re:ゼロから始める異世界生活
Tags:starting life in chiga サテラ another world zero re:zero rezero kara Hajimeru Isekai Seikatsu from different anime op opening vocalist full version kujinn smokelind 2nd season fox emilia natsuki subaru rem ram theresia van astrea satella テレシ アヴァン アストレア reform white japanese female jpop j-pop
BeatmapID:2587027
BeatmapSetID:1244533

[Difficulty]
HPDrainRate:4.7
CircleSize:3.5
OverallDifficulty:8.2
ApproachRate:9
SliderMultiplier:1.47
SliderTickRate:1

[Events]
//Background and Video events
0,0,"bg.jpg",0,0
//Break Periods
2,117173,119577
2,182415,190936
2,204261,205499
//Storyboard Layer 0 (Background)
//Storyboard Layer 1 (Fail)
//Storyboard Layer 2 (Pass)
//Storyboard Layer 3 (Foreground)
//Storyboard Layer 4 (Overlay)
//Storyboard Sound Samples

[TimingPoints]
3964,291.26213592233,4,2,22,47,1,0
5129,-114.942528735633,4,2,22,77,0,0
10080,-114.942528735633,4,2,22,47,0,0
10663,-114.942528735633,4,2,22,57,0,0
11245,-114.942528735633,4,2,22,67,0,0
11828,-114.942528735633,4,2,22,77,0,0
13575,-175.43859649123,4,2,22,57,0,0
14449,-175.43859649123,4,2,22,47,0,0
15614,-212.765957446811,4,2,22,47,0,0
23187,-114.942528735633,4,2,22,77,0,0
33090,-129.870129870131,4,2,22,67,0,0
41828,-175.43859649123,4,2,22,57,0,0
42410,-175.43859649123,4,2,22,47,0,0
44012,-212.765957446811,4,2,22,47,0,0
46488,-175.43859649123,4,2,22,57,0,0
46706,-175.43859649123,4,2,22,5,0,0
46779,-129.870129870131,4,2,22,67,0,0
46997,-129.870129870131,4,2,22,5,0,0
47070,-129.870129870131,4,2,22,77,0,0
47362,-114.942528735633,4,2,22,77,0,0
51730,-103.092783505155,4,2,22,77,0,0
56245,-93.4579439252339,4,2,22,87,0,0
79692,-103.092783505155,4,2,22,77,0,0
87993,-103.092783505155,4,2,22,47,0,0
89012,-129.870129870131,4,2,22,57,0,0
98332,-114.942528735633,4,2,22,77,0,0
116973,-114.942528735633,4,2,22,47,0,0
120468,-129.870129870131,4,2,22,57,0,0
121633,-129.870129870131,4,2,22,77,0,0
121925,-114.942528735633,4,2,22,77,0,0
126294,-103.092783505155,4,2,22,77,0,0
131536,-370.370370370374,4,2,22,57,0,0
131973,-93.4579439252339,4,2,22,87,0,0
155420,-129.870129870131,4,2,22,57,0,0
164740,-114.942528735633,4,2,22,77,0,0
174061,-370.370370370379,4,2,22,77,0,0
181633,-588.235294117668,4,2,22,27,0,0
191536,-212.765957446809,4,2,22,27,0,0
206099,-212.765957446811,4,2,22,37,0,0
206682,-175.43859649123,4,2,22,47,0,0
207264,-370.370370370379,4,2,22,57,0,0
207701,-175.438596491228,4,2,22,77,0,0
212362,-93.4579439252336,4,2,22,87,0,0
217022,-85.4700854700855,4,2,22,87,0,0
231148,-103.092783505155,4,2,22,77,0,0

[Colours]
Combo1 : 221,255,253
Combo2 : 92,147,237
Combo3 : 234,111,231
Combo4 : 100,243,255

[HitObjects]
15,62,4546,5,8,3:0:0:0:
15,62,5129,6,0,P|84:43|145:37,1,128.120203073296,6|0,1:0|1:0,2:0:0:0:
139,37,5565,1,0,2:0:0:0:
166,160,5711,2,0,P|120:147|79:143,1,64.0601015366478,0|0,1:0|2:0,2:0:0:0:
262,64,6002,2,0,P|249:109|245:150,1,64.0601015366478,0|0,1:0|2:0,2:0:0:0:
337,228,6294,6,0,P|361:176|307:194,1,128.120203073296,4|0,1:0|1:0,2:0:0:0:
141,307,6876,2,0,P|117:255|171:273,1,128.120203073296,4|0,1:0|1:0,2:0:0:0:
418,360,7459,6,0,P|427:277|440:194,1,128.120203073296,6|0,1:0|1:0,2:0:0:0:
433,233,7896,1,0,2:0:0:0:
486,89,8041,2,0,P|494:123|499:168,1,64.0601015366478,0|0,1:0|2:0,2:0:0:0:
351,59,8332,2,0,P|383:55|414:47,1,64.0601015366478,0|0,1:0|2:0,2:0:0:0:
414,47,8624,1,0,1:0:0:0:
243,0,8769,6,0,P|259:64|267:151,1,128.120203073296,4|0,3:2|2:0,2:0:0:0:
401,202,9206,2,0,P|408:138|424:76,1,128.120203073296,4|0,1:0|1:0,2:0:0:0:
235,261,9789,6,0,P|195:265|155:235,1,64.0601015366478,6|0,1:0|2:0,2:0:0:0:
82,121,10080,2,0,P|122:117|162:147,1,64.0601015366478,0|0,1:0|3:0,2:0:0:0:
53,207,10371,1,0,1:0:0:0:
53,207,10517,1,0,3:0:0:0:
104,33,10663,1,0,1:0:0:0:
104,33,10808,1,8,3:0:0:0:
215,181,10954,6,0,L|304:164,1,64.0601015366478,8|8,2:0|2:0,2:0:0:0:
394,334,11245,2,0,L|305:317,1,64.0601015366478,8|8,2:0|2:0,2:0:0:0:
407,150,11536,1,8,2:0:0:0:
407,150,11682,1,8,2:0:0:0:
294,251,11828,2,0,L|231:262,1,64.0601015366478,8|8,2:0|2:0,2:0:0:0:
116,109,12119,5,10,2:0:0:0:
71,304,12264,1,10,2:0:0:0:
253,56,12556,5,10,2:0:0:0:
394,334,12847,5,10,2:0:0:0:
92,216,13138,5,10,2:0:0:0:
306,134,13430,5,0,1:0:0:0:
306,134,13502,1,0,1:0:0:0:
306,134,13575,2,0,L|296:225,1,83.9408209771729,14|8,2:0|3:0,2:0:0:0:
191,295,14012,2,0,L|186:250,2,41.9704104885864,8|8|8,3:0|3:0|3:0,2:0:0:0:
299,342,14449,5,6,1:0:0:0:
457,77,15614,6,0,B|319:31|380:214|212:168,1,276.383025783081,0|2,3:0|2:0,2:0:0:0:
0,141,17944,6,0,B|153:180|74:10|244:50,1,276.383025783081,0|2,3:0|2:0,2:0:0:0:
23,333,20274,6,0,B|90:349|135:263|135:263|215:318|269:271,1,276.383025783081,0|2,3:0|2:0,2:0:0:0:
250,269,22022,6,0,P|217:279|183:274,1,69.2143609457703,2|0,2:0|2:0,2:0:0:0:
183,274,22604,5,2,3:0:0:0:
294,138,22750,1,0,1:0:0:0:
357,357,22896,1,8,2:0:0:0:
357,357,23187,6,0,P|374:346|403:342,3,32.1032322683239,10|8|8|8,2:0|2:0|2:0|2:0,2:0:0:0:
435,281,23478,2,0,P|418:270|389:266,3,32.1032322683239,8|8|8|8,2:0|2:0|2:0|2:0,2:0:0:0:
463,355,23769,5,4,1:0:0:0:
361,186,23915,1,0,1:0:0:0:
242,361,24061,2,0,P|207:352|161:345,1,64.0601015366478,10|0,2:0|2:0,2:0:0:0:
77,202,24352,1,2,1:0:0:0:
77,202,24497,2,0,P|111:193|158:186,1,64.0601015366478,2|8,1:0|2:0,2:0:0:0:
264,291,24789,6,0,P|232:250|280:195,1,128.120203073296,2|0,2:0|1:0,2:0:0:0:
434,216,25226,2,0,P|413:243|370:253,1,64.0601015366478,10|0,2:0|2:0,2:0:0:0:
309,97,25517,1,2,1:0:0:0:
309,97,25663,2,0,P|338:108|357:134,1,64.0601015366478,2|8,1:0|2:0,2:0:0:0:
173,167,25954,6,0,P|195:105|201:32,1,128.120203073296,2|0,2:0|1:0,2:0:0:0:
253,216,26391,1,10,2:0:0:0:
253,216,26536,1,2,2:0:0:0:
77,150,26682,2,0,P|91:186|97:224,1,64.0601015366478,2|0,1:0|1:0,2:0:0:0:
10,320,26973,1,8,2:0:0:0:
164,286,27119,6,0,P|170:254|182:225,1,64.0601015366478,2|0,2:0|1:0,2:0:0:0:
296,139,27410,1,0,1:0:0:0:
396,319,27556,1,12,2:0:0:0:
285,261,27701,1,0,1:0:0:0:
285,261,27774,1,0,1:0:0:0:
285,261,27847,2,0,L|330:249,3,32.1032322683239,10|0|0|0,1:2|1:0|1:0|1:0,2:0:0:0:
372,192,28138,1,14,2:0:0:0:
376,196,28430,5,6,1:0:0:0:
376,196,28575,1,2,2:0:0:0:
264,56,28721,2,0,P|258:91|254:138,1,64.0601015366478,10|0,2:0|2:0,2:0:0:0:
66,80,29012,2,0,P|62:48|57:16,1,64.0601015366478,2|0,1:0|2:0,2:0:0:0:
165,102,29303,1,10,2:0:0:0:
165,102,29449,1,2,2:0:0:0:
62,236,29595,6,0,P|21:218|3:132,2,127.900658573296,2|8|0,1:0|2:0|1:0,2:0:0:0:
155,123,30323,1,2,2:0:0:0:
235,296,30468,1,10,2:0:0:0:
235,296,30614,1,2,2:0:0:0:
322,119,30760,5,6,1:0:0:0:
322,119,30905,2,0,L|397:108,1,64.0601015366478,2|8,2:0|2:0,2:0:0:0:
274,223,31197,2,0,L|199:212,1,64.0601015366478,2|0,2:0|1:0,2:0:0:0:
163,38,31488,1,2,1:0:0:0:
260,190,31633,1,8,2:0:0:0:
387,18,31779,6,0,P|455:28|477:105,1,128.120203073296,6|8,1:0|2:0,2:0:0:0:
435,253,32216,2,0,P|402:253|365:222,1,64.0601015366478,10|2,2:0|1:0,2:0:0:0:
378,217,32434,1,0,1:0:0:0:
377,215,32507,2,0,P|401:234|433:238,1,64.0601015366478,10|0,2:0|1:0,2:0:0:0:
379,47,32798,1,10,3:0:0:0:
379,47,33090,6,0,L|245:62,2,113.199430254715,6|0|0,1:0|1:0|1:0,2:0:0:0:
222,263,33963,1,2,1:0:0:0:
222,263,34109,1,2,1:0:0:0:
83,138,34255,6,0,L|75:221,1,56.6968698773575,10|0,2:0|1:0,2:0:0:0:
171,65,34546,1,2,1:0:0:0:
171,65,34692,2,0,L|179:148,1,56.6968698773575,2|0,2:0|1:0,2:0:0:0:
236,282,34983,2,0,L|319:274,1,56.6968698773575,2|0,2:0|1:0,2:0:0:0:
383,338,35274,1,2,2:0:0:0:
425,212,35420,6,0,P|411:266|402:334,2,113.199430254715,4|2|2,1:0|1:0|1:0,2:0:0:0:
265,61,36294,1,2,1:0:0:0:
265,61,36439,1,2,1:0:0:0:
198,223,36585,6,0,P|228:215|264:210,1,56.6968698773575,8|0,2:0|1:0,2:0:0:0:
337,57,36876,2,0,P|309:52|281:44,1,56.6968698773575,2|0,1:0|2:0,2:0:0:0:
379,213,37167,2,0,P|383:185|391:157,1,56.6968698773575,10|0,2:0|1:0,2:0:0:0:
199,73,37459,2,0,P|206:100|211:128,1,56.6968698773575,10|10,3:0|3:0,2:0:0:0:
26,167,37750,5,4,1:0:0:0:
26,167,37896,2,0,P|51:146|135:185,1,113.393739754715,0|0,1:0|2:0,2:0:0:0:
174,326,38332,2,0,P|141:322|112:234,1,113.393739754715,10|0,2:0|2:0,2:0:0:0:
268,189,38769,5,0,1:0:0:0:
268,189,38915,2,0,P|259:246|251:318,1,113.393739754715,6|0,2:0|1:0,2:0:0:0:
453,136,39497,2,0,P|461:193|470:265,1,113.393739754715,10|0,2:0|1:0,2:0:0:0:
288,80,40080,5,6,1:0:0:0:
288,80,40226,1,0,1:0:0:0:
177,202,40371,2,0,L|111:190,1,56.6968698773575,0|0,1:0|2:0,2:0:0:0:
45,59,40663,2,0,L|111:47,1,56.6968698773575,8|0,2:0|1:0,2:0:0:0:
11,187,40954,1,2,2:0:0:0:
160,114,41099,5,0,1:0:0:0:
160,114,41245,2,0,L|215:124,1,56.6968698773575,4|0,2:0|1:0,2:0:0:0:
339,63,41536,2,0,P|321:86|310:125,1,56.6968698773575,0|0,1:0|2:0,2:0:0:0:
392,233,41828,6,0,L|485:224,2,83.7969814771729,10|10|2,3:0|3:0|2:0,2:0:0:0:
392,233,42993,5,2,2:0:0:0:
226,341,43284,1,2,2:0:0:0:
89,209,43575,1,2,2:0:0:0:
89,209,44012,6,0,P|86:166|82:129,1,69.2143609457703,2|0,2:0|2:0,2:0:0:0:
168,72,44449,2,0,P|162:91|158:118,1,34.6071804728851,2|0,2:0|2:0,2:0:0:0:
159,105,44740,5,2,2:0:0:0:
281,184,45177,6,0,P|317:175|355:169,1,69.2143609457703,2|0,2:0|2:0,2:0:0:0:
439,91,45614,2,0,P|422:87|405:82,1,34.6071804728851,2|0,2:0|2:0,2:0:0:0:
406,83,45905,5,2,2:0:0:0:
467,249,46197,1,2,2:0:0:0:
311,362,46488,2,0,L|242:352,1,63.0994552328796,2|0,3:0|2:0,2:0:0:0:
235,333,46779,2,0,L|326:347,1,85.2396143160363,10|0,3:0|2:0,2:0:0:0:
330,328,47070,5,6,1:0:0:0:
182,264,47216,1,0,2:0:0:0:
359,142,47362,2,0,P|352:178|347:227,1,64.0601015366478,0|0,1:0|2:0,2:0:0:0:
125,199,47653,2,0,P|120:167|115:135,1,64.0601015366478,2|0,1:0|2:0,2:0:0:0:
253,48,47944,1,0,1:0:0:0:
253,48,48090,1,0,2:0:0:0:
37,118,48235,6,0,P|41:86|46:54,1,64.0601015366478,2|0,1:0|2:0,2:0:0:0:
199,156,48527,1,0,1:0:0:0:
199,156,48672,1,0,2:0:0:0:
63,264,48818,2,0,P|31:258|0:254,1,64.0601015366478,2|0,1:0|2:0,2:0:0:0:
133,352,49109,1,0,1:0:0:0:
133,352,49255,1,0,2:0:0:0:
199,156,49400,6,0,P|251:137|304:192,2,127.900658573296,6|0|0,1:0|1:0|1:0,2:0:0:0:
319,297,50129,1,2,2:0:0:0:
415,115,50274,1,2,1:0:0:0:
301,180,50420,1,2,2:0:0:0:
445,329,50565,6,0,L|517:320,1,64.0601015366478,6|8,1:0|2:0,2:0:0:0:
424,200,50857,1,10,2:0:0:0:
303,330,51002,1,0,1:0:0:0:
303,330,51075,1,0,1:0:0:0:
303,330,51148,2,0,L|231:321,1,64.0601015366478,10|0,2:0|1:0,2:0:0:0:
96,187,51439,2,0,L|168:178,1,64.0601015366478,10|0,3:0|1:0,2:0:0:0:
26,321,51730,6,0,P|34:285|41:249,1,71.4233326862069,14|0,2:0|1:0,2:0:0:0:
0,104,52022,1,0,1:0:0:0:
159,179,52167,2,0,P|150:143|144:107,1,71.4233326862069,14|0,2:0|1:0,2:0:0:0:
232,241,52459,1,0,1:0:0:0:
343,55,52604,2,0,P|307:61|273:69,1,71.4233326862069,14|0,2:0|1:0,2:0:0:0:
233,217,52896,5,0,1:0:0:0:
122,24,53041,2,0,P|157:30|191:38,1,71.4233326862069,14|0,2:0|1:0,2:0:0:0:
238,195,53332,1,0,1:0:0:0:
412,39,53478,2,0,L|401:110,1,71.4233326862069,14|0,2:0|1:0,2:0:0:0:
351,300,53769,2,0,L|340:229,1,71.4233326862069,10|0,2:0|1:0,2:0:0:0:
175,110,54061,6,0,B|111:122|154:166|56:180,1,142.846665372414,6|0,1:0|1:0,2:0:0:0:
199,204,54497,1,0,2:0:0:0:
53,83,54643,2,0,L|67:3,1,71.4233326862069,0|8,1:0|2:0,2:0:0:0:
252,91,54934,1,8,2:0:0:0:
57,179,55080,1,10,2:0:0:0:
426,46,55808,5,10,3:0:0:0:
426,46,56245,6,0,P|357:25|301:105,1,157.57311719989,6|0,1:0|2:0,2:0:0:0:
236,283,56682,2,0,P|194:273|151:269,1,78.7865585999451,8|0,2:0|2:0,2:0:0:0:
92,91,56973,2,0,P|131:86|169:77,1,78.7865585999451,2|0,1:0|2:0,2:0:0:0:
5,234,57264,2,0,P|14:195|18:156,1,78.7865585999451,8|0,2:0|2:0,2:0:0:0:
189,0,57556,6,0,P|200:77|220:153,1,157.57311719989,2|8,1:0|2:0,2:0:0:0:
324,255,57993,1,0,2:0:0:0:
409,63,58138,2,0,P|366:57|321:89,1,78.7865585999451,2|0,1:0|2:0,2:0:0:0:
247,276,58430,1,8,2:0:0:0:
453,162,58575,6,0,L|362:148,1,78.7865585999451,2|0,2:0|1:0,2:0:0:0:
414,334,58866,1,2,2:0:0:0:
244,186,59012,2,0,B|154:194|209:258|92:269,1,157.57311719989,10|0,2:0|1:0,2:0:0:0:
36,163,59449,1,0,2:0:0:0:
250,270,59595,2,0,P|241:308|236:356,1,78.7865585999451,10|2,2:0|2:0,2:0:0:0:
102,241,59886,5,2,1:0:0:0:
102,241,60031,1,2,2:0:0:0:
282,120,60177,2,0,P|291:158|295:197,1,78.7865585999451,10|2,2:0|2:0,2:0:0:0:
151,80,60468,1,2,1:0:0:0:
151,80,60614,1,2,1:0:0:0:
222,248,60760,1,10,2:0:0:0:
374,71,60905,6,0,P|328:50|259:119,1,157.57311719989,6|0,1:0|1:0,2:0:0:0:
440,267,61342,2,0,L|452:189,1,78.7865585999451,10|0,2:0|2:0,2:0:0:0:
317,328,61633,2,0,L|239:315,1,78.7865585999451,0|0,1:0|2:0,2:0:0:0:
356,197,61925,1,10,2:0:0:0:
356,197,62070,1,2,2:0:0:0:
162,309,62216,5,2,1:0:0:0:
162,309,62362,2,0,L|155:230,1,78.7865585999451,2|8,2:0|2:0,2:0:0:0:
38,89,62653,2,0,L|31:168,1,78.7865585999451,2|0,2:0|1:0,2:0:0:0:
153,297,62944,2,0,L|146:218,1,78.7865585999451,2|8,1:0|2:0,2:0:0:0:
108,27,63235,6,0,B|122:40|142:60|142:60|203:49|271:39,1,157.57311719989,6|2,1:0|1:0,2:0:0:0:
329,208,63672,2,0,P|294:198|245:194,1,78.7865585999451,10|0,2:0|2:0,2:0:0:0:
404,126,63963,1,0,1:0:0:0:
404,126,64109,1,2,1:0:0:0:
335,319,64255,1,8,2:0:0:0:
209,128,64400,6,0,P|167:140|144:259,1,157.57311719989,6|8,1:0|2:0,2:0:0:0:
301,127,64837,1,8,2:0:0:0:
243,262,64983,1,0,1:0:0:0:
243,262,65056,1,0,1:0:0:0:
243,262,65129,1,10,2:0:0:0:
109,129,65274,2,0,P|72:122|30:118,1,78.7865585999451,2|8,1:0|2:0,2:0:0:0:
80,323,65565,6,0,P|165:306|241:294,1,157.57311719989,6|0,1:0|1:0,2:0:0:0:
404,376,66002,2,0,P|381:346|366:285,1,78.7865585999451,8|0,2:0|2:0,2:0:0:0:
460,132,66294,2,0,P|447:169|423:200,1,78.7865585999451,2|0,1:0|2:0,2:0:0:0:
252,109,66585,2,0,P|301:101|346:88,1,78.7865585999451,8|0,2:0|2:0,2:0:0:0:
225,272,66876,6,0,P|148:252|71:240,1,157.57311719989,2|8,1:0|2:0,2:0:0:0:
247,142,67313,1,0,2:0:0:0:
351,321,67459,2,0,P|394:310|440:302,1,78.7865585999451,2|0,1:0|2:0,2:0:0:0:
264,174,67750,1,8,2:0:0:0:
450,70,67896,6,0,L|433:165,1,78.7865585999451,2|0,2:0|1:0,2:0:0:0:
311,250,68187,1,2,2:0:0:0:
193,81,68332,2,0,B|179:63|166:50|166:50|110:62|48:72,1,157.57311719989,10|0,2:0|1:0,2:0:0:0:
3,212,68769,1,0,2:0:0:0:
196,165,68915,2,0,P|155:159|93:154,1,78.7865585999451,10|0,2:0|2:0,2:0:0:0:
280,240,69206,6,0,P|305:197|306:137,1,78.7865585999451,2|0,1:0|2:0,2:0:0:0:
143,262,69497,2,0,P|151:300|172:333,1,78.7865585999451,10|0,2:0|2:0,2:0:0:0:
299,242,69789,2,0,P|324:199|325:139,1,78.7865585999451,2|0,1:0|2:0,2:0:0:0:
162,258,70080,1,10,2:0:0:0:
331,342,70226,5,0,1:0:0:0:
331,342,70298,1,0,1:0:0:0:
331,342,70371,2,0,P|376:340|413:305,1,78.7865585999451,2|0,1:0|2:0,2:0:0:0:
262,181,70663,1,10,2:0:0:0:
308,321,70808,2,0,P|303:242|278:168,1,157.57311719989,2|0,2:0|2:0,2:0:0:0:
109,82,71245,2,0,P|136:106|185:113,1,78.7865585999451,10|0,2:0|2:0,2:0:0:0:
346,20,71536,5,2,1:0:0:0:
346,20,71682,2,0,P|307:26|288:134,1,157.57311719989,2|0,2:0|2:0,2:0:0:0:
432,193,72119,2,0,P|398:171|348:175,1,78.7865585999451,2|0,1:0|2:0,2:0:0:0:
237,307,72410,2,0,P|275:305|308:284,1,78.7865585999451,10|0,2:0|2:0,2:0:0:0:
127,224,72701,5,2,1:0:0:0:
127,224,72847,1,0,1:0:0:0:
263,94,72993,2,0,L|250:191,1,78.7865585999451,12|0,2:0|2:0,2:0:0:0:
364,311,73284,1,2,1:0:0:0:
364,311,73430,1,0,1:0:0:0:
228,181,73575,2,0,L|241:278,1,78.7865585999451,12|0,2:0|2:0,2:0:0:0:
329,112,73866,6,0,P|364:90|410:88,1,78.7865585999451,2|0,1:0|1:0,2:0:0:0:
228,181,74158,2,0,P|193:159|147:157,1,78.7865585999451,8|0,2:0|1:0,2:0:0:0:
74,237,74449,1,0,1:0:0:0:
0,98,74595,1,0,1:0:0:0:
0,98,74667,1,0,1:0:0:0:
0,98,74740,2,0,P|35:76|81:74,1,78.7865585999451,8|0,2:0|1:0,2:0:0:0:
50,265,75031,6,0,L|62:179,1,78.7865585999451,14|0,2:0|1:0,2:0:0:0:
180,323,75323,1,0,1:0:0:0:
234,144,75468,2,0,L|156:154,1,78.7865585999451,12|0,2:0|1:0,2:0:0:0:
285,246,75760,1,0,1:0:0:0:
364,66,75905,2,0,L|286:55,1,78.7865585999451,12|0,2:0|1:0,2:0:0:0:
394,204,76197,5,0,1:0:0:0:
488,28,76342,2,0,L|477:117,1,78.7865585999451,14|0,2:0|1:0,2:0:0:0:
308,194,76633,1,0,1:0:0:0:
491,294,76779,2,0,L|480:205,1,78.7865585999451,14|0,2:0|1:0,2:0:0:0:
288,353,77070,2,0,L|299:264,1,78.7865585999451,10|0,2:0|1:0,2:0:0:0:
167,154,77362,6,0,P|201:179|257:169,1,78.7865585999451,14|4,2:0|1:3,2:0:0:0:
259,159,77580,1,0,1:0:0:0:
259,159,77653,1,4,1:3:0:0:
110,31,77798,2,0,P|126:98|142:192,1,157.57311719989,10|4,2:0|1:3,2:0:0:0:
46,355,78235,1,10,2:0:0:0:
46,355,79255,6,0,L|89:345,1,39.6632937999726,0|0,3:0|3:0,2:0:0:0:
119,271,79400,1,10,2:0:0:0:
119,271,79692,6,0,L|107:175,1,71.4233326862069,6|0,1:0|2:0,2:0:0:0:
254,126,79983,2,0,L|245:196,1,71.4233326862069,10|0,2:0|2:0,2:0:0:0:
181,49,80274,1,2,1:0:0:0:
181,49,80420,2,0,P|237:21|301:60,1,142.846665372414,2|2,2:0|2:0,2:0:0:0:
367,231,80857,6,0,P|410:230|439:185,1,71.4233326862069,0|2,1:0|2:0,2:0:0:0:
378,68,81148,2,0,P|335:69|305:113,1,71.4233326862069,10|0,2:0|2:0,2:0:0:0:
282,261,81439,1,2,1:0:0:0:
282,261,81585,2,0,P|219:288|162:250,1,142.846665372414,0|0,2:0|2:0,2:0:0:0:
92,79,82022,6,0,P|56:73|8:68,1,71.4233326862069,2|0,1:0|2:0,2:0:0:0:
181,160,82313,2,0,P|217:154|265:149,1,71.4233326862069,10|0,2:0|2:0,2:0:0:0:
122,278,82604,1,2,1:0:0:0:
122,278,82750,2,0,P|58:264|-22:254,1,142.846665372414,2|2,2:0|2:0,2:0:0:0:
146,366,83187,6,0,P|134:325|130:284,1,71.4233326862069,0|2,1:0|2:0,2:0:0:0:
282,216,83478,2,0,P|270:257|266:298,1,71.4233326862069,10|0,2:0|2:0,2:0:0:0:
156,158,83769,1,2,1:0:0:0:
156,158,83915,1,2,2:0:0:0:
337,78,84061,2,0,L|379:73,3,35.79325950977,8|8|8|8,2:0|2:0|2:0|2:0,2:0:0:0:
396,92,84352,6,0,P|334:100|253:109,1,142.846665372414,6|10,1:0|2:0,2:0:0:0:
116,21,84789,1,0,2:0:0:0:
116,21,84934,2,0,P|134:53|141:95,1,71.4233326862069,2|2,1:0|2:0,2:0:0:0:
0,162,85226,2,0,P|7:127|24:96,1,71.4233326862069,8|2,2:0|2:0,2:0:0:0:
107,227,85517,6,0,P|152:237|198:208,1,71.4233326862069,0|2,1:0|2:0,2:0:0:0:
248,81,85808,2,0,P|282:72|315:83,1,71.4233326862069,10|0,2:0|2:0,2:0:0:0:
385,241,86099,1,2,1:0:0:0:
385,241,86245,2,0,P|449:238|467:147,1,142.846665372414,0|0,2:0|2:0,2:0:0:0:
248,81,86682,6,0,L|263:182,1,71.4233326862069,14|0,2:0|2:0,2:0:0:0:
147,295,86973,2,0,L|96:287,3,35.79325950977,0|0|0|0,3:0|3:0|3:0|3:0,3:0:0:0:
61,229,87264,5,10,2:0:0:0:
226,369,87410,1,10,2:0:0:0:
226,369,87701,5,10,2:0:0:0:
226,369,87993,5,8,2:0:0:0:
293,201,88138,1,8,2:0:0:0:
340,282,88284,1,4,1:3:0:0:
340,282,88357,1,4,1:3:0:0:
340,282,88430,2,0,L|423:268,1,71.4233326862069,8|8,2:0|2:0,2:0:0:0:
459,162,88721,1,8,2:0:0:0:
459,162,88866,1,8,2:0:0:0:
301,62,89012,6,0,P|296:118|291:188,1,113.393739754715,4|2,1:0|1:0,2:0:0:0:
194,247,89449,1,0,2:0:0:0:
123,122,89595,1,2,1:0:0:0:
123,122,89740,2,0,P|155:125|179:128,1,56.6968698773575,2|0,2:0|1:0,2:0:0:0:
108,257,90031,6,0,P|136:252|164:250,2,56.6968698773575,10|0|8,2:0|2:0|3:0,2:0:0:0:
4,167,90468,2,0,P|8:134|14:101,1,56.6968698773575,2|0,1:0|2:0,2:0:0:0:
111,31,90760,2,0,P|115:59|119:86,1,56.6968698773575,2|0,1:0|2:0,2:0:0:0:
198,178,91051,1,2,1:0:0:0:
304,49,91197,6,0,P|269:44|229:40,1,56.6968698773575,10|0,2:0|1:0,2:0:0:0:
320,171,91488,1,2,2:0:0:0:
320,171,91633,2,0,P|353:166|395:162,1,56.6968698773575,2|0,1:0|2:0,2:0:0:0:
441,45,91925,2,0,P|435:74|432:108,1,56.6968698773575,0|0,1:0|2:0,2:0:0:0:
492,216,92216,2,0,P|497:245|501:279,1,56.6968698773575,2|8,1:0|2:0,2:0:0:0:
322,280,92507,6,0,P|386:280|403:334,2,113.199430254715,2|0|2,1:0|1:0|1:0,2:0:0:0:
228,373,93235,1,0,2:0:0:0:
128,230,93381,2,0,P|158:223|193:219,1,56.6968698773575,8|0,2:0|3:0,2:0:0:0:
45,304,93672,6,0,P|25:259|58:184,1,113.393739754715,6|0,1:0|1:0,2:0:0:0:
145,107,94109,1,0,2:0:0:0:
145,107,94255,2,0,P|90:97|29:91,1,113.393739754715,0|0,1:0|1:0,2:0:0:0:
232,33,94692,5,8,2:0:0:0:
232,33,94837,2,0,P|225:60|222:88,1,56.6968698773575,0|0,1:0|2:0,2:0:0:0:
319,175,95129,2,0,P|351:164|388:157,1,56.6968698773575,2|0,1:0|2:0,2:0:0:0:
412,310,95420,2,0,P|379:299|343:292,1,56.6968698773575,2|0,1:0|1:0,2:0:0:0:
480,170,95711,2,0,P|486:197|495:224,1,56.6968698773575,14|0,2:0|2:0,2:0:0:0:
319,175,96002,5,6,1:0:0:0:
409,71,96148,2,0,P|403:98|394:125,1,56.6968698773575,0|8,1:0|2:0,2:0:0:0:
239,33,96439,2,0,P|271:23|306:20,1,56.6968698773575,2|0,1:0|2:0,2:0:0:0:
199,139,96730,1,0,1:0:0:0:
94,3,96876,2,0,P|121:7|149:15,1,56.6968698773575,10|0,2:0|1:0,2:0:0:0:
28,141,97167,6,0,P|26:123|23:107,3,28.4132047720122,10|8|8|8,2:0|3:0|3:0|3:0,2:0:0:0:
108,80,97459,2,0,P|105:93|104:108,3,28.4132047720122,0|0|8|8,1:0|1:0|2:0|3:0,2:0:0:0:
187,168,97750,2,0,L|182:99,1,56.6968698773575,10|0,3:0|1:0,2:0:0:0:
313,15,98041,2,0,L|308:71,1,56.6968698773575,8|0,2:0|1:0,2:0:0:0:
205,245,98332,6,0,P|173:248|137:221,1,64.0601015366478,12|0,2:0|1:0,2:0:0:0:
269,148,98624,1,2,1:0:0:0:
140,32,98769,2,0,P|108:28|72:55,1,64.0601015366478,12|2,2:0|1:0,2:0:0:0:
203,93,99061,1,2,1:0:0:0:
19,174,99206,2,0,L|31:103,1,64.0601015366478,12|2,2:0|1:0,2:0:0:0:
131,206,99497,5,0,1:0:0:0:
10,321,99643,2,0,L|-2:250,1,64.0601015366478,12|2,2:0|1:0,2:0:0:0:
107,158,99934,1,0,1:0:0:0:
228,273,100080,2,0,L|240:202,1,64.0601015366478,14|2,2:0|1:0,2:0:0:0:
368,63,100371,1,8,2:0:0:0:
325,236,100517,1,2,1:0:0:0:
244,51,100663,6,0,P|216:35|185:39,1,64.0601015366478,12|0,2:0|1:0,2:0:0:0:
282,152,100954,1,2,1:0:0:0:
414,24,101099,2,0,P|382:19|355:35,1,64.0601015366478,12|2,2:0|1:0,2:0:0:0:
282,152,101391,1,2,1:0:0:0:
469,104,101536,2,0,L|457:166,1,64.0601015366478,12|2,2:0|1:0,2:0:0:0:
349,292,101828,5,0,1:0:0:0:
372,120,101973,2,0,L|383:182,1,64.0601015366478,12|8,2:0|2:0,2:0:0:0:
226,301,102264,1,0,1:0:0:0:
226,301,102337,1,0,1:0:0:0:
226,301,102410,2,0,L|234:250,3,32.1032322683239,10|0|0|0,1:3|1:0|1:0|1:0,2:0:0:0:
159,231,102701,2,0,L|151:180,3,32.1032322683239,14|0|0|0,1:3|1:0|1:0|1:0,2:0:0:0:
201,127,102993,6,0,L|281:112,1,64.0601015366478,14|2,2:0|1:0,2:0:0:0:
133,69,103284,1,2,1:0:0:0:
275,206,103430,2,0,L|337:217,1,64.0601015366478,12|2,2:0|1:0,2:0:0:0:
440,164,103721,1,0,1:0:0:0:
298,301,103866,2,0,L|235:312,1,64.0601015366478,14|2,2:0|1:0,2:0:0:0:
110,189,104158,5,2,1:0:0:0:
34,344,104303,2,0,P|28:302|19:261,1,64.0601015366478,12|0,2:0|1:0,2:0:0:0:
129,167,104595,1,0,1:0:0:0:
205,322,104740,2,0,P|210:280|219:239,1,64.0601015366478,12|2,2:0|1:0,2:0:0:0:
322,98,105031,1,10,2:0:0:0:
158,157,105177,1,2,1:0:0:0:
308,279,105323,6,0,P|337:271|370:265,1,64.0601015366478,14|2,2:0|1:0,2:0:0:0:
385,284,105541,1,0,1:0:0:0:
385,284,105614,1,8,2:0:0:0:
508,140,105760,2,0,L|494:228,1,64.0601015366478,6|0,1:0|2:0,2:0:0:0:
344,67,106051,2,0,L|358:155,1,64.0601015366478,2|0,1:0|2:0,2:0:0:0:
197,4,106342,5,6,1:0:0:0:
117,239,106633,1,8,2:0:0:0:
117,239,106706,1,0,1:0:0:0:
117,239,106779,2,0,P|96:206|92:165,1,64.0601015366478,2|0,1:0|1:0,2:0:0:0:
219,106,107070,6,0,P|212:134|195:158,2,42.7067343577652,10|8|8,2:0|2:3|2:3,2:0:0:0:
106,51,107362,2,0,P|112:79|129:103,2,42.7067343577652,10|12|12,2:0|2:3|2:3,2:0:0:0:
197,4,107653,6,0,L|270:15,2,64.0601015366478,4|0|0,1:0|1:0|1:0,2:0:0:0:
290,110,108090,1,2,1:0:0:0:
290,110,108235,2,0,L|377:98,1,64.0601015366478,0|0,2:0|1:0,2:0:0:0:
471,174,108527,1,2,1:0:0:0:
217,234,108818,5,8,2:0:0:0:
217,234,108963,2,0,P|194:213|143:209,2,64.0601015366478,2|2|0,2:0|2:0|2:0,2:0:0:0:
91,306,109400,1,2,3:0:0:0:
148,64,109692,1,2,2:0:0:0:
70,144,109837,5,0,1:0:0:0:
70,144,109910,1,0,1:0:0:0:
70,144,109983,2,0,L|-2:135,2,64.0601015366478,6|0|0,1:0|1:0|1:0,2:0:0:0:
150,229,110420,2,0,L|288:212,1,128.120203073296,2|0,1:0|1:0,2:0:0:0:
373,104,110857,1,2,1:0:0:0:
339,346,111148,5,8,2:0:0:0:
357,217,111294,1,2,2:0:0:0:
263,280,111439,1,2,1:0:0:0:
263,280,111512,1,0,1:0:0:0:
263,280,111585,1,0,1:0:0:0:
294,122,111730,2,0,L|357:115,2,64.0601015366478,10|0|2,2:0|1:0|2:0,2:0:0:0:
175,191,112167,1,8,2:0:0:0:
77,35,112313,6,0,L|6:31,2,64.0601015366478,4|0|0,1:0|1:0|1:0,2:0:0:0:
55,260,112896,1,8,2:0:0:0:
137,158,113041,1,0,1:0:0:0:
137,158,113187,2,0,L|128:77,1,64.0601015366478,2|0,2:0|1:0,2:0:0:0:
282,204,113624,2,0,P|250:207|219:215,1,64.0601015366478,0|2,1:0|1:0,2:0:0:0:
316,125,113915,1,0,2:0:0:0:
242,305,114061,2,0,P|210:297|179:293,1,64.0601015366478,10|0,2:0|1:0,2:0:0:0:
41,235,114352,2,0,P|72:231|103:223,1,64.0601015366478,2|0,2:0|1:0,2:0:0:0:
195,103,114643,5,4,1:0:0:0:
195,103,114789,2,0,P|171:126|159:184,1,64.0601015366478,0|0,1:0|1:0,2:0:0:0:
283,197,115080,1,2,2:0:0:0:
217,19,115226,2,0,P|183:17|133:47,1,64.0601015366478,8|0,2:0|1:0,2:0:0:0:
91,173,115517,1,2,2:0:0:0:
19,35,115663,2,0,L|31:112,1,64.0601015366478,0|0,1:0|2:0,2:0:0:0:
147,238,115954,2,0,L|135:315,1,64.0601015366478,2|0,1:0|1:0,2:0:0:0:
286,165,116391,5,10,2:0:0:0:
286,165,116536,1,8,3:0:0:0:
353,311,116682,2,0,L|431:322,2,64.0601015366478,10|8|2,3:0|3:0|2:0,2:0:0:0:
420,88,120177,5,0,3:0:0:0:
381,185,120323,1,0,1:0:0:0:
381,185,120396,1,0,1:0:0:0:
381,185,120468,2,0,P|365:186|349:181,3,28.4132047720122,2|0|0|0,1:2|1:2|1:2|1:2,1:2:0:0:
301,238,120760,2,0,P|289:226|282:211,3,28.4132047720122,2|0|0|0,1:2|1:2|1:2|1:2,1:2:0:0:
204,218,121051,2,0,P|204:201|210:186,3,28.4132047720122,2|0|0|0,1:2|1:2|1:2|1:2,1:2:0:0:
149,135,121342,2,0,P|160:124|176:117,3,28.4132047720122,2|0|0|0,1:2|1:2|1:2|1:2,1:2:0:0:
255,123,121633,5,6,1:0:0:0:
381,185,121779,1,0,2:0:0:0:
209,301,121925,2,0,L|123:284,1,64.0601015366478,0|0,1:0|2:0,2:0:0:0:
56,150,122216,2,0,L|142:133,1,64.0601015366478,2|0,1:0|2:0,2:0:0:0:
9,238,122507,1,8,2:3:0:0:
9,238,122653,1,0,2:0:0:0:
94,62,122798,6,0,L|231:83,2,127.900658573296,2|0|2,1:0|1:0|1:0,2:0:0:0:
153,188,123527,1,0,2:0:0:0:
270,11,123672,2,0,L|319:4,3,32.1032322683239,0|0|0|0,1:0|1:0|1:0|1:0,2:0:0:0:
373,41,123963,6,0,L|384:165,1,96.3096968049717,6|0,1:0|3:0,2:0:0:0:
340,162,124255,2,0,L|337:119,3,32.1032322683239,8|8|0|0,2:0|2:0|1:0|1:0,2:0:0:0:
317,118,124546,1,0,1:0:0:0:
258,206,124692,1,2,1:0:0:0:
258,206,124764,1,0,1:0:0:0:
258,206,124837,1,10,2:0:0:0:
170,53,124983,1,10,2:0:0:0:
98,221,125129,6,0,L|28:212,1,64.0601015366478,6|8,1:0|2:0,2:0:0:0:
205,342,125420,2,0,L|141:350,1,64.0601015366478,10|0,2:0|1:0,2:0:0:0:
120,330,125638,1,0,1:0:0:0:
120,330,125711,1,10,2:0:0:0:
222,217,125857,1,0,1:0:0:0:
355,361,126002,2,0,L|291:352,1,64.0601015366478,10|0,3:0|1:0,2:0:0:0:
492,219,126294,6,0,L|338:234,1,142.846665372414,14|0,2:0|1:0,2:0:0:0:
329,212,126658,1,0,1:0:0:0:
329,212,126730,2,0,L|403:204,1,71.4233326862069,14|0,2:0|2:0,2:0:0:0:
231,132,127022,5,0,1:0:0:0:
231,132,127095,1,0,1:0:0:0:
231,132,127167,2,0,L|243:278,1,142.846665372414,14|0,2:0|1:0,2:0:0:0:
222,294,127531,1,0,1:0:0:0:
222,294,127604,2,0,L|214:207,1,71.4233326862069,14|0,2:0|2:0,2:0:0:0:
120,76,127896,1,0,1:0:0:0:
120,76,127968,1,0,1:0:0:0:
120,76,128041,2,0,L|38:68,1,71.4233326862069,14|0,2:0|1:0,2:0:0:0:
126,254,128332,2,0,L|208:246,1,71.4233326862069,14|0,2:0|1:0,2:0:0:0:
303,69,128624,6,0,P|280:99|276:161,1,71.4233326862069,6|0,1:0|2:0,2:0:0:0:
360,298,128915,2,0,P|351:263|329:235,1,71.4233326862069,0|8,1:0|3:0,2:0:0:0:
159,199,129206,1,0,1:0:0:0:
159,199,129352,2,0,P|186:220|221:229,1,71.4233326862069,8|8,3:0|3:0,2:0:0:0:
355,135,129643,5,8,2:0:0:0:
137,38,129934,6,0,L|148:124,1,71.4233326862069,10|0,2:0|1:0,2:0:0:0:
62,195,130226,1,0,1:0:0:0:
231,82,130371,2,0,L|220:168,1,71.4233326862069,10|0,2:0|1:0,2:0:0:0:
310,254,130663,1,8,3:0:0:0:
141,139,130808,2,0,L|152:225,1,71.4233326862069,0|10,1:0|3:0,2:0:0:0:
174,363,131099,5,0,1:0:0:0:
232,209,131245,1,0,1:0:0:0:
338,384,131391,1,8,2:0:0:0:
436,271,131536,6,0,P|411:281|386:281,1,49.6336692112427,2|0,2:0|2:0,2:0:0:0:
335,232,131973,6,0,P|377:262|462:196,1,157.57311719989,6|0,1:0|1:0,2:0:0:0:
405,17,132410,2,0,P|362:17|322:47,1,78.7865585999451,8|0,2:0|2:0,2:0:0:0:
266,186,132701,1,2,1:0:0:0:
266,186,132847,1,4,1:3:0:0:
157,21,132993,2,0,P|200:21|240:51,1,78.7865585999451,8|0,2:0|2:0,2:0:0:0:
41,112,133284,6,0,P|35:63|24:15,1,78.7865585999451,2|8,1:0|1:3,2:0:0:0:
192,122,133575,2,0,P|184:160|180:199,1,78.7865585999451,8|0,2:0|2:0,2:0:0:0:
59,304,133866,1,2,1:0:0:0:
59,304,134012,1,4,1:3:0:0:
109,148,134158,1,8,2:0:0:0:
252,312,134303,6,0,L|331:301,1,78.7865585999451,6|0,1:0|2:0,2:0:0:0:
191,231,134595,1,10,1:3:0:0:
353,122,134740,2,0,L|333:278,1,157.57311719989,10|0,2:0|1:0,2:0:0:0:
217,151,135177,1,0,1:0:0:0:
340,23,135323,2,0,P|387:21|419:53,1,78.7865585999451,10|2,2:0|2:0,2:0:0:0:
373,190,135614,5,2,1:0:0:0:
373,190,135760,1,2,1:0:0:0:
234,43,135905,2,0,P|187:41|155:73,1,78.7865585999451,10|2,2:0|2:0,2:0:0:0:
290,205,136197,1,2,1:0:0:0:
290,205,136342,1,0,1:0:0:0:
234,43,136488,1,10,2:0:0:0:
153,253,136633,6,0,P|107:274|38:205,1,157.57311719989,6|10,1:0|1:3,2:0:0:0:
93,33,137070,2,0,P|139:33|173:71,1,78.7865585999451,10|0,2:0|2:0,2:0:0:0:
247,205,137362,2,0,P|285:207|317:185,1,78.7865585999451,0|0,1:0|1:0,2:0:0:0:
170,87,137653,1,10,2:0:0:0:
170,87,137798,1,2,2:0:0:0:
348,12,137944,5,2,1:0:0:0:
348,12,138090,2,0,L|335:99,1,78.7865585999451,2|10,1:0|2:0,2:0:0:0:
424,182,138381,1,2,2:0:0:0:
424,182,138527,1,2,1:0:0:0:
256,83,138672,2,0,L|269:170,1,78.7865585999451,2|8,1:0|2:0,2:0:0:0:
127,206,138963,6,0,P|162:164|254:200,1,157.57311719989,6|10,1:0|1:3,2:0:0:0:
88,334,139400,2,0,L|0:321,1,78.7865585999451,10|0,2:0|1:0,2:0:0:0:
127,206,139692,1,8,2:0:0:0:
127,206,139837,1,2,1:0:0:0:
192,356,139983,1,8,2:0:0:0:
264,181,140129,6,0,P|330:147|386:196,1,157.57311719989,6|8,1:0|2:0,2:0:0:0:
233,271,140565,1,8,2:0:0:0:
184,111,140711,1,0,1:0:0:0:
184,111,140784,1,0,1:0:0:0:
184,111,140857,2,0,L|96:99,1,78.7865585999451,10|2,2:0|1:0,2:0:0:0:
84,122,141075,1,0,1:0:0:0:
84,122,141148,1,8,2:0:0:0:
259,14,141294,6,0,L|269:182,1,157.57311719989,6|8,1:0|1:3,2:0:0:0:
413,253,141730,2,0,P|389:229|338:216,1,78.7865585999451,8|0,2:0|2:0,2:0:0:0:
231,339,142022,1,2,1:0:0:0:
231,339,142167,1,4,1:3:0:0:
268,171,142313,2,0,P|230:181|202:208,1,78.7865585999451,8|0,2:0|2:0,2:0:0:0:
105,350,142604,6,0,L|116:251,1,78.7865585999451,2|8,1:0|1:3,2:0:0:0:
24,113,142896,2,0,L|32:191,1,78.7865585999451,8|0,2:0|2:0,2:0:0:0:
176,59,143187,1,2,1:0:0:0:
176,59,143332,1,4,1:3:0:0:
120,241,143478,1,8,2:0:0:0:
90,49,143624,6,0,P|64:26|2:34,1,78.7865585999451,6|0,1:0|2:0,2:0:0:0:
146,156,143915,1,10,1:3:0:0:
282,14,144061,2,0,B|374:37|313:84|404:113,1,157.57311719989,10|0,2:0|1:0,2:0:0:0:
254,109,144497,1,0,1:0:0:0:
484,88,144643,2,0,P|475:128|465:189,1,78.7865585999451,10|0,2:0|2:0,2:0:0:0:
379,302,144934,6,0,P|342:290|291:280,1,78.7865585999451,6|0,1:0|1:0,2:0:0:0:
173,158,145226,2,0,P|211:149|248:137,1,78.7865585999451,10|0,2:0|2:0,2:0:0:0:
84,297,145517,2,0,P|96:259|104:221,1,78.7865585999451,2|0,1:0|1:0,2:0:0:0:
40,83,145808,1,10,2:0:0:0:
40,83,145881,1,8,2:3:0:0:
40,83,145954,1,4,2:3:0:0:
184,208,146099,6,0,P|229:206|266:171,1,78.7865585999451,6|0,1:0|2:0,2:0:0:0:
369,67,146391,1,10,2:0:0:0:
364,237,146536,2,0,P|371:154|386:62,1,157.57311719989,2|0,2:0|2:0,2:0:0:0:
243,3,146973,2,0,P|198:5|161:40,1,78.7865585999451,10|0,2:0|2:0,2:0:0:0:
110,183,147264,5,2,1:0:0:0:
110,183,147410,2,0,L|88:6,1,157.57311719989,2|0,2:0|2:0,2:0:0:0:
211,178,147847,2,0,P|245:200|295:196,1,78.7865585999451,2|0,1:0|2:0,2:0:0:0:
406,64,148138,2,0,P|368:66|335:87,1,78.7865585999451,10|0,2:0|2:0,2:0:0:0:
410,230,148430,5,2,1:0:0:0:
410,230,148575,1,4,1:3:0:0:
494,86,148721,2,0,L|481:183,1,78.7865585999451,8|0,2:0|1:0,2:0:0:0:
331,280,149012,1,2,1:0:0:0:
331,280,149158,1,4,1:3:0:0:
307,104,149303,2,0,L|320:201,1,78.7865585999451,12|0,2:0|1:0,2:0:0:0:
188,309,149595,6,0,P|151:298|103:290,1,78.7865585999451,2|0,1:0|1:0,2:0:0:0:
9,164,149886,2,0,P|47:156|85:146,1,78.7865585999451,8|0,2:0|1:0,2:0:0:0:
93,126,150104,1,0,1:0:0:0:
93,126,150177,1,10,2:0:0:0:
216,34,150323,1,0,1:0:0:0:
216,34,150396,1,0,1:0:0:0:
216,34,150468,2,0,L|206:118,1,78.7865585999451,8|0,2:0|1:0,2:0:0:0:
220,134,150687,5,0,1:0:0:0:
220,134,150760,2,0,P|253:113|301:111,1,78.7865585999451,14|0,2:0|1:0,2:0:0:0:
216,218,151051,1,0,1:0:0:0:
362,79,151197,2,0,P|383:112|385:160,1,78.7865585999451,12|0,2:0|1:0,2:0:0:0:
291,109,151488,1,0,1:0:0:0:
459,219,151633,2,0,P|431:246|385:259,1,78.7865585999451,12|0,2:0|1:0,2:0:0:0:
291,109,151925,5,0,1:0:0:0:
174,253,152070,2,0,L|92:238,1,78.7865585999451,14|0,2:0|1:0,2:0:0:0:
232,179,152362,1,0,1:0:0:0:
333,315,152507,2,0,L|415:300,1,78.7865585999451,14|0,2:0|1:0,2:0:0:0:
230,366,152798,2,0,L|148:351,1,78.7865585999451,10|0,2:0|1:0,2:0:0:0:
46,217,153090,6,0,P|36:263|30:312,1,78.7865585999451,14|8,2:0|3:0,2:0:0:0:
49,312,153308,1,0,2:0:0:0:
49,312,153381,1,0,1:0:0:0:
143,162,153527,2,0,P|89:117|9:152,1,157.57311719989,10|2,2:0|1:0,2:0:0:0:
9,169,153891,1,0,2:0:0:0:
9,169,153963,2,0,P|49:133|75:128,1,78.7865585999451,10|0,2:0|3:0,2:0:0:0:
272,99,155129,5,8,3:0:0:0:
272,99,155420,6,0,B|146:61|193:197|51:151,1,226.39886050943,6|0,1:0|1:0,2:0:0:0:
69,156,156294,5,8,2:0:0:0:
94,278,156439,1,8,2:0:0:0:
69,156,156585,1,8,2:0:0:0:
94,278,156730,1,8,2:0:0:0:
207,85,157167,5,8,2:0:0:0:
423,315,157750,6,0,B|297:353|344:217|202:262,1,226.39886050943,6|0,1:0|1:0,2:0:0:0:
220,257,158624,5,8,2:0:0:0:
245,135,158769,1,8,2:0:0:0:
220,257,158915,1,8,2:0:0:0:
245,135,159061,1,8,2:0:0:0:
358,328,159497,6,0,L|481:312,1,113.393739754715,8|0,2:0|3:0,2:0:0:0:
86,48,160080,6,0,B|142:34|180:106|180:106|247:60|292:100,1,226.39886050943,6|0,1:0|1:0,2:0:0:0:
278,90,160954,5,8,2:0:0:0:
400,115,161099,1,8,2:0:0:0:
278,90,161245,1,8,2:0:0:0:
400,115,161391,1,8,2:0:0:0:
95,135,161828,5,8,2:0:0:0:
265,356,162410,6,0,B|321:370|359:298|359:298|426:344|471:304,1,226.39886050943,6|0,1:0|1:0,2:0:0:0:
457,313,163284,5,8,2:0:0:0:
510,200,163430,1,8,2:0:0:0:
457,313,163575,5,8,2:0:0:0:
510,200,163721,2,0,L|502:128,2,56.6968698773575,0|0|8,3:0|3:0|3:0,2:0:0:0:
394,101,164158,2,0,L|387:157,2,56.6968698773575,0|0|8,1:0|3:0|3:0,2:0:0:0:
290,59,164595,5,0,3:0:0:0:
206,230,164740,2,0,P|100:233|116:104,1,255.801317146591,6|0,1:0|1:0,2:0:0:0:
104,111,165614,5,8,2:0:0:0:
254,54,165760,1,8,2:0:0:0:
104,111,165905,5,8,2:0:0:0:
254,54,166051,2,0,L|244:132,1,64.0601015366478,2|0,2:0|2:0,2:0:0:0:
349,216,166342,1,0,2:0:0:0:
349,216,166488,2,0,L|340:152,1,64.0601015366478,10|0,3:0|2:0,2:0:0:0:
225,292,166779,1,2,2:0:0:0:
225,292,167070,6,0,B|49:266|49:266|105:266|136:233,1,255.801317146591,6|0,1:0|1:0,2:0:0:0:
124,246,167944,5,8,2:0:0:0:
67,96,168090,1,8,2:0:0:0:
124,246,168235,5,8,2:0:0:0:
67,96,168381,2,0,L|145:106,1,64.0601015366478,10|0,2:0|2:0,2:0:0:0:
229,1,168672,1,0,2:0:0:0:
229,1,168818,2,0,L|165:10,1,64.0601015366478,10|0,3:0|2:0,2:0:0:0:
284,111,169109,1,2,2:0:0:0:
284,111,169400,6,0,B|317:94|339:57|339:57|425:94|523:100,1,255.801317146591,6|0,1:0|1:0,2:0:0:0:
510,99,170274,5,8,2:0:0:0:
449,252,170420,1,8,2:0:0:0:
510,99,170565,5,8,2:0:0:0:
449,252,170711,2,0,L|368:261,1,64.0601015366478,10|0,2:0|2:0,2:0:0:0:
282,337,171002,1,0,2:0:0:0:
282,337,171148,2,0,L|218:329,1,64.0601015366478,10|0,2:0|2:0,2:0:0:0:
60,308,171439,1,0,3:0:0:0:
60,308,171730,6,0,B|54:222|17:136|17:136|54:114|71:81,1,255.801317146591,6|0,1:0|1:0,2:0:0:0:
271,31,172604,2,0,P|239:86|225:171,1,128.120203073296,10|0,3:0|1:0,2:0:0:0:
451,217,173090,6,0,P|417:188|356:188,1,85.4134687155304,8|8,3:0|3:0,2:0:0:0:
311,324,173478,6,0,P|352:317|384:289,1,85.4134687155304,0|8,1:0|3:0,2:0:0:0:
324,180,173866,5,8,3:0:0:0:
184,297,174061,6,0,B|161:360|72:371|72:371|370:334|162:118|430:85|430:85|340:96|322:189,1,793.866169379883,6|0,1:0|2:0,2:0:0:0:
48,49,181633,6,0,L|54:101,1,49.9841653050537,2|2,2:0|2:0,2:0:0:0:
90,77,191536,6,0,P|131:45|126:106,1,138.191512891541,2|0,2:0|2:0,2:0:0:0:
234,292,192701,2,0,P|275:323|270:262,1,138.191512891541,2|0,2:0|2:0,2:0:0:0:
71,160,193721,2,0,L|82:237,1,69.2143609457703,2|0,2:0|2:0,2:0:0:0:
80,228,194158,1,2,2:0:0:0:
247,75,194449,5,0,2:0:0:0:
247,75,194740,2,0,L|238:152,2,69.0957564457703,2|0|0,2:0|2:0|2:0,2:0:0:0:
401,64,195614,2,0,L|410:141,1,69.2143609457703,2|0,2:0|2:0,2:0:0:0:
334,256,196197,2,0,P|309:235|261:235,1,69.2143609457703,2|0,2:0|2:0,2:0:0:0:
273,231,196633,1,2,2:0:0:0:
62,313,197070,1,2,2:0:0:0:
18,167,197362,5,2,2:0:0:0:
18,167,197507,2,0,P|53:154|90:165,1,69.2143609457703,2|0,2:0|2:0,2:0:0:0:
83,160,197944,1,2,2:0:0:0:
227,275,198235,1,2,2:0:0:0:
265,89,198527,6,0,P|301:83|343:81,1,69.2143609457703,2|0,2:0|2:0,2:0:0:0:
389,255,199109,2,0,P|353:249|311:247,1,69.2143609457703,2|0,2:0|2:0,2:0:0:0:
431,135,199692,1,2,2:0:0:0:
244,324,200274,1,2,2:0:0:0:
143,71,200857,5,2,2:0:0:0:
143,71,202167,6,0,L|133:146,1,69.2143609457703,2|0,2:0|2:0,2:0:0:0:
133,139,202604,1,2,2:0:0:0:
251,251,202896,6,0,L|241:182,1,69.2143609457703,2|2,2:0|2:0,2:0:0:0:
374,61,203624,1,2,2:0:0:0:
317,246,204061,1,2,2:0:0:0:
192,150,206099,6,0,L|300:160,1,103.821541418655,2|0,2:0|2:0,2:0:0:0:
373,79,206682,2,0,P|313:106|297:175,1,125.911231465759,2|0,2:0|2:0,2:0:0:0:
369,188,207264,6,0,P|380:202|386:231,1,39.7614429689942,2|0,2:0|2:0,2:0:0:0:
412,309,207701,6,0,B|296:380|217:275|217:275|167:204|238:155|287:225|217:275|217:275|77:360|3:230,1,649.53448607309,6|0,1:0|2:0,2:0:0:0:
11,244,210031,1,10,2:0:0:0:
263,17,210323,5,6,1:3:0:0:
224,229,210468,1,6,1:3:0:0:
217,34,211925,5,8,3:0:0:0:
217,34,212362,6,0,B|199:43|179:54|179:54|171:106|157:169,1,157.57311719989,6|0,1:0|1:0,2:0:0:0:
17,265,212798,2,0,L|5:187,1,78.7865585999451,10|0,2:0|2:0,2:0:0:0:
152,313,213090,2,0,L|230:300,1,78.7865585999451,0|0,1:0|2:0,2:0:0:0:
119,166,213381,1,10,2:0:0:0:
119,166,213527,1,2,2:0:0:0:
316,282,213672,5,2,1:0:0:0:
316,282,213818,2,0,L|323:203,1,78.7865585999451,2|8,2:0|2:0,2:0:0:0:
436,74,214109,2,0,L|443:153,1,78.7865585999451,2|0,2:0|1:0,2:0:0:0:
332,291,214400,2,0,L|339:212,1,78.7865585999451,2|8,1:0|2:0,2:0:0:0:
351,10,214692,6,0,B|274:33|326:80|213:98,1,157.57311719989,6|2,1:0|1:0,2:0:0:0:
47,34,215129,2,0,P|82:24|131:20,1,78.7865585999451,10|0,2:0|1:0,2:0:0:0:
241,173,215420,1,8,2:0:0:0:
241,173,215565,1,2,1:0:0:0:
63,142,215711,1,8,2:0:0:0:
262,68,215857,6,0,P|304:80|327:199,1,157.57311719989,6|8,1:0|2:0,2:0:0:0:
207,294,216294,1,8,3:0:0:0:
244,158,216439,1,0,1:0:0:0:
244,158,216512,1,0,1:0:0:0:
244,158,216585,1,10,2:0:0:0:
292,361,216730,1,2,1:0:0:0:
292,361,217022,6,0,L|86:329,1,172.29958265609,6|0,1:0|1:0,2:0:0:0:
2,183,217459,2,0,L|140:165,1,86.1497913280449,8|0,2:0|1:0,2:0:0:0:
276,146,217750,1,10,2:0:0:0:
170,307,217896,1,0,1:0:0:0:
101,87,218041,2,0,L|-37:69,1,86.1497913280449,8|0,2:0|1:0,2:0:0:0:
225,219,218332,6,0,B|330:231|280:127|421:156,1,172.29958265609,14|8,2:0|2:0,2:0:0:0:
228,96,218769,1,0,1:0:0:0:
386,244,218915,2,0,L|371:363,1,86.1497913280449,10|0,2:0|1:0,2:0:0:0:
372,349,219133,1,0,1:0:0:0:
372,349,219206,1,8,2:0:0:0:
221,191,219352,6,0,P|184:161|113:172,1,86.1497913280449,6|0,1:0|2:0,2:0:0:0:
248,301,219643,1,2,1:0:0:0:
373,106,219789,2,0,P|330:111|299:139,1,86.1497913280449,10|0,2:0|1:0,2:0:0:0:
462,272,220080,2,0,L|447:152,1,86.1497913280449,8|0,2:0|1:0,2:0:0:0:
308,39,220371,1,10,2:0:0:0:
484,112,220517,1,0,1:0:0:0:
290,234,220663,6,0,L|179:222,1,86.1497913280449,14|0,2:0|1:0,2:0:0:0:
183,247,220881,1,0,1:0:0:0:
183,247,220954,2,0,L|268:255,1,86.1497913280449,10|0,2:0|1:0,2:0:0:0:
362,131,221245,2,2,L|354:88,3,43.1733121640224,10|0|0|0,2:0|1:0|1:0|1:0,2:0:0:0:
272,61,221536,2,0,L|279:18,3,43.1733121640224,10|8|8|0,2:0|2:0|2:0|2:0,2:0:0:0:
196,117,221828,6,0,P|163:89|107:81,1,86.1497913280449,6|0,1:0|1:0,2:0:0:0:
248,227,222119,1,10,2:0:0:0:
354,88,222264,2,0,P|387:60|443:52,1,86.1497913280449,2|0,1:0|1:0,2:0:0:0:
473,278,222556,1,0,1:0:0:0:
308,152,222701,2,0,P|275:124|219:116,1,86.1497913280449,10|0,2:0|1:0,2:0:0:0:
167,303,222993,5,2,1:0:0:0:
376,209,223138,2,0,L|363:315,1,86.1497913280449,2|8,1:0|2:0,2:0:0:0:
481,155,223430,1,2,1:0:0:0:
272,61,223575,2,0,L|285:167,1,86.1497913280449,2|0,1:0|1:0,2:0:0:0:
167,303,223866,2,0,P|121:303|85:274,1,86.1497913280449,10|0,2:0|2:0,2:0:0:0:
70,63,224158,5,6,1:0:0:0:
148,216,224303,1,8,2:0:0:0:
247,13,224449,2,0,L|344:2,1,86.1497913280449,8|0,2:0|1:0,2:0:0:0:
159,177,224740,2,0,L|62:166,1,86.1497913280449,10|0,2:0|1:0,2:0:0:0:
315,86,225031,1,8,2:0:0:0:
273,267,225177,1,8,2:0:0:0:
177,57,225323,6,0,L|117:67,3,43.1733121640224,14|0|0|0,1:2|1:0|1:0|1:0,2:0:0:0:
85,140,225614,2,0,L|184:153,1,86.1497913280449,8|0,2:0|1:0,2:0:0:0:
186,177,225832,1,0,1:0:0:0:
186,177,225905,2,0,L|240:167,3,43.1733121640224,10|8|8|8,2:0|3:0|3:0|3:0,2:0:0:0:
305,226,226197,2,0,L|333:119,1,86.1497913280449,8|0,2:0|1:0,2:0:0:0:
311,121,226415,5,0,1:0:0:0:
311,121,226488,2,0,P|279:91|224:81,1,86.1497913280449,14|0,2:0|2:0,2:0:0:0:
160,240,226779,1,0,1:0:0:0:
160,240,226852,1,0,1:0:0:0:
160,240,226925,2,0,P|201:228|231:199,1,86.1497913280449,12|0,2:0|2:0,2:0:0:0:
58,123,227216,5,0,1:0:0:0:
58,123,227289,1,0,1:0:0:0:
58,123,227362,2,0,P|74:205|82:300,1,172.29958265609,12|0,2:0|1:0,2:0:0:0:
160,125,227798,2,0,L|340:104,1,172.29958265609,14|0,2:0|1:0,2:0:0:0:
350,120,228163,1,0,1:0:0:0:
352,124,228235,2,0,L|257:135,1,86.1497913280449,14|0,2:0|1:0,2:0:0:0:
414,250,228527,2,0,L|364:246,3,43.1733121640224,10|0|8|0,2:0|1:0|2:0|1:0,2:0:0:0:
294,239,228818,5,6,1:0:0:0:
45,278,229255,5,6,1:0:0:0:
467,106,229692,5,6,1:0:0:0:
37,51,230711,5,0,1:0:0:0:
37,51,230784,1,0,1:0:0:0:
37,51,230857,2,0,L|49:150,1,86.1497913280449,8|0,2:0|2:0,2:0:0:0:
217,271,231148,6,0,L|121:283,1,71.4233326862069,6|0,1:0|2:0,2:0:0:0:
72,136,231439,2,0,L|142:145,1,71.4233326862069,10|0,2:0|2:0,2:0:0:0:
282,163,231730,1,2,1:0:0:0:
282,163,231876,2,0,P|254:107|324:50,1,142.846665372414,2|2,2:0|2:0,2:0:0:0:
471,81,232313,6,0,L|459:165,1,71.4233326862069,0|2,1:0|2:0,2:0:0:0:
419,311,232604,2,0,L|408:240,1,71.4233326862069,10|0,2:0|2:0,2:0:0:0:
259,123,232896,1,2,1:0:0:0:
259,123,233041,2,0,P|252:183|246:278,1,142.846665372414,0|0,2:0|2:0,2:0:0:0:
373,357,233478,6,0,L|464:341,1,71.4233326862069,2|0,1:0|2:0,2:0:0:0:
285,219,233769,2,0,L|355:231,1,71.4233326862069,10|0,2:0|2:0,2:0:0:0:
179,344,234061,1,2,1:0:0:0:
179,344,234206,2,0,P|173:270|162:191,1,142.846665372414,2|2,2:0|2:0,2:0:0:0:
25,56,234643,6,0,P|55:30|112:30,1,71.4233326862069,0|2,1:0|2:0,2:0:0:0:
165,168,234934,2,0,P|130:159|104:135,1,71.4233326862069,10|0,2:0|2:0,2:0:0:0:
248,33,235226,1,2,1:0:0:0:
248,33,235371,1,2,2:0:0:0:
349,184,235517,2,0,L|391:189,3,35.79325950977,8|8|8|8,2:0|2:0|2:0|2:0,2:0:0:0:
408,170,235808,6,0,P|346:162|265:153,1,142.846665372414,6|10,1:0|2:0,2:0:0:0:
173,266,236245,1,0,2:0:0:0:
173,266,236391,2,0,P|202:228|211:177,1,71.4233326862069,2|2,1:0|2:0,2:0:0:0:
343,333,236682,2,0,P|314:295|305:244,1,71.4233326862069,8|2,2:0|2:0,2:0:0:0:
447,127,236973,6,0,P|402:117|356:146,1,71.4233326862069,0|2,1:0|2:0,2:0:0:0:
306,273,237264,2,0,P|272:282|239:271,1,71.4233326862069,10|0,2:0|2:0,2:0:0:0:
169,113,237556,1,2,1:0:0:0:
169,113,237701,2,0,P|105:116|87:207,1,142.846665372414,0|0,2:0|2:0,2:0:0:0:
178,318,238138,6,0,L|163:217,1,71.4233326862069,14|0,2:0|2:0,2:0:0:0:
292,106,238430,2,0,L|286:141,3,35.7932595097701,0|0|0|0,1:0|1:0|1:0|1:0,2:0:0:0:
224,188,238721,5,10,2:0:0:0:
398,59,238866,1,10,2:0:0:0:
398,59,239158,5,14,2:0:0:0:
