osu file format v14

[General]
AudioFilename: audio.mp3
AudioLeadIn: 0
PreviewTime: 207192
Countdown: 0
SampleSet: Soft
StackLeniency: 0.7
Mode: 0
LetterboxInBreaks: 0
WidescreenStoryboard: 1

[Editor]
DistanceSpacing: 0.5
BeatDivisor: 4
GridSize: 32
TimelineZoom: 1.5

[Metadata]
Title:Realize
TitleUnicode:Realize
Artist:Suzuki Konomi
ArtistUnicode:鈴木このみ
Creator:Sotarks
Version:Reform's Expert
Source:Re:ゼロから始める異世界生活
Tags:starting life in chiga サテラ another world zero re:zero rezero kara Hajimeru Isekai Seikatsu from different anime op opening vocalist full version kujinn smokelind 2nd season fox emilia natsuki subaru rem ram theresia van astrea satella テレシ アヴァン アストレア reform white japanese female jpop j-pop
BeatmapID:2587026
BeatmapSetID:1244533

[Difficulty]
HPDrainRate:5.2
CircleSize:3.5
OverallDifficulty:9
ApproachRate:9.3
SliderMultiplier:1.82
SliderTickRate:1

[Events]
//Background and Video events
0,0,"bg.jpg",0,0
//Break Periods
2,42610,45918
2,117173,119170
2,182216,190954
//Storyboard Layer 0 (Background)
//Storyboard Layer 1 (Fail)
//Storyboard Layer 2 (Pass)
//Storyboard Layer 3 (Foreground)
//Storyboard Layer 4 (Overlay)
//Storyboard Sound Samples

[TimingPoints]
3964,291.26213592233,4,2,22,47,1,0
5129,-192.307692307693,4,2,22,77,0,0
9789,-138.888888888889,4,2,22,77,0,0
10080,-138.888888888889,4,2,22,47,0,0
10663,-138.888888888889,4,2,22,57,0,0
11245,-138.888888888889,4,2,22,67,0,0
11828,-138.888888888889,4,2,22,77,0,0
13575,-108.695652173913,4,2,22,57,0,0
14449,-108.695652173913,4,2,22,47,0,0
14740,-192.307692307692,4,2,22,47,0,0
23187,-121.951219512195,4,2,22,77,0,0
23769,-108.695652173913,4,2,22,77,0,0
33090,-121.951219512195,4,2,22,67,0,0
41828,-121.951219512195,4,2,22,57,0,0
42410,-121.951219512195,4,2,22,47,0,0
46488,-238.095238095238,4,2,22,57,0,0
46779,-238.095238095238,4,2,22,67,0,0
47070,-121.951219512195,4,2,22,77,0,0
55808,-454.545454545452,4,2,22,77,0,0
56245,-89.2857142857143,4,2,22,87,0,0
79400,-192.307692307692,4,2,22,87,0,0
79692,-98.0392156862744,4,2,22,77,0,0
87993,-98.0392156862744,4,2,22,47,0,0
89012,-121.951219512195,4,2,22,57,0,0
98332,-98.0392156862744,4,2,22,77,0,0
108818,-138.888888888889,4,2,22,77,0,0
116973,-138.888888888889,4,2,22,47,0,0
120468,-138.888888888889,4,2,22,57,0,0
121633,-121.951219512195,4,2,22,77,0,0
131536,-312.5,4,2,22,57,0,0
131973,-89.2857142857143,4,2,22,87,0,0
155420,-138.888888888889,4,2,22,57,0,0
164740,-138.888888888889,4,2,22,77,0,0
191536,-238.095238095239,4,2,22,27,0,0
203187,-312.500000000002,4,2,22,27,0,0
203551,-312.500000000002,4,2,22,5,0,0
203624,-312.500000000002,4,2,22,27,0,0
203988,-312.500000000002,4,2,22,5,0,0
204061,-454.545454545459,4,2,22,27,0,0
206099,-454.545454545459,4,2,22,37,0,0
206682,-238.095238095239,4,2,22,47,0,0
207264,-138.888888888889,4,2,22,57,0,0
207701,-312.500000000001,4,2,22,77,0,0
210031,-98.0392156862745,4,2,22,77,0,0
211925,-312.5,4,2,22,77,0,0
212362,-89.2857142857143,4,2,22,87,0,0
230857,-192.307692307692,4,2,22,87,0,0
231148,-98.0392156862744,4,2,22,77,0,0

[Colours]
Combo1 : 221,255,253
Combo2 : 92,147,237
Combo3 : 234,111,231
Combo4 : 100,243,255

[HitObjects]
101,108,4546,5,8,3:0:0:0:
101,108,5129,6,0,B|176:93|160:153|239:136,1,142.250228466878,6|0,1:0|2:0,2:0:0:0:
302,76,5711,2,0,L|314:13,1,47.5250530445149,0|0,1:0|2:0,2:0:0:0:
400,167,6002,2,0,L|388:104,1,47.5250530445149,0|0,1:0|2:0,2:0:0:0:
339,229,6294,2,0,L|286:245,1,47.5250530445149,4|0,1:0|2:0,2:0:0:0:
396,303,6585,2,0,L|449:319,1,47.5250530445149,0|0,1:0|2:0,2:0:0:0:
322,377,6876,2,0,P|290:362|276:332,1,47.5250530445149,4|0,1:0|2:0,2:0:0:0:
211,240,7167,2,0,P|214:275|195:302,1,47.5250530445149,0|0,1:0|2:0,2:0:0:0:
90,366,7459,6,0,L|75:218,1,142.250228466878,6|0,1:0|2:0,2:0:0:0:
17,152,8041,2,0,L|24:95,1,47.5250530445149,0|0,1:0|2:0,2:0:0:0:
112,26,8332,2,0,L|117:72,1,47.5250530445149,0|0,1:0|2:0,2:0:0:0:
181,154,8624,1,0,1:0:0:0:
241,77,8769,1,4,3:2:0:0:
301,157,8915,2,0,L|296:203,1,47.5250530445149,0|0,1:0|2:0,2:0:0:0:
400,104,9206,2,0,P|370:90|339:91,1,47.5250530445149,4|0,1:0|2:0,2:0:0:0:
412,199,9497,2,0,P|435:195|455:183,1,47.5250530445149,0|0,1:0|2:0,2:0:0:0:
295,204,9789,6,0,L|316:338,1,131.157939199219,6|0,1:0|1:0,2:0:0:0:
222,259,10226,1,0,3:0:0:0:
139,362,10371,2,0,L|146:291,1,65.8039215996094,0|0,1:0|3:0,2:0:0:0:
48,192,10663,2,0,L|54:257,1,65.8039215996094,0|8,1:0|3:0,2:0:0:0:
115,96,10954,5,8,2:0:0:0:
145,296,11099,1,8,2:0:0:0:
103,67,11245,1,8,2:0:0:0:
54,257,11391,1,8,2:0:0:0:
203,39,11536,1,8,2:0:0:0:
7,159,11682,1,8,2:0:0:0:
231,226,11828,1,8,2:0:0:0:
111,20,11973,1,8,2:0:0:0:
181,320,12119,5,10,2:0:0:0:
306,59,12264,1,10,2:0:0:0:
405,384,12556,5,10,2:0:0:0:
106,190,12847,5,10,2:0:0:0:
405,30,13138,5,10,2:0:0:0:
251,348,13430,5,0,1:0:0:0:
251,348,13502,1,0,1:0:0:0:
251,348,13575,6,0,B|231:312|248:277|248:277|233:255|233:255|254:218|239:189,1,167.590690379151,14|8,2:0|3:0,2:0:0:0:
195,100,14012,1,8,3:0:0:0:
306,156,14158,1,8,3:0:0:0:
167,216,14303,1,8,3:0:0:0:
315,314,14449,5,6,1:0:0:0:
315,314,14740,6,0,P|276:321|251:329,1,47.5250530445149,2|0,2:0|2:0,2:0:0:0:
191,370,15031,2,0,P|153:360|77:347,1,94.7251754223633,2|0,2:0|2:0,2:0:0:0:
34,281,15468,2,0,P|8:230|42:143,1,142.250228466878,2|0,2:0|2:0,2:0:0:0:
179,200,16197,2,0,P|132:209|81:220,1,94.7251754223633,2|0,2:0|2:0,2:0:0:0:
31,152,16633,2,0,P|77:142|123:133,1,94.7251754223633,2|0,2:0|2:0,2:0:0:0:
180,65,17070,1,2,2:0:0:0:
384,262,17653,5,2,2:0:0:0:
384,262,17944,2,0,P|407:224|372:123,1,142.250228466878,0|0,3:0|2:0,2:0:0:0:
329,68,18527,2,0,P|306:106|341:207,1,142.250228466878,2|0,2:0|2:0,2:0:0:0:
384,262,19109,1,2,2:0:0:0:
103,369,19692,6,0,P|143:360|201:351,1,94.7251754223633,2|0,2:0|2:0,2:0:0:0:
399,293,20274,2,0,P|359:284|301:275,1,94.7251754223633,0|0,3:0|2:0,2:0:0:0:
244,211,20711,1,2,2:0:0:0:
49,288,21148,5,2,2:0:0:0:
49,288,21439,2,0,P|41:211|32:146,1,142.250228466878,2|0,2:0|2:0,2:0:0:0:
116,58,22022,2,0,P|123:128|132:198,1,142.250228466878,2|0,2:0|2:0,2:0:0:0:
217,248,22604,5,2,3:0:0:0:
312,91,22750,1,0,1:0:0:0:
385,262,22896,1,8,2:0:0:0:
385,262,23187,6,0,L|378:308,3,37.3862787915276,10|8|8|8,2:0|2:0|2:0|2:0,2:0:0:0:
382,334,23478,1,8,2:0:0:0:
349,314,23551,1,8,2:0:0:0:
311,311,23624,1,8,2:0:0:0:
276,325,23697,1,8,2:0:0:0:
247,354,23769,6,0,P|227:300|240:255,1,84.0827838562419,4|0,1:0|1:0,2:0:0:0:
292,110,24061,2,0,P|312:164|299:209,1,84.0827838562419,10|0,2:0|2:0,2:0:0:0:
159,125,24352,1,2,1:0:0:0:
272,17,24497,2,0,P|326:8|380:1,1,84.0827838562419,2|8,1:0|2:0,2:0:0:0:
189,226,24789,6,0,P|135:217|81:210,1,84.0827838562419,2|0,2:0|1:0,2:0:0:0:
281,133,25080,1,0,1:0:0:0:
99,53,25226,2,0,P|153:44|207:37,1,84.0827838562419,10|0,2:0|2:0,2:0:0:0:
67,201,25517,1,2,1:0:0:0:
208,144,25663,2,0,P|196:192|186:241,1,84.0827838562419,2|8,1:0|2:0,2:0:0:0:
54,358,25954,6,0,P|45:317|34:276,1,84.0827838562419,2|0,2:0|1:0,2:0:0:0:
142,98,26245,1,0,1:0:0:0:
199,272,26391,1,10,2:0:0:0:
39,192,26536,1,2,2:0:0:0:
225,151,26682,2,0,P|273:160|320:175,1,84.0827838562419,2|0,1:0|1:0,2:0:0:0:
170,260,26973,1,8,2:0:0:0:
283,330,27119,2,0,P|323:318|364:311,1,84.0827838562419,2|0,2:0|1:0,2:0:0:0:
225,151,27410,1,0,1:0:0:0:
148,349,27556,2,0,P|107:337|66:330,1,84.0827838562419,12|0,2:0|1:0,2:0:0:0:
36,116,27847,5,10,1:2:0:0:
36,116,27920,1,0,1:0:0:0:
36,116,27993,1,0,1:0:0:0:
32,112,28065,1,0,1:0:0:0:
36,116,28138,2,0,P|46:170|55:226,1,84.0827838562419,14|0,2:0|2:0,2:0:0:0:
142,55,28430,5,6,1:0:0:0:
183,227,28575,1,2,2:0:0:0:
266,48,28721,2,0,P|256:102|247:158,1,84.0827838562419,10|0,2:0|2:0,2:0:0:0:
396,256,29012,2,0,P|388:214|381:173,1,84.0827838562419,2|0,1:0|2:0,2:0:0:0:
194,221,29303,2,0,P|237:242|283:236,1,84.0827838562419,10|2,2:0|2:0,2:0:0:0:
399,33,29595,5,2,1:0:0:0:
251,130,29740,1,0,2:0:0:0:
419,245,29886,2,0,P|426:203|433:162,1,84.0827838562419,8|0,2:0|2:0,2:0:0:0:
250,292,30177,2,0,P|243:251|236:209,1,84.0827838562419,0|2,1:0|2:0,2:0:0:0:
308,33,30468,1,10,2:0:0:0:
376,183,30614,1,2,2:0:0:0:
194,138,30760,5,6,1:0:0:0:
282,13,30905,2,0,L|297:111,1,84.0827838562419,2|8,2:0|2:0,2:0:0:0:
132,245,31197,2,0,L|117:147,1,84.0827838562419,2|0,2:0|1:0,2:0:0:0:
185,20,31488,1,2,1:0:0:0:
267,187,31633,1,8,2:0:0:0:
76,73,31779,6,0,P|27:92|9:208,1,167.590690379151,6|8,1:0|2:0,2:0:0:0:
226,301,32216,1,10,2:0:0:0:
147,124,32362,1,2,1:0:0:0:
147,124,32434,1,0,1:0:0:0:
147,124,32507,1,10,2:0:0:0:
95,300,32653,1,0,1:0:0:0:
238,150,32798,2,0,L|223:248,1,84.0827838562419,10|0,3:0|2:0,2:0:0:0:
358,363,33090,6,0,P|408:355|456:350,1,74.9433544719442,6|0,1:0|2:0,2:0:0:0:
512,256,33381,2,0,P|462:248|414:243,1,74.9433544719442,0|0,1:0|2:0,2:0:0:0:
342,150,33672,2,0,P|392:142|440:137,1,74.9433544719442,0|0,1:0|2:0,2:0:0:0:
314,33,33963,1,2,1:0:0:0:
234,156,34109,1,2,1:0:0:0:
124,25,34255,6,0,P|95:67|127:177,1,149.374318277222,10|2,2:0|1:0,2:0:0:0:
217,256,34692,2,0,P|224:201|229:158,1,74.9433544719442,2|0,2:0|1:0,2:0:0:0:
72,276,34983,2,0,P|76:313|81:350,1,74.9433544719442,2|0,2:0|1:0,2:0:0:0:
189,248,35274,1,2,2:0:0:0:
287,355,35420,6,0,P|348:365|395:371,1,74.9433544719442,4|0,1:0|2:0,2:0:0:0:
469,230,35711,2,0,P|408:240|361:246,1,74.9433544719442,2|0,1:0|2:0,2:0:0:0:
296,134,36002,2,0,P|301:79|305:28,1,74.9433544719442,2|0,1:0|2:0,2:0:0:0:
229,231,36294,1,2,1:0:0:0:
381,136,36439,1,2,1:0:0:0:
193,40,36585,5,8,2:0:0:0:
284,164,36730,1,0,1:0:0:0:
389,29,36876,2,0,P|342:18|292:8,1,74.9433544719442,2|0,1:0|2:0,2:0:0:0:
178,160,37167,2,0,P|225:149|275:139,1,74.9433544719442,10|0,2:0|1:0,2:0:0:0:
48,42,37459,1,10,3:0:0:0:
100,200,37604,1,10,3:0:0:0:
172,42,37750,5,4,1:0:0:0:
172,42,37896,1,0,1:0:0:0:
51,150,38041,2,0,P|16:166|-32:156,1,74.9433544719442,0|0,1:0|2:0,2:0:0:0:
118,272,38332,1,10,2:0:0:0:
187,165,38478,2,0,P|223:161|257:177,1,74.9433544719442,0|0,1:0|2:0,2:0:0:0:
344,325,38769,6,0,L|366:171,1,149.374318277222,0|0,1:0|1:0,2:0:0:0:
448,67,39206,2,0,L|459:157,1,74.9433544719442,0|0,1:0|2:0,2:0:0:0:
268,98,39497,2,0,P|305:70|348:70,1,74.9433544719442,10|0,2:0|2:0,2:0:0:0:
247,201,39789,2,0,P|210:194|182:169,1,74.9433544719442,0|0,1:0|2:0,2:0:0:0:
104,43,40080,5,6,1:0:0:0:
104,43,40226,1,0,1:0:0:0:
15,186,40371,2,0,L|3:93,1,74.9433544719442,0|0,1:0|2:0,2:0:0:0:
99,265,40663,1,8,2:0:0:0:
192,95,40808,2,0,L|182:169,1,74.9433544719442,0|2,1:0|2:0,2:0:0:0:
322,323,41099,6,0,P|285:279|176:292,1,149.374318277222,0|0,1:0|1:0,2:0:0:0:
92,348,41536,2,0,P|46:333|-3:322,1,74.9433544719442,0|0,1:0|2:0,2:0:0:0:
157,187,41828,1,10,3:0:0:0:
221,348,41973,1,8,3:0:0:0:
121,201,42119,2,0,P|84:210|49:222,1,74.9433544719442,10|8,3:0|3:0,2:0:0:0:
277,258,42410,5,2,2:0:0:0:
468,27,46488,6,0,B|450:59|450:59|473:101,1,76.5087936672364,2|10,3:0|3:0,2:0:0:0:
469,93,47070,6,0,B|384:72|420:158|312:126,1,149.374318277222,6|0,1:0|1:0,2:0:0:0:
239,58,47507,1,0,2:0:0:0:
239,58,47653,2,0,L|223:147,1,74.9433544719442,2|0,1:0|2:0,2:0:0:0:
134,181,47944,2,0,L|150:270,1,74.9433544719442,0|0,1:0|2:0,2:0:0:0:
108,366,48235,2,0,L|201:344,1,74.9433544719442,2|0,1:0|2:0,2:0:0:0:
334,275,48527,2,0,L|241:253,1,74.9433544719442,0|0,1:0|2:0,2:0:0:0:
367,361,48818,2,0,P|405:334|414:294,1,74.9433544719442,2|0,1:0|2:0,2:0:0:0:
321,201,49109,2,0,L|335:285,1,74.9433544719442,0|0,1:0|2:0,2:0:0:0:
449,152,49400,6,0,B|480:62|480:62|455:40|441:25,1,149.374318277222,6|0,1:0|1:0,2:0:0:0:
279,88,49837,1,0,2:0:0:0:
279,88,49983,2,0,P|312:112|362:105,1,74.9433544719442,0|2,1:0|2:0,2:0:0:0:
242,1,50274,2,0,P|204:17|185:64,1,74.9433544719442,2|2,1:0|2:0,2:0:0:0:
68,183,50565,5,6,1:0:0:0:
52,35,50711,1,8,2:0:0:0:
151,233,50857,1,10,2:0:0:0:
188,45,51002,1,0,1:0:0:0:
188,45,51075,1,0,1:0:0:0:
188,45,51148,2,0,L|174:129,1,74.9433544719442,10|0,2:0|1:0,2:0:0:0:
274,277,51439,2,0,L|261:203,1,74.9433544719442,10|0,3:0|1:0,2:0:0:0:
184,353,51730,5,14,2:0:0:0:
366,249,51876,1,0,1:0:0:0:
182,166,52022,1,0,1:0:0:0:
302,362,52167,2,0,L|384:349,1,74.9433544719442,14|0,2:0|1:0,2:0:0:0:
315,120,52459,1,0,1:0:0:0:
185,317,52604,2,0,L|103:304,1,74.9433544719442,14|0,2:0|1:0,2:0:0:0:
194,76,52896,5,0,1:0:0:0:
324,273,53041,2,0,L|406:260,1,74.9433544719442,14|0,2:0|1:0,2:0:0:0:
286,36,53332,1,0,1:0:0:0:
156,233,53478,2,0,L|74:220,1,74.9433544719442,14|0,2:0|1:0,2:0:0:0:
299,50,53769,2,0,L|381:37,1,74.9433544719442,10|0,2:0|1:0,2:0:0:0:
287,250,54061,6,0,P|279:205|270:156,1,74.9433544719442,6|0,1:0|2:0,2:0:0:0:
161,32,54352,2,0,P|154:68|147:105,1,74.9433544719442,0|0,1:0|2:0,2:0:0:0:
195,295,54643,1,0,1:0:0:0:
269,99,54789,1,8,2:0:0:0:
340,343,54934,1,8,2:0:0:0:
176,178,55080,1,10,2:0:0:0:
451,58,55808,6,0,L|458:112,1,50.0606788607381,10|0,3:0|2:0,2:0:0:0:
512,158,56245,6,0,B|398:117|437:245|297:185,1,204.023458488281,6|0,1:0|2:0,2:0:0:0:
165,87,56682,2,0,P|209:52|272:59,1,102.361654577474,8|0,2:0|2:0,2:0:0:0:
144,217,56973,2,0,P|94:213|56:181,1,102.361654577474,2|0,1:0|2:0,2:0:0:0:
267,146,57264,1,8,2:0:0:0:
199,293,57410,1,0,2:0:0:0:
125,120,57556,6,0,L|111:19,1,102.361654577474,2|0,1:0|2:0,2:0:0:0:
278,238,57847,2,0,L|291:137,1,102.361654577474,8|0,2:0|2:0,2:0:0:0:
208,358,58138,2,0,P|259:381|313:368,1,102.361654577474,2|0,1:0|2:0,2:0:0:0:
167,193,58430,1,8,2:0:0:0:
75,328,58575,6,0,B|13:347|13:347|46:199,1,204.023458488281,2|2,2:0|2:0,2:0:0:0:
100,34,59012,2,0,P|49:32|8:60,1,102.361654577474,10|0,2:0|2:0,2:0:0:0:
144,164,59303,2,0,P|185:192|235:190,1,102.361654577474,0|0,1:0|2:0,2:0:0:0:
418,84,59595,1,10,2:0:0:0:
345,213,59740,1,2,2:0:0:0:
321,55,59886,5,2,1:0:0:0:
429,233,60031,1,2,2:0:0:0:
306,42,60177,1,10,2:0:0:0:
494,120,60323,1,2,2:0:0:0:
286,219,60468,1,2,1:0:0:0:
402,13,60614,2,0,L|416:135,1,102.361654577474,2|10,1:0|2:0,2:0:0:0:
188,281,60905,6,0,P|168:214|264:123,1,204.023458488281,6|0,1:0|1:0,2:0:0:0:
358,349,61342,2,0,P|289:365|230:380,1,102.361654577474,10|0,2:0|2:0,2:0:0:0:
381,205,61633,2,0,P|440:225|467:283,1,102.361654577474,0|0,1:0|2:0,2:0:0:0:
172,180,61925,1,10,2:0:0:0:
291,290,62070,1,2,2:0:0:0:
231,101,62216,5,2,1:0:0:0:
140,296,62362,2,0,L|23:272,1,102.361654577474,2|8,2:0|2:0,2:0:0:0:
290,170,62653,2,0,L|407:146,1,102.361654577474,2|0,2:0|1:0,2:0:0:0:
173,0,62944,2,0,P|138:42|144:113,1,102.361654577474,2|8,1:0|2:0,2:0:0:0:
223,258,63235,6,0,B|273:144|273:144|215:63,1,204.023458488281,6|2,1:0|1:0,2:0:0:0:
63,147,63672,2,0,P|110:185|182:166,1,102.361654577474,10|0,2:0|2:0,2:0:0:0:
304,32,63963,1,0,1:0:0:0:
346,231,64109,1,2,1:0:0:0:
226,79,64255,1,8,2:0:0:0:
195,310,64400,6,0,B|307:274|277:392|405:352,1,204.023458488281,6|8,1:0|2:0,2:0:0:0:
186,158,64837,1,8,2:0:0:0:
89,324,64983,1,0,1:0:0:0:
89,324,65056,1,0,1:0:0:0:
89,324,65129,1,10,2:0:0:0:
275,226,65274,1,2,1:0:0:0:
79,134,65420,1,8,2:0:0:0:
208,360,65565,6,0,L|184:142,1,204.023458488281,6|0,1:0|1:0,2:0:0:0:
374,60,66002,2,0,P|351:110|297:132,1,102.361654577474,8|0,2:0|2:0,2:0:0:0:
164,1,66294,2,0,P|218:-4|264:31,1,102.361654577474,2|0,1:0|2:0,2:0:0:0:
219,239,66585,1,8,2:0:0:0:
194,80,66730,1,0,2:0:0:0:
374,253,66876,6,0,L|387:131,1,102.361654577474,2|0,1:0|2:0,2:0:0:0:
301,338,67167,2,0,P|345:367|409:358,1,102.361654577474,8|0,2:0|2:0,2:0:0:0:
214,162,67459,2,0,P|163:161|122:189,1,102.361654577474,2|0,1:0|2:0,2:0:0:0:
339,257,67750,1,8,2:0:0:0:
188,345,67896,1,2,2:0:0:0:
344,136,68041,6,0,L|458:155,1,102.361654577474,0|2,1:0|2:0,2:0:0:0:
237,0,68332,2,0,L|123:19,1,102.361654577474,10|0,2:0|2:0,2:0:0:0:
85,213,68624,1,0,1:0:0:0:
246,124,68769,1,0,2:0:0:0:
41,37,68915,2,0,P|22:88|48:150,1,102.361654577474,10|0,2:0|2:0,2:0:0:0:
177,276,69206,6,0,P|196:225|170:163,1,102.361654577474,2|0,1:0|2:0,2:0:0:0:
35,336,69497,2,0,P|94:349|156:366,1,102.361654577474,10|0,2:0|2:0,2:0:0:0:
283,157,69789,2,0,P|224:170|162:187,1,102.361654577474,2|0,1:0|2:0,2:0:0:0:
326,333,70080,1,10,2:0:0:0:
452,110,70226,5,0,1:0:0:0:
452,110,70298,1,0,1:0:0:0:
452,110,70371,2,0,B|426:148|397:170|397:170|457:309,1,204.023458488281,2|10,1:0|2:0,2:0:0:0:
252,384,70808,2,0,P|232:326|255:267,1,102.361654577474,2|0,2:0|1:0,2:0:0:0:
324,98,71099,1,0,2:0:0:0:
162,183,71245,2,0,L|50:149,1,102.361654577474,10|0,2:0|2:0,2:0:0:0:
330,267,71536,5,2,1:0:0:0:
208,39,71682,2,0,L|320:5,1,102.361654577474,2|8,2:0|2:0,2:0:0:0:
217,251,71973,1,0,2:0:0:0:
89,60,72119,2,0,P|63:100|72:170,1,102.361654577474,2|0,1:0|2:0,2:0:0:0:
228,323,72410,2,0,L|249:196,1,102.361654577474,10|0,2:0|2:0,2:0:0:0:
339,53,72701,5,2,1:0:0:0:
192,127,72847,1,0,1:0:0:0:
340,224,72993,2,0,P|406:201|456:186,1,102.361654577474,12|0,2:0|2:0,2:0:0:0:
242,31,73284,1,2,1:0:0:0:
196,208,73430,1,0,1:0:0:0:
383,132,73575,2,0,P|393:75|363:23,1,102.361654577474,12|0,2:0|2:0,2:0:0:0:
132,146,73866,5,2,1:0:0:0:
298,236,74012,1,0,1:0:0:0:
257,25,74158,2,0,L|241:137,1,102.361654577474,8|0,2:0|1:0,2:0:0:0:
83,287,74449,1,0,1:0:0:0:
131,104,74595,1,0,1:0:0:0:
131,104,74667,1,0,1:0:0:0:
131,104,74740,2,0,L|147:216,1,102.361654577474,8|0,2:0|1:0,2:0:0:0:
338,347,75031,5,14,2:0:0:0:
288,180,75177,1,0,1:0:0:0:
345,372,75323,1,0,1:0:0:0:
338,96,75468,5,12,2:0:0:0:
288,270,75614,1,0,1:0:0:0:
347,65,75760,1,0,1:0:0:0:
399,266,75905,5,12,2:0:0:0:
242,142,76051,1,0,1:0:0:0:
434,109,76197,1,0,1:0:0:0:
236,252,76342,5,14,2:0:0:0:
248,49,76488,1,0,1:0:0:0:
391,185,76633,1,0,1:0:0:0:
122,157,76779,2,0,P|112:94|147:40,1,102.361654577474,14|0,2:0|1:0,2:0:0:0:
311,238,77070,2,0,L|285:350,1,102.361654577474,10|0,2:0|1:0,2:0:0:0:
206,109,77362,5,14,2:0:0:0:
404,213,77507,1,4,1:3:0:0:
193,277,77653,1,4,1:3:0:0:
332,107,77798,2,0,L|453:81,1,102.361654577474,10|4,2:0|1:3,2:0:0:0:
352,344,78090,1,4,1:3:0:0:
221,178,78235,2,0,L|100:152,1,102.361654577474,10|0,2:0|2:0,2:0:0:0:
129,164,79255,5,0,3:0:0:0:
129,164,79328,1,0,3:0:0:0:
129,164,79400,2,0,P|170:157|210:149,1,71.1251142334391,10|0,2:0|2:0,2:0:0:0:
240,48,79692,6,0,B|198:104|198:104|261:214,1,185.807077133057,6|10,1:0|2:0,2:0:0:0:
363,109,80129,1,0,2:0:0:0:
309,276,80274,2,0,P|274:296|219:291,1,93.2222205665283,2|2,1:0|2:0,2:0:0:0:
426,183,80565,1,8,2:0:0:0:
255,204,80711,6,0,L|237:94,1,93.2222205665283,2|0,2:0|1:0,2:0:0:0:
77,276,81002,1,2,2:0:0:0:
128,106,81148,2,0,L|146:-4,1,93.2222205665283,10|0,2:0|2:0,2:0:0:0:
239,298,81439,1,2,1:0:0:0:
164,130,81585,1,0,2:0:0:0:
104,339,81730,1,10,2:0:0:0:
218,196,81876,1,0,2:0:0:0:
407,363,82022,6,0,P|357:375|273:272,1,185.807077133057,2|10,1:0|2:0,2:0:0:0:
473,225,82459,1,0,2:0:0:0:
343,146,82604,2,0,L|354:257,1,93.2222205665283,2|2,1:0|2:0,2:0:0:0:
417,50,82896,1,8,2:0:0:0:
242,168,83041,6,0,L|138:136,1,93.2222205665283,2|0,2:0|1:0,2:0:0:0:
253,20,83332,1,2,2:0:0:0:
412,143,83478,2,0,L|516:111,1,93.2222205665283,10|0,2:0|2:0,2:0:0:0:
223,221,83769,1,2,1:0:0:0:
329,47,83915,1,2,2:0:0:0:
381,238,84061,1,8,2:0:0:0:
379,260,84133,1,8,2:0:0:0:
375,283,84206,1,8,2:0:0:0:
372,306,84279,1,8,2:0:0:0:
367,328,84352,6,0,B|311:262|311:262|384:153,1,185.807077133057,6|10,1:0|2:0,2:0:0:0:
472,268,84789,1,0,2:0:0:0:
378,91,84934,2,0,P|313:100|283:149,1,93.2222205665283,2|2,1:0|2:0,2:0:0:0:
149,260,85226,1,8,2:0:0:0:
173,47,85371,6,0,L|197:165,1,93.2222205665283,2|0,2:0|1:0,2:0:0:0:
11,329,85663,1,2,2:0:0:0:
67,89,85808,2,0,L|43:207,1,93.2222205665283,10|0,2:0|2:0,2:0:0:0:
214,347,86099,1,2,1:0:0:0:
136,146,86245,1,0,2:0:0:0:
70,364,86391,1,10,2:0:0:0:
188,233,86536,1,0,2:0:0:0:
325,368,86682,6,0,L|303:198,1,139.514648849792,14|0,2:0|2:0,2:0:0:0:
320,148,86973,2,0,L|312:83,3,46.5048829499309,0|0|0|0,3:0|3:0|3:0|3:0,3:0:0:0:
410,242,87264,5,10,2:0:0:0:
112,82,87410,1,10,2:0:0:0:
416,0,87701,5,10,2:0:0:0:
416,0,87993,5,8,2:0:0:0:
265,93,88138,1,8,2:0:0:0:
429,181,88284,1,4,1:3:0:0:
429,181,88357,1,4,1:3:0:0:
429,181,88430,2,0,L|434:64,1,93.2222205665283,8|8,2:0|2:0,2:0:0:0:
247,284,88721,2,0,L|242:167,1,93.2222205665283,8|8,2:0|2:0,2:0:0:0:
300,353,89012,6,0,P|268:372|213:363,1,74.9433544719442,4|0,1:0|2:0,2:0:0:0:
95,230,89303,2,0,P|131:229|163:248,1,74.9433544719442,2|0,1:0|2:0,2:0:0:0:
112,379,89595,1,2,1:0:0:0:
112,379,89740,2,0,L|108:296,1,74.9433544719442,2|0,2:0|1:0,2:0:0:0:
254,184,90031,1,10,2:0:0:0:
254,184,90177,6,0,L|250:258,1,74.9433544719442,0|8,2:0|3:0,2:0:0:0:
170,116,90468,2,0,P|199:85|255:82,1,74.9433544719442,2|0,1:0|2:0,2:0:0:0:
151,217,90760,2,0,P|109:207|79:160,1,74.9433544719442,2|0,1:0|2:0,2:0:0:0:
254,184,91051,1,2,1:0:0:0:
187,306,91197,1,10,2:0:0:0:
52,118,91342,6,0,L|67:279,1,149.374318277222,0|2,1:0|1:0,2:0:0:0:
153,85,91779,1,0,2:0:0:0:
153,85,91925,2,0,L|142:175,1,74.9433544719442,0|0,1:0|2:0,2:0:0:0:
249,27,92216,2,0,L|260:117,1,74.9433544719442,2|8,1:0|2:0,2:0:0:0:
330,174,92507,6,0,P|366:190|408:186,1,74.9433544719442,2|0,1:0|2:0,2:0:0:0:
429,48,92798,2,0,P|397:71|379:109,1,74.9433544719442,0|0,1:0|2:0,2:0:0:0:
475,214,93090,2,0,L|494:109,1,74.9433544719442,2|0,1:0|2:0,2:0:0:0:
346,266,93381,2,0,L|360:340,1,74.9433544719442,8|0,2:0|3:0,2:0:0:0:
203,354,93672,6,0,P|140:365|73:281,1,149.374318277222,6|0,1:0|1:0,2:0:0:0:
115,225,94109,1,0,2:0:0:0:
115,225,94255,2,0,P|156:200|203:204,1,74.9433544719442,0|0,1:0|2:0,2:0:0:0:
310,303,94546,2,0,P|273:298|243:276,1,74.9433544719442,0|8,1:0|2:0,2:0:0:0:
275,101,94837,6,0,L|290:194,1,74.9433544719442,0|0,1:0|2:0,2:0:0:0:
126,61,95129,2,0,L|111:154,1,74.9433544719442,2|0,1:0|2:0,2:0:0:0:
295,37,95420,2,0,L|310:130,1,74.9433544719442,2|0,1:0|1:0,2:0:0:0:
97,4,95711,2,0,L|82:97,1,74.9433544719442,14|0,2:0|2:0,2:0:0:0:
197,161,96002,5,6,1:0:0:0:
52,219,96148,1,0,1:0:0:0:
198,291,96294,1,8,2:0:0:0:
41,213,96439,2,0,L|63:376,1,149.374318277222,2|0,1:0|1:0,2:0:0:0:
208,152,96876,2,0,L|194:249,1,74.9433544719442,10|0,2:0|1:0,2:0:0:0:
90,65,97167,6,0,P|61:59|34:58,3,37.3862787915276,10|8|8|8,2:0|3:0|3:0|3:0,2:0:0:0:
208,152,97459,2,0,P|226:149|244:145,3,37.3862787915276,0|0|8|8,1:0|1:0|2:0|3:0,2:0:0:0:
160,12,97750,1,10,3:0:0:0:
83,163,97896,1,0,1:0:0:0:
247,52,98041,2,0,P|291:62|325:143,1,112.158836374583,8|0,2:0|2:0,2:0:0:0:
340,277,98332,6,0,L|371:56,1,185.807077133057,12|2,2:0|1:0,2:0:0:0:
204,257,98769,2,0,L|188:152,1,93.2222205665283,12|2,2:0|1:0,2:0:0:0:
140,345,99061,1,2,1:0:0:0:
53,156,99206,2,0,L|69:51,1,93.2222205665283,12|2,2:0|1:0,2:0:0:0:
85,272,99497,5,0,1:0:0:0:
239,103,99643,2,0,L|223:-2,1,93.2222205665283,12|2,2:0|1:0,2:0:0:0:
185,253,99934,1,0,1:0:0:0:
97,84,100080,1,14,2:0:0:0:
61,285,100226,1,2,1:0:0:0:
170,134,100371,1,8,2:0:0:0:
213,326,100517,1,2,1:0:0:0:
364,41,100663,6,0,P|422:55|442:190,1,185.807077133057,12|2,2:0|1:0,2:0:0:0:
341,248,101099,2,0,P|333:202|323:156,1,93.2222205665283,12|2,2:0|1:0,2:0:0:0:
259,357,101391,1,2,1:0:0:0:
189,168,101536,2,0,P|196:122|206:76,1,93.2222205665283,12|2,2:0|1:0,2:0:0:0:
134,328,101828,5,0,1:0:0:0:
75,151,101973,1,12,2:0:0:0:
238,246,102119,1,8,2:0:0:0:
56,274,102264,1,0,1:0:0:0:
56,274,102337,1,0,1:0:0:0:
56,274,102410,2,0,L|-14:255,3,46.5048829499309,10|0|0|0,1:3|1:0|1:0|1:0,2:0:0:0:
189,168,102701,2,0,L|261:154,3,46.5048829499309,14|0|0|0,1:3|1:0|1:0|1:0,2:0:0:0:
349,258,102993,6,0,L|331:365,1,93.2222205665283,14|2,2:0|1:0,2:0:0:0:
139,119,103284,2,0,L|157:226,1,93.2222205665283,2|12,1:0|2:0,2:0:0:0:
326,90,103575,1,2,1:0:0:0:
239,243,103721,1,0,1:0:0:0:
84,66,103866,2,0,P|129:41|187:54,1,93.2222205665283,14|2,2:0|1:0,2:0:0:0:
311,168,104158,5,2,1:0:0:0:
160,293,104303,2,0,B|112:241|112:241|151:116,1,185.807077133057,12|0,2:0|1:0,2:0:0:0:
230,345,104740,2,0,P|181:377|123:368,1,93.2222205665283,12|2,2:0|1:0,2:0:0:0:
231,161,105031,1,10,2:0:0:0:
339,319,105177,1,2,1:0:0:0:
393,107,105323,5,14,2:0:0:0:
185,247,105468,1,2,1:0:0:0:
185,247,105541,1,0,1:0:0:0:
185,247,105614,1,8,2:0:0:0:
432,111,105760,5,6,1:0:0:0:
163,20,106051,5,2,1:0:0:0:
301,264,106342,6,0,B|349:212|349:212|310:87,1,185.807077133057,6|8,1:0|2:0,2:0:0:0:
288,31,106706,1,0,1:0:0:0:
288,31,106779,2,0,L|273:145,1,93.2222205665283,2|0,1:0|1:0,2:0:0:0:
187,264,107070,2,0,P|167:275|124:273,2,61.9356923776855,10|8|8,2:0|2:3|2:3,2:0:0:0:
347,210,107362,2,0,P|377:207|405:220,2,61.9356923776855,10|12|12,2:0|2:3|2:3,2:0:0:0:
147,189,107653,5,4,1:0:0:0:
281,269,107798,1,0,1:0:0:0:
138,356,107944,1,0,1:0:0:0:
239,178,108090,1,2,1:0:0:0:
229,191,108381,5,0,1:0:0:0:
309,368,108527,1,2,1:0:0:0:
287,370,108818,6,0,L|299:284,1,65.8039215996094,8|2,2:0|2:0,2:0:0:0:
396,249,109109,2,0,L|384:163,1,65.8039215996094,2|0,2:0|2:0,2:0:0:0:
224,83,109400,2,0,P|257:123|341:117,1,131.157939199219,2|2,3:0|2:0,2:0:0:0:
427,21,109837,1,0,1:0:0:0:
427,21,109910,1,0,1:0:0:0:
427,21,109983,5,6,1:0:0:0:
273,92,110129,1,0,1:0:0:0:
437,180,110274,1,0,1:0:0:0:
339,19,110420,1,2,1:0:0:0:
329,33,110711,5,0,1:0:0:0:
246,189,110857,1,2,1:0:0:0:
261,202,111148,6,0,L|251:118,1,65.8039215996094,8|2,2:0|2:0,2:0:0:0:
183,48,111439,2,0,L|189:-1,2,32.9019607998047,2|0|0,1:0|1:0|1:0,2:0:0:0:
86,130,111730,1,10,2:0:0:0:
49,45,111876,2,0,L|70:187,1,131.157939199219,0|8,1:0|2:0,2:0:0:0:
200,218,112313,5,4,1:0:0:0:
80,303,112459,1,0,1:0:0:0:
227,210,112604,2,0,L|211:304,1,65.8039215996094,0|0,1:0|2:0,2:0:0:0:
102,138,112896,1,8,2:0:0:0:
218,54,113041,2,0,L|294:40,1,65.8039215996094,0|2,1:0|2:0,2:0:0:0:
398,166,113332,2,0,L|322:152,1,65.8039215996094,0|0,1:0|2:0,2:0:0:0:
160,310,113624,5,0,1:0:0:0:
317,250,113769,1,2,1:0:0:0:
178,181,113915,1,0,2:0:0:0:
241,368,114061,2,0,L|253:285,1,65.8039215996094,10|0,2:0|1:0,2:0:0:0:
104,218,114352,2,0,L|113:282,1,65.8039215996094,2|0,2:0|1:0,2:0:0:0:
240,124,114643,5,4,1:0:0:0:
197,245,114789,1,0,1:0:0:0:
253,119,114934,2,0,L|243:54,1,65.8039215996094,0|2,1:0|2:0,2:0:0:0:
268,238,115226,1,8,2:0:0:0:
118,75,115371,2,0,L|127:10,1,65.8039215996094,0|2,1:0|2:0,2:0:0:0:
35,147,115663,6,0,P|81:188|162:177,1,131.157939199219,0|2,1:0|1:0,2:0:0:0:
253,61,116099,2,0,L|333:77,1,65.8039215996094,0|0,1:0|2:0,2:0:0:0:
395,240,116391,1,10,2:0:0:0:
259,157,116536,1,8,3:0:0:0:
411,75,116682,2,0,L|397:156,1,65.8039215996094,10|8,3:0|3:0,2:0:0:0:
368,328,116973,5,2,2:0:0:0:
187,72,119740,5,0,3:0:0:0:
187,72,120177,5,0,3:0:0:0:
108,168,120323,5,0,1:0:0:0:
108,168,120396,1,0,1:0:0:0:
108,168,120468,2,0,L|58:161,3,32.8269767998047,2|0|0|0,1:2|1:2|1:2|1:2,1:2:0:0:
163,240,120760,2,0,L|213:233,3,32.8269767998047,2|0|0|0,1:2|1:2|1:2|1:2,1:2:0:0:
71,311,121051,1,2,1:2:0:0:
87,314,121124,1,0,1:2:0:0:
103,316,121197,1,0,1:2:0:0:
118,318,121269,1,0,1:2:0:0:
133,321,121342,2,0,L|143:383,3,32.8269767998047,2|0|0|0,1:2|1:2|1:2|1:2,1:2:0:0:
227,217,121633,6,0,P|282:213|329:310,1,149.374318277222,6|0,1:0|1:0,2:0:0:0:
405,358,122070,1,0,2:0:0:0:
405,358,122216,2,0,P|412:302|419:261,1,74.9433544719442,2|0,1:0|2:0,2:0:0:0:
498,223,122507,2,0,P|491:167|484:126,1,74.9433544719442,8|0,2:3|2:0,2:0:0:0:
319,124,122798,2,0,P|364:149|404:145,1,74.9433544719442,2|0,1:0|2:0,2:0:0:0:
454,26,123090,2,0,P|417:30|386:51,1,74.9433544719442,0|0,1:0|2:0,2:0:0:0:
213,175,123381,1,2,1:0:0:0:
276,34,123527,1,0,2:0:0:0:
361,170,123672,2,0,L|358:227,3,37.3862787915276,0|0|0|0,1:0|1:0|1:0|1:0,2:0:0:0:
281,266,123963,6,0,P|235:288|190:292,1,74.9433544719442,6|0,1:0|3:0,2:0:0:0:
181,296,124182,1,0,3:0:0:0:
181,296,124255,1,8,2:0:0:0:
336,358,124400,1,0,1:0:0:0:
336,358,124473,1,0,1:0:0:0:
336,358,124546,2,0,P|372:366|404:383,1,74.9433544719442,0|2,1:0|1:0,2:0:0:0:
434,376,124764,1,0,1:0:0:0:
434,376,124837,2,0,L|421:270,1,74.9433544719442,10|10,2:0|2:0,2:0:0:0:
186,92,125129,5,6,1:0:0:0:
282,270,125274,1,8,2:0:0:0:
363,84,125420,1,10,2:0:0:0:
166,187,125565,1,0,1:0:0:0:
166,187,125638,1,0,1:0:0:0:
166,187,125711,1,10,2:0:0:0:
348,252,125857,1,0,1:0:0:0:
262,20,126002,2,0,L|244:126,1,74.9433544719442,10|0,3:0|1:0,2:0:0:0:
310,301,126294,6,0,P|257:275|171:337,1,149.374318277222,14|0,2:0|1:0,2:0:0:0:
156,347,126658,1,0,1:0:0:0:
156,347,126730,2,0,L|138:262,1,74.9433544719442,14|0,2:0|2:0,2:0:0:0:
193,116,127022,1,0,1:0:0:0:
299,276,127167,2,0,L|317:191,1,74.9433544719442,14|0,2:0|2:0,2:0:0:0:
218,38,127459,5,0,1:0:0:0:
218,38,127531,1,0,1:0:0:0:
218,38,127604,2,0,L|233:111,1,74.9433544719442,14|0,2:0|2:0,2:0:0:0:
180,240,127896,1,0,1:0:0:0:
325,107,128041,2,0,L|410:94,1,74.9433544719442,14|0,2:0|1:0,2:0:0:0:
176,222,128332,2,0,L|91:209,1,74.9433544719442,14|0,2:0|1:0,2:0:0:0:
281,365,128624,6,0,P|339:351|410:342,1,112.158836374583,6|0,1:0|2:0,2:0:0:0:
489,327,128915,2,0,P|431:313|360:304,1,112.158836374583,0|0,1:0|2:0,2:0:0:0:
288,284,129206,2,0,P|337:273|386:261,1,74.9433544719442,0|8,1:0|3:0,2:0:0:0:
429,193,129497,1,8,3:0:0:0:
387,380,129643,1,8,2:0:0:0:
387,380,129934,5,10,2:0:0:0:
304,177,130080,1,0,1:0:0:0:
377,354,130226,1,0,1:0:0:0:
388,79,130371,5,10,2:0:0:0:
295,281,130517,1,0,1:0:0:0:
376,106,130663,1,8,3:0:0:0:
199,260,130808,5,0,1:0:0:0:
383,199,130954,1,10,3:0:0:0:
222,102,131099,1,0,1:0:0:0:
295,281,131245,1,0,1:0:0:0:
414,53,131391,1,8,2:0:0:0:
252,176,131536,6,0,L|181:192,1,72.8155306666666,2|0,2:0|2:0,2:0:0:0:
82,212,131973,6,0,B|190:185|151:298|276:268,1,204.023458488281,6|0,1:0|1:0,2:0:0:0:
406,192,132410,2,0,L|384:323,1,102.361654577474,8|0,2:0|2:0,2:0:0:0:
328,85,132701,1,2,1:0:0:0:
486,167,132847,1,4,1:3:0:0:
254,241,132993,2,0,P|214:194|213:139,1,102.361654577474,8|0,2:0|2:0,2:0:0:0:
414,49,133284,5,2,1:0:0:0:
312,183,133430,1,8,1:3:0:0:
194,41,133575,2,0,P|239:17|310:38,1,102.361654577474,8|0,2:0|2:0,2:0:0:0:
385,249,133866,1,2,1:0:0:0:
209,155,134012,1,4,1:3:0:0:
379,73,134158,1,8,2:0:0:0:
262,282,134303,6,0,B|194:264|194:264|145:301|145:301|45:275,1,204.023458488281,6|10,1:0|1:3,2:0:0:0:
11,102,134740,2,0,L|29:213,1,102.361654577474,10|0,2:0|2:0,2:0:0:0:
198,105,135031,2,0,L|214:4,1,102.361654577474,0|0,1:0|1:0,2:0:0:0:
287,241,135323,1,10,2:0:0:0:
129,157,135468,1,2,2:0:0:0:
309,252,135614,5,2,1:0:0:0:
141,331,135760,1,2,1:0:0:0:
225,150,135905,1,10,2:0:0:0:
294,343,136051,1,2,2:0:0:0:
97,264,136197,2,0,P|143:252|204:238,1,102.361654577474,2|0,1:0|1:0,2:0:0:0:
400,360,136488,1,10,2:0:0:0:
404,113,136633,6,0,P|377:113|296:251,1,204.023458488281,6|10,1:0|1:3,2:0:0:0:
449,297,137070,2,0,P|427:238|373:214,1,102.361654577474,10|0,2:0|2:0,2:0:0:0:
247,340,137362,2,0,P|309:350|356:315,1,102.361654577474,0|0,1:0|1:0,2:0:0:0:
197,140,137653,1,10,2:0:0:0:
143,296,137798,1,2,2:0:0:0:
208,108,137944,5,2,1:0:0:0:
81,223,138090,1,2,1:0:0:0:
296,166,138235,1,10,2:0:0:0:
112,69,138381,1,2,2:0:0:0:
200,253,138527,1,2,1:0:0:0:
220,6,138672,2,0,L|205:124,1,102.361654577474,2|8,1:0|2:0,2:0:0:0:
398,295,138963,6,0,B|422:253|447:229|447:229|389:113,1,204.023458488281,6|10,1:0|1:3,2:0:0:0:
319,342,139400,2,0,P|350:375|416:382,1,102.361654577474,10|0,2:0|1:0,2:0:0:0:
308,205,139692,2,0,P|258:212|222:247,1,102.361654577474,8|2,2:0|1:0,2:0:0:0:
446,230,139983,1,8,2:0:0:0:
304,76,140129,6,0,B|236:58|236:58|187:95|187:95|87:69,1,204.023458488281,6|8,1:0|2:0,2:0:0:0:
160,235,140565,1,8,2:0:0:0:
17,60,140711,1,0,1:0:0:0:
17,60,140784,1,0,1:0:0:0:
17,60,140857,1,10,2:0:0:0:
42,247,141002,2,0,L|26:323,2,51.180827288737,2|0|8,1:0|1:0|2:0,2:0:0:0:
236,53,141294,6,0,B|266:87|295:103|295:103|241:248,1,204.023458488281,6|8,1:0|1:3,2:0:0:0:
80,203,141730,2,0,P|120:160|174:156,1,102.361654577474,8|0,2:0|2:0,2:0:0:0:
290,330,142022,1,2,1:0:0:0:
159,257,142167,1,4,1:3:0:0:
294,105,142313,2,0,L|315:231,1,102.361654577474,8|0,2:0|2:0,2:0:0:0:
138,343,142604,5,2,1:0:0:0:
213,164,142750,1,8,1:3:0:0:
350,313,142896,2,0,P|291:317|249:283,1,102.361654577474,8|0,2:0|2:0,2:0:0:0:
392,136,143187,1,2,1:0:0:0:
478,356,143332,2,0,L|500:235,1,102.361654577474,4|8,1:3|2:0,2:0:0:0:
397,32,143624,6,0,P|334:49|317:187,1,204.023458488281,6|10,1:0|1:3,2:0:0:0:
502,110,144061,2,0,L|480:-11,1,102.361654577474,10|0,2:0|2:0,2:0:0:0:
440,232,144352,1,0,1:0:0:0:
336,96,144497,1,0,1:0:0:0:
353,289,144643,2,0,P|401:334|462:333,1,102.361654577474,10|0,2:0|2:0,2:0:0:0:
306,103,144934,6,0,P|243:122|213:175,1,102.361654577474,6|0,1:0|1:0,2:0:0:0:
151,355,145226,2,0,L|166:223,1,102.361654577474,10|0,2:0|2:0,2:0:0:0:
46,85,145517,2,0,L|57:186,1,102.361654577474,2|0,1:0|1:0,2:0:0:0:
151,14,145808,1,10,2:0:0:0:
242,238,145954,5,4,2:3:0:0:
242,238,146027,1,4,2:3:0:0:
242,238,146099,2,0,L|260:10,1,204.023458488281,6|10,1:0|2:0,2:0:0:0:
362,187,146536,2,0,P|408:223|474:214,1,102.361654577474,2|0,2:0|1:0,2:0:0:0:
435,89,146828,1,0,2:0:0:0:
270,249,146973,2,0,L|156:269,1,102.361654577474,10|0,2:0|2:0,2:0:0:0:
277,98,147264,1,2,1:0:0:0:
380,334,147410,2,0,L|494:354,1,102.361654577474,2|8,2:0|2:0,2:0:0:0:
371,158,147701,1,0,2:0:0:0:
233,376,147847,6,0,P|203:319|219:264,1,102.361654577474,2|0,1:0|2:0,2:0:0:0:
277,98,148138,2,0,P|242:152|187:166,1,102.361654577474,10|0,2:0|2:0,2:0:0:0:
40,10,148430,1,2,1:0:0:0:
187,65,148575,1,4,1:3:0:0:
42,213,148721,2,0,L|17:88,1,102.361654577474,8|0,2:0|1:0,2:0:0:0:
222,244,149012,1,2,1:0:0:0:
66,345,149158,1,4,1:3:0:0:
117,141,149303,2,0,P|181:143|220:184,1,102.361654577474,12|0,2:0|1:0,2:0:0:0:
159,366,149595,6,0,L|144:251,1,102.361654577474,2|0,1:0|1:0,2:0:0:0:
144,230,149813,1,0,1:0:0:0:
144,230,149886,1,8,2:0:0:0:
342,48,150031,1,0,1:0:0:0:
342,48,150104,1,0,1:0:0:0:
342,48,150177,6,0,L|328:149,1,102.361654577474,10|0,2:0|1:0,2:0:0:0:
329,192,150396,1,0,1:0:0:0:
329,192,150468,1,8,2:0:0:0:
174,44,150614,1,0,1:0:0:0:
126,238,150760,5,14,2:0:0:0:
242,104,150905,1,0,1:0:0:0:
119,263,151051,1,0,1:0:0:0:
174,44,151197,5,12,2:0:0:0:
290,178,151342,1,0,1:0:0:0:
167,19,151488,1,0,1:0:0:0:
216,249,151633,5,12,2:0:0:0:
323,78,151779,1,0,1:0:0:0:
121,109,151925,1,0,1:0:0:0:
306,240,152070,5,14,2:0:0:0:
248,38,152216,1,0,1:0:0:0:
135,197,152362,1,0,1:0:0:0:
367,138,152507,6,0,L|383:24,1,102.361654577474,14|0,2:0|1:0,2:0:0:0:
369,284,152798,2,0,L|383:384,1,102.361654577474,10|0,2:0|1:0,2:0:0:0:
238,134,153090,1,14,2:0:0:0:
435,211,153235,1,8,3:0:0:0:
233,300,153381,1,0,1:0:0:0:
352,37,153527,6,0,L|366:137,1,102.361654577474,10|8,2:0|3:0,2:0:0:0:
298,356,153818,1,2,1:0:0:0:
196,58,153963,2,0,L|181:158,1,102.361654577474,10|0,2:0|3:0,2:0:0:0:
385,330,155129,5,8,3:0:0:0:
45,128,155420,6,0,B|180:75|143:230|287:166,1,262.315878398438,6|0,1:0|1:0,2:0:0:0:
343,18,156294,2,0,L|357:107,1,65.8039215996094,8|8,2:0|2:0,2:0:0:0:
435,137,156585,1,8,2:0:0:0:
362,207,156730,2,0,P|334:184|210:263,1,196.961860798828,8|8,2:0|2:0,2:0:0:0:
211,245,157750,6,0,B|253:252|287:277|287:277|256:98,1,262.315878398438,6|0,1:0|1:0,2:0:0:0:
256,100,158624,2,0,P|228:115|183:111,1,65.8039215996094,8|8,2:0|2:0,2:0:0:0:
77,66,158915,1,8,2:0:0:0:
126,0,159061,2,0,B|156:15|180:37|180:37|134:175,1,196.961860798828,8|8,2:0|2:0,2:0:0:0:
138,161,160080,6,0,B|228:144|228:144|290:201|290:201|386:179,1,262.315878398438,6|0,1:0|1:0,2:0:0:0:
374,181,160954,2,0,L|359:264,1,65.8039215996094,8|8,2:0|2:0,2:0:0:0:
427,321,161245,1,8,2:0:0:0:
321,358,161391,2,0,B|227:310|239:407|122:354,1,196.961860798828,8|8,2:0|2:0,2:0:0:0:
133,359,162410,6,0,B|119:300|119:300|131:284|131:284|92:205|92:205|107:188|107:188|89:117,1,262.315878398438,6|0,1:0|1:0,2:0:0:0:
89,118,163284,2,0,P|122:138|164:137,1,65.8039215996094,8|8,2:0|2:0,2:0:0:0:
273,83,163575,1,8,2:0:0:0:
190,24,163721,2,0,L|161:228,1,196.961860798828,0|0,3:0|1:0,2:0:0:0:
213,285,164303,1,0,3:0:0:0:
213,285,164449,2,0,P|180:305|138:304,1,65.8039215996094,8|0,3:0|3:0,2:0:0:0:
244,182,164740,6,0,B|318:197|318:197|341:242|341:242|424:262,2,196.736908798828,6|0|8,1:0|2:0|2:0,2:0:0:0:
159,312,165760,1,8,2:0:0:0:
159,312,165905,2,0,L|151:229,1,65.8039215996094,8|2,2:0|2:0,2:0:0:0:
159,87,166197,2,0,L|152:152,1,65.8039215996094,0|0,2:0|2:0,2:0:0:0:
52,266,166488,2,0,P|28:225|63:129,1,131.157939199219,10|2,3:0|2:0,2:0:0:0:
44,146,167070,6,0,B|70:173|106:189|106:189|48:320,2,196.736908798828,6|0|8,1:0|2:0|2:0,2:0:0:0:
64,29,168090,1,8,2:0:0:0:
64,29,168235,2,0,P|100:41|125:77,1,65.8039215996094,8|10,2:0|2:0,2:0:0:0:
200,188,168527,2,0,P|192:150|211:111,1,65.8039215996094,0|0,2:0|2:0,2:0:0:0:
337,30,168818,2,0,L|315:166,1,131.157939199219,10|2,3:0|2:0,2:0:0:0:
316,159,169400,6,0,P|382:169|440:60,2,196.736908798828,6|0|8,1:0|2:0|2:0,2:0:0:0:
238,80,170420,1,8,2:0:0:0:
238,80,170565,2,0,P|274:74|316:67,1,65.8039215996094,8|10,2:0|2:0,2:0:0:0:
297,255,170857,2,0,P|268:250|232:244,1,65.8039215996094,0|0,2:0|2:0,2:0:0:0:
72,119,171148,2,0,P|116:116|175:197,1,131.157939199219,10|0,2:0|3:0,2:0:0:0:
119,356,171730,2,0,B|54:247|54:247|85:207|111:172,2,196.736908798828,6|8|10,1:0|3:0|3:0,2:0:0:0:
260,216,172896,2,0,P|303:215|348:247,2,87.4386261328126,0|8|8,1:0|3:0|3:0,2:0:0:0:
199,334,173478,2,0,P|161:356|118:355,2,87.4386261328126,0|8|8,1:0|3:0|3:0,2:0:0:0:
134,130,174061,5,6,1:0:0:0:
256,192,174133,12,0,179886,3:0:0:0:
394,48,191536,6,0,P|389:91|397:171,1,114.894412500855,2|0,2:0|2:0,2:0:0:0:
454,215,192119,2,0,P|459:258|451:338,1,114.894412500855,2|0,2:0|2:0,2:0:0:0:
377,362,192701,2,0,P|338:368|274:320,1,114.894412500855,2|0,2:0|2:0,2:0:0:0:
305,241,193284,2,0,P|256:251|214:258,1,76.5087936672364,2|0,2:0|2:0,2:0:0:0:
176,326,193721,2,0,P|127:316|85:309,1,76.5087936672364,2|0,2:0|2:0,2:0:0:0:
50,243,194158,1,2,2:0:0:0:
50,243,194740,6,0,L|65:158,2,76.5087936672364,2|2|2,2:0|2:0|2:0,2:0:0:0:
1,113,195614,2,0,P|36:90|79:91,1,76.5087936672364,2|2,2:0|2:0,2:0:0:0:
219,225,196197,6,0,L|206:139,1,76.5087936672364,2|0,2:0|2:0,2:0:0:0:
250,83,196633,1,2,2:0:0:0:
348,257,196925,1,0,2:0:0:0:
348,257,197070,2,0,L|361:171,1,76.5087936672364,2|0,2:0|2:0,2:0:0:0:
317,115,197507,1,2,2:0:0:0:
192,309,197798,1,2,2:0:0:0:
192,309,197944,2,0,L|179:223,1,76.2463496672364,2|2,2:0|2:0,2:0:0:0:
223,167,198381,1,0,2:0:0:0:
272,243,198527,6,0,L|357:258,1,76.5087936672364,2|0,2:0|2:0,2:0:0:0:
505,155,199109,2,0,L|420:170,1,76.5087936672364,2|0,2:0|2:0,2:0:0:0:
295,62,199692,2,0,P|334:71|365:107,1,76.5087936672364,2|0,2:0|2:0,2:0:0:0:
302,217,200274,2,0,L|288:133,1,76.5087936672364,2|0,2:0|2:0,2:0:0:0:
157,274,200857,6,0,B|119:293|80:238|132:175|203:194|256:245|200:268|267:316|333:289,1,305.772730668946,2|2,2:0|2:0,2:0:0:0:
302,217,202167,2,0,P|349:208|406:248,1,114.894412500855,0|2,2:0|2:0,2:0:0:0:
468,332,202896,1,2,2:0:0:0:
468,332,203187,2,0,L|477:258,1,72.8155306666666,2|0,2:0|2:0,2:0:0:0:
483,186,203624,2,0,L|474:112,1,72.8155306666666,2|0,2:0|2:0,2:0:0:0:
490,41,204061,6,0,B|404:28|434:97|337:78,1,160.166678221028,2|0,2:0|2:0,2:0:0:0:
171,343,206099,6,0,L|182:269,1,70.1674328050334,2|0,2:0|2:0,2:0:0:0:
251,235,206682,6,0,P|222:205|125:214,1,133.955999917664,2|0,2:0|2:0,2:0:0:0:
67,285,207264,6,0,L|41:99,1,163.834947999024,2|0,2:0|2:0,2:0:0:0:
88,34,207701,6,0,B|145:93|235:38|235:38|221:110|221:110|343:44|403:129,1,436.893184,6|0,1:0|2:0,2:0:0:0:
454,56,210031,6,0,L|420:271,1,185.807077133057,10|6,2:0|1:3,2:0:0:0:
407,345,210468,1,6,1:3:0:0:
407,345,211925,6,0,P|375:348|336:325,1,72.8155306666666,8|0,3:0|2:0,2:0:0:0:
204,270,212362,6,0,B|274:250|274:250|317:289|317:289|428:258,1,204.023458488281,6|0,1:0|1:0,2:0:0:0:
471,121,212798,2,0,P|410:127|374:194,1,102.361654577474,10|0,2:0|2:0,2:0:0:0:
465,328,213090,2,0,P|490:272|450:207,1,102.361654577474,0|0,1:0|2:0,2:0:0:0:
295,126,213381,1,10,2:0:0:0:
387,269,213527,1,2,2:0:0:0:
382,50,213672,5,2,1:0:0:0:
277,231,213818,2,0,L|160:210,1,102.361654577474,2|8,2:0|2:0,2:0:0:0:
107,18,214109,2,0,P|164:39|181:101,1,102.361654577474,2|0,2:0|1:0,2:0:0:0:
90,270,214400,1,2,1:0:0:0:
2,114,214546,1,8,2:0:0:0:
191,192,214692,6,0,B|269:177|269:177|291:130|291:130|393:106,1,204.023458488281,6|2,1:0|1:0,2:0:0:0:
430,301,215129,2,0,P|372:300|327:247,1,102.361654577474,10|0,2:0|1:0,2:0:0:0:
208,90,215420,1,8,2:0:0:0:
406,200,215565,1,2,1:0:0:0:
214,294,215711,1,8,2:0:0:0:
331,104,215857,6,0,B|352:143|388:162|388:162|329:294,1,204.023458488281,6|8,1:0|2:0,2:0:0:0:
208,152,216294,1,8,3:0:0:0:
421,75,216439,1,0,1:0:0:0:
421,75,216512,1,0,1:0:0:0:
421,75,216585,1,10,2:0:0:0:
328,293,216730,1,2,1:0:0:0:
328,293,217022,6,0,L|302:79,1,204.023458488281,6|0,1:0|1:0,2:0:0:0:
168,226,217459,5,8,2:0:0:0:
231,32,217604,1,0,1:0:0:0:
244,270,217750,5,10,2:0:0:0:
162,88,217896,1,0,1:0:0:0:
161,313,218041,5,8,2:0:0:0:
249,123,218187,1,0,1:0:0:0:
282,322,218332,6,0,P|331:346|389:332,1,102.361654577474,14|0,2:0|1:0,2:0:0:0:
149,181,218624,2,0,P|99:174|54:198,1,102.361654577474,8|0,2:0|1:0,2:0:0:0:
188,365,218915,1,10,2:0:0:0:
312,214,219061,1,0,1:0:0:0:
312,214,219133,1,0,1:0:0:0:
312,214,219206,1,8,2:0:0:0:
446,370,219352,6,0,L|475:152,1,204.023458488281,6|2,1:0|1:0,2:0:0:0:
287,80,219789,5,10,2:0:0:0:
367,276,219934,1,0,1:0:0:0:
373,19,220080,5,8,2:0:0:0:
262,218,220226,1,0,1:0:0:0:
225,25,220371,5,10,2:0:0:0:
406,107,220517,1,0,1:0:0:0:
240,198,220663,6,0,L|125:221,1,102.361654577474,14|0,2:0|1:0,2:0:0:0:
124,205,220881,1,0,1:0:0:0:
113,195,220954,2,0,L|53:181,3,51.0641855109592,10|0|0|0,2:0|1:0|1:0|1:0,2:0:0:0:
206,318,221245,2,2,L|266:304,3,51.0641855109592,10|0|0|0,2:0|1:0|1:0|1:0,2:0:0:0:
332,186,221536,2,0,L|388:197,1,51.5307526220703,10|8,2:0|2:0,2:0:0:0:
252,62,221682,1,8,2:0:0:0:
148,277,221828,6,0,P|124:220|145:158,1,102.361654577474,6|0,1:0|1:0,2:0:0:0:
265,263,222119,1,10,2:0:0:0:
154,384,222264,2,0,L|28:358,1,102.361654577474,2|0,1:0|1:0,2:0:0:0:
216,136,222556,1,0,1:0:0:0:
283,305,222701,2,0,L|409:279,1,102.361654577474,10|0,2:0|1:0,2:0:0:0:
239,43,222993,5,2,1:0:0:0:
130,182,223138,2,0,L|156:301,1,102.361654577474,2|8,1:0|2:0,2:0:0:0:
298,156,223430,1,2,1:0:0:0:
153,77,223575,2,0,P|111:60|50:80,1,102.361654577474,2|0,1:0|1:0,2:0:0:0:
286,172,223866,2,0,P|328:189|389:169,1,102.361654577474,10|0,2:0|2:0,2:0:0:0:
209,232,224158,5,6,1:0:0:0:
280,46,224303,1,8,2:0:0:0:
313,284,224449,1,8,2:0:0:0:
279,62,224595,1,0,1:0:0:0:
195,259,224740,1,10,2:0:0:0:
274,74,224886,1,0,1:0:0:0:
319,316,225031,1,8,2:0:0:0:
158,149,225177,1,8,2:0:0:0:
388,231,225323,5,14,1:2:0:0:
388,231,225396,1,0,1:0:0:0:
388,231,225468,1,0,1:0:0:0:
194,308,225614,1,8,2:0:0:0:
280,124,225760,1,0,1:0:0:0:
280,124,225832,1,0,1:0:0:0:
280,124,225905,2,0,L|291:189,3,51.0641855109592,10|8|8|8,2:0|3:0|3:0|3:0,2:0:0:0:
251,256,226197,2,0,L|240:321,3,51.0641855109592,8|0|0|0,2:0|2:0|1:0|1:0,2:0:0:0:
154,152,226488,5,14,2:0:0:0:
355,210,226633,1,0,2:0:0:0:
130,143,226779,1,0,1:0:0:0:
248,12,226925,2,0,L|261:123,1,102.361654577474,12|0,2:0|2:0,2:0:0:0:
266,150,227143,1,0,1:0:0:0:
266,150,227216,1,0,1:0:0:0:
427,311,227362,2,0,L|438:209,1,102.361654577474,12|0,2:0|1:0,2:0:0:0:
336,47,227653,5,0,1:0:0:0:
278,237,227798,2,0,P|229:264|170:244,1,102.361654577474,14|0,2:0|2:0,2:0:0:0:
367,123,228090,1,0,1:0:0:0:
367,123,228163,1,0,1:0:0:0:
367,123,228235,2,0,L|469:140,1,102.361654577474,14|0,2:0|1:0,2:0:0:0:
187,26,228527,1,10,2:0:0:0:
187,26,228599,1,0,1:0:0:0:
187,26,228672,2,0,L|131:40,1,51.5307526220703,8|0,2:0|1:0,2:0:0:0:
28,176,228818,6,0,P|70:212|136:205,1,102.361654577474,6|0,1:0|2:0,2:0:0:0:
379,39,229255,6,0,P|326:57|299:118,1,102.361654577474,6|0,1:0|2:0,2:0:0:0:
297,384,229692,6,0,P|307:329|268:275,1,102.361654577474,6|0,1:0|2:0,2:0:0:0:
383,220,230711,5,0,1:0:0:0:
383,220,230784,1,0,1:0:0:0:
383,220,230857,2,0,P|342:227|296:232,1,71.1251142334391,8|0,2:0|2:0,2:0:0:0:
261,326,231148,6,0,P|293:288|249:163,1,185.807077133057,6|10,1:0|2:0,2:0:0:0:
149,275,231585,1,0,2:0:0:0:
203,108,231730,2,0,P|238:88|293:93,1,93.2222205665283,2|2,1:0|2:0,2:0:0:0:
88,151,232022,1,8,2:0:0:0:
257,180,232167,6,0,L|275:290,1,93.2222205665283,2|0,2:0|1:0,2:0:0:0:
435,108,232459,1,2,2:0:0:0:
384,278,232604,2,0,L|366:388,1,93.2222205665283,10|0,2:0|2:0,2:0:0:0:
273,86,232896,1,2,1:0:0:0:
348,254,233041,1,0,2:0:0:0:
408,45,233187,1,10,2:0:0:0:
294,188,233332,1,0,2:0:0:0:
92,26,233478,6,0,B|202:7|148:97|289:66,1,185.807077133057,2|10,1:0|2:0,2:0:0:0:
39,159,233915,1,0,2:0:0:0:
169,238,234061,2,0,L|158:127,1,92.5848565665283,2|2,1:0|2:0,2:0:0:0:
95,334,234352,1,8,2:0:0:0:
251,207,234497,6,0,P|297:202|355:239,1,93.2222205665283,2|0,2:0|1:0,2:0:0:0:
259,364,234789,1,2,2:0:0:0:
107,229,234934,2,0,P|62:230|13:265,1,93.2222205665283,10|0,2:0|2:0,2:0:0:0:
289,163,235226,1,2,1:0:0:0:
183,337,235371,1,2,2:0:0:0:
131,146,235517,1,8,2:0:0:0:
133,124,235590,1,8,2:0:0:0:
137,101,235663,1,8,2:0:0:0:
140,78,235735,1,8,2:0:0:0:
145,56,235808,6,0,B|201:122|201:122|128:231,1,185.807077133057,6|10,1:0|2:0,2:0:0:0:
40,116,236245,1,0,2:0:0:0:
134,293,236391,2,0,P|199:284|229:235,1,92.5848565665283,2|2,1:0|2:0,2:0:0:0:
363,124,236682,1,8,2:0:0:0:
339,337,236828,6,0,L|315:219,1,92.5848565665283,2|0,2:0|1:0,2:0:0:0:
501,55,237119,1,2,2:0:0:0:
445,295,237264,2,0,L|469:177,1,93.2222205665283,10|0,2:0|2:0,2:0:0:0:
298,37,237556,1,2,1:0:0:0:
376,238,237701,1,0,2:0:0:0:
442,20,237847,1,10,2:0:0:0:
324,151,237993,1,0,2:0:0:0:
187,16,238138,6,0,L|209:186,1,139.514648849792,14|0,2:0|2:0,2:0:0:0:
192,236,238430,2,0,L|200:301,3,46.2924282832642,0|0|0|0,1:0|1:0|1:0|1:0,2:0:0:0:
115,132,238721,5,10,2:0:0:0:
363,242,238866,1,10,2:0:0:0:
69,361,239158,5,14,2:0:0:0:
