osu file format v14

[General]
AudioFilename: audio.mp3
AudioLeadIn: 0
PreviewTime: 207192
Countdown: 0
SampleSet: Soft
StackLeniency: 0.7
Mode: 0
LetterboxInBreaks: 0
WidescreenStoryboard: 1

[Editor]
Bookmarks: 164431,191518,211906
DistanceSpacing: 3.3
BeatDivisor: 4
GridSize: 4
TimelineZoom: 1.6

[Metadata]
Title:Realize
TitleUnicode:Realize
Artist:Suzuki Konomi
ArtistUnicode:鈴木このみ
Creator:Sotarks
Version:Chiga's Hard
Source:Re:ゼロから始める異世界生活
Tags:starting life in chiga サテラ another world zero re:zero rezero kara Hajimeru Isekai Seikatsu from different anime op opening vocalist full version kujinn smokelind 2nd season fox emilia natsuki subaru rem ram theresia van astrea satella テレシ アヴァン アストレア reform white japanese female jpop j-pop
BeatmapID:2587025
BeatmapSetID:1244533

[Difficulty]
HPDrainRate:4
CircleSize:3.5
OverallDifficulty:7
ApproachRate:8
SliderMultiplier:1.42
SliderTickRate:1

[Events]
//Background and Video events
0,0,"bg.jpg",0,0
//Break Periods
2,42610,45738
2,117027,119573
2,182216,190786
//Storyboard Layer 0 (Background)
//Storyboard Layer 1 (Fail)
//Storyboard Layer 2 (Pass)
//Storyboard Layer 3 (Foreground)
//Storyboard Layer 4 (Overlay)
//Storyboard Sound Samples

[TimingPoints]
3964,291.26213592233,4,2,22,47,1,0
5129,-117.647058823529,4,2,22,77,0,0
10080,-117.647058823529,4,2,22,47,0,0
10663,-117.647058823529,4,2,22,57,0,0
11245,-117.647058823529,4,2,22,67,0,0
11828,-117.647058823529,4,2,22,77,0,0
13575,-117.647058823529,4,2,22,57,0,0
14449,-133.333333333333,4,2,22,47,0,0
23187,-133.333333333333,4,2,22,77,0,0
23769,-117.647058823529,4,2,22,77,0,0
33090,-117.647058823529,4,2,22,67,0,0
41828,-117.647058823529,4,2,22,57,0,0
42410,-117.647058823529,4,2,22,47,0,0
46488,-117.647058823529,4,2,22,57,0,0
46779,-117.647058823529,4,2,22,67,0,0
47070,-117.647058823529,4,2,22,77,0,0
56245,-105.263157894737,4,2,22,87,0,0
79692,-117.64705882353,4,2,22,77,0,0
87847,-117.64705882353,4,2,22,47,0,0
89012,-117.64705882353,4,2,22,57,0,0
98332,-117.64705882353,4,2,22,77,0,0
116973,-117.64705882353,4,2,22,47,0,0
120323,-117.64705882353,4,2,22,47,0,0
120468,-117.64705882353,4,2,22,57,0,0
121633,-117.64705882353,4,2,22,77,0,0
131536,-117.64705882353,4,2,22,57,0,0
131973,-105.263157894737,4,2,22,87,0,0
155347,-105.263157894737,4,2,22,5,0,0
155420,-105.263157894737,4,2,22,57,0,0
156002,-117.64705882353,4,2,22,57,0,0
164740,-117.64705882353,4,2,22,77,0,0
191536,-153.846153846154,4,2,22,27,0,0
206099,-153.846153846154,4,2,22,37,0,0
206682,-153.846153846154,4,2,22,47,0,0
207264,-133.333333333333,4,2,22,57,0,0
207701,-111.111111111111,4,2,22,77,0,0
212362,-100,4,2,22,87,0,0
231148,-111.111111111111,4,2,22,77,0,0

[Colours]
Combo1 : 221,255,253
Combo2 : 92,147,237
Combo3 : 234,111,231
Combo4 : 100,243,255

[HitObjects]
114,186,4546,5,8,3:0:0:0:
290,322,5129,6,0,B|369:308|369:308|391:312|391:312|474:297,2,181.168691786588,6|2|2,1:0|2:0|1:0,2:0:0:0:
194,227,6294,2,0,P|146:192|87:192,1,120.91726230217,4|0,1:0|1:0,2:0:0:0:
51,303,6876,2,0,P|98:337|157:337,1,120.91726230217,4|0,1:0|1:0,2:0:0:0:
308,179,7459,6,0,B|246:240|246:240|295:332,2,181.168691786588,6|2|2,1:0|2:0|1:0,2:0:0:0:
397,102,8624,2,0,L|462:114,1,60.4586311510849,0|4,1:0|3:2,0:0:0:0:
350,35,8915,2,0,P|287:5|238:20,1,120.91726230217,0|4,1:0|1:0,2:0:0:0:
179,113,9497,1,0,1:0:0:0:
37,52,9789,6,0,L|63:194,1,120.91726230217,6|0,1:0|1:0,2:0:0:0:
126,231,10226,1,2,3:0:0:0:
126,231,10371,2,0,L|110:306,1,60.4586311510849,0|0,1:0|3:0,0:0:0:0:
165,355,10663,2,0,P|188:373|226:380,1,60.4586311510849,2|8,1:0|3:0,0:0:0:0:
297,337,10954,5,8,2:0:0:0:
297,337,11099,1,8,2:0:0:0:
297,337,11245,2,0,L|366:349,1,60.4586311510849,8|8,2:0|2:0,0:0:0:0:
446,303,11536,5,8,2:0:0:0:
446,303,11682,1,8,2:0:0:0:
446,303,11828,2,0,L|378:315,1,60.4586311510849,8|8,2:0|2:0,0:0:0:0:
323,241,12119,5,10,2:0:0:0:
323,241,12264,2,0,P|311:184|345:136,2,120.710060635503,10|10|10,2:0|2:0|2:0,0:0:0:0:
463,310,13138,2,0,L|333:333,1,120.91726230217,10|0,2:0|1:0,0:0:0:0:
327,357,13502,1,0,1:0:0:0:
327,357,13575,6,0,B|288:361|258:385|258:385|237:356|198:336|198:336|220:335|237:327,1,181.375893453255,14|8,2:0|3:0,2:0:0:0:
275,264,14158,2,0,P|285:234|282:193,1,60.4586311510849,8|8,3:0|3:0,0:0:0:0:
209,161,14449,6,0,P|199:131|221:53,1,106.691704062653,6|2,1:0|2:0,2:0:0:0:
348,1,15031,2,0,L|332:109,1,106.691704062653,2|0,2:0|2:0,0:0:0:0:
343,190,15468,2,0,P|383:217|451:206,1,106.691704062653,2|0,2:0|0:0,0:0:0:0:
502,166,15905,2,0,P|462:138|394:149,2,106.508879062653,2|2|2,2:0|2:0|2:0,0:0:0:0:
510,245,16633,6,0,L|499:369,1,106.500004062653,2|2,2:0|2:0,0:0:0:0:
500,351,17653,1,2,2:0:0:0:
370,284,17944,2,0,B|327:276|301:318|301:318|275:363|220:353,1,160.037556093979,2|0,3:0|0:0,2:0:0:0:
165,308,18527,2,0,B|138:216|138:216|156:246|191:254,1,160.037556093979,2|0,2:0|0:0,0:0:0:0:
266,235,19109,5,2,2:0:0:0:
266,235,19692,2,0,P|285:201|259:125,1,106.691704062653,2|2,2:0|2:0,0:0:0:0:
156,69,20274,2,0,P|117:72|70:138,1,106.691704062653,2|2,3:0|2:0,2:0:0:0:
15,178,20711,2,0,L|44:291,1,106.691704062653,2|0,2:0|0:0,0:0:0:0:
20,356,21148,1,2,2:0:0:0:
141,289,21439,6,0,L|316:319,1,160.037556093979,2|0,2:0|0:0,2:0:0:0:
388,246,22022,2,0,P|286:238|246:292,1,160.037556093979,2|0,0:0|0:0,0:0:0:0:
372,382,22604,6,0,L|440:364,1,53.3458520313264,2|0,3:0|1:0,0:0:0:0:
510,343,22896,1,8,2:0:0:0:
388,246,23187,2,0,L|401:201,3,26.7338676823298,8|8|8|8,2:0|2:0|2:0|2:0,2:0:0:0:
391,189,23478,2,0,L|404:144,3,26.7338676823298,8|8|8|8,2:0|2:0|2:0|2:0,2:0:0:0:
392,131,23769,6,0,P|421:130|459:125,1,60.4586311510849,4|0,1:0|1:0,2:0:0:0:
325,56,24061,2,0,P|286:18|202:19,1,120.91726230217,10|2,2:0|1:0,2:0:0:0:
179,93,24497,2,0,L|193:165,1,60.4586311510849,2|8,1:0|2:0,2:0:0:0:
271,221,24789,6,0,L|249:359,1,120.91726230217,2|0,2:0|1:0,2:0:0:0:
162,366,25226,2,0,L|175:293,1,60.4586311510849,10|0,2:0|2:0,2:0:0:0:
123,226,25517,1,2,1:0:0:0:
123,226,25663,2,0,P|92:224|54:236,1,60.4586311510849,2|8,1:0|2:0,2:0:0:0:
190,152,25954,6,0,B|246:162|246:162|249:167|249:167|325:178,1,120.91726230217,2|0,2:0|1:0,2:0:0:0:
367,244,26391,2,0,P|360:280|354:324,1,60.4586311510849,10|2,2:0|2:0,0:0:0:0:
455,212,26682,2,0,P|487:169|464:86,1,120.91726230217,2|8,1:0|2:0,2:0:0:0:
415,31,27119,2,0,P|367:7|289:44,1,120.91726230217,2|0,2:0|1:0,2:0:0:0:
244,106,27556,2,0,L|177:92,1,60.4586311510849,12|0,2:0|1:0,0:0:0:0:
112,34,27847,2,0,P|109:23|105:-3,3,30.2983827977647,10|0|0|0,1:2|1:0|1:0|1:0,2:0:0:0:
90,59,28138,2,0,P|76:89|76:129,1,60.4586311510849,14|0,2:0|0:0,2:0:0:0:
58,215,28430,5,6,1:0:0:0:
58,215,28575,1,2,2:0:0:0:
58,215,28721,2,0,L|122:204,1,60.4586311510849,10|0,2:0|2:0,2:0:0:0:
198,138,29012,2,0,B|240:174|240:174|207:256,1,120.91726230217,2|10,1:0|2:0,2:0:0:0:
140,303,29449,1,2,2:0:0:0:
140,303,29595,6,0,P|190:334|256:326,2,120.710060635503,2|8|0,1:0|2:0|1:0,2:0:0:0:
47,271,30323,1,2,2:0:0:0:
47,271,30468,2,0,P|40:231|56:197,1,60.4586311510849,10|2,2:0|2:0,0:0:0:0:
133,158,30760,5,6,1:0:0:0:
133,158,30905,2,0,L|120:88,1,60.4586311510849,2|8,2:0|2:0,2:0:0:0:
226,18,31197,2,0,L|214:76,1,60.4586311510849,2|0,2:0|1:0,2:0:0:0:
263,159,31488,2,0,P|290:178|337:180,1,60.4586311510849,2|8,1:0|2:0,0:0:0:0:
427,141,31779,6,0,L|398:279,1,120.91726230217,6|8,1:0|2:0,2:0:0:0:
326,331,32216,2,0,L|312:257,1,60.4586311510849,10|2,2:0|1:0,0:0:0:0:
279,259,32434,1,0,1:0:0:0:
279,259,32507,2,0,P|249:268|205:278,1,60.4586311510849,10|0,2:0|1:0,2:0:0:0:
128,254,32798,1,10,3:0:0:0:
22,372,33090,6,0,L|-2:231,1,120.91726230217,6|0,1:0|1:0,2:0:0:0:
89,98,33672,2,0,P|160:104|193:148,1,120.91726230217,0|2,1:0|1:0,2:0:0:0:
254,216,34109,1,2,1:0:0:0:
254,216,34255,6,0,L|326:204,2,60.4586311510849,10|0|2,2:0|1:0|1:0,2:0:0:0:
176,270,34692,2,0,P|161:309|166:343,1,60.4586311510849,2|0,2:0|1:0,2:0:0:0:
109,202,34983,2,0,P|105:172|95:124,1,60.4586311510849,2|0,2:0|1:0,2:0:0:0:
20,100,35274,1,2,2:0:0:0:
20,100,35420,6,0,P|78:55|142:69,1,120.91726230217,4|2,1:0|1:0,2:0:0:0:
247,189,36002,2,0,L|373:171,1,120.91726230217,2|2,1:0|1:0,2:0:0:0:
434,107,36439,1,2,1:0:0:0:
434,107,36585,6,0,P|440:78|426:40,1,60.4586311510849,8|0,2:0|1:0,0:0:0:0:
365,172,36876,2,0,P|374:204|385:249,1,60.4586311510849,2|0,1:0|0:0,0:0:0:0:
472,276,37167,2,0,P|479:333|427:383,1,120.91726230217,10|10,2:0|3:0,2:0:0:0:
347,350,37604,1,10,3:0:0:0:
347,350,37750,6,0,P|283:363|262:366,1,60.4586311510849,4|0,1:0|1:0,0:0:0:0:
213,268,38041,2,0,P|242:273|271:280,1,60.4586311510849,0|0,1:0|2:0,2:0:0:0:
349,216,38332,2,0,P|360:157|378:79,1,120.91726230217,10|0,2:0|2:0,0:0:0:0:
313,23,38769,1,0,1:0:0:0:
313,23,38915,6,0,P|270:8|190:52,1,120.91726230217,6|0,2:0|1:0,0:0:0:0:
70,143,39497,2,0,P|113:128|193:173,1,120.91726230217,10|0,2:0|1:0,2:0:0:0:
277,263,40080,6,0,L|218:276,1,60.4586311510849,6|0,1:0|1:0,0:0:0:0:
139,329,40371,2,0,L|116:194,1,120.91726230217,0|8,1:0|2:0,2:0:0:0:
106,113,40808,2,0,L|85:232,1,120.91726230217,0|0,1:0|1:0,2:0:0:0:
20,353,41245,6,0,L|155:325,1,120.70000230217,0|0,1:0|1:0,0:0:0:0:
227,309,41682,1,0,1:0:0:0:
227,309,41828,2,0,L|214:370,1,60.3500011510849,10|8,3:0|3:0,0:0:0:0:
307,336,42119,2,0,L|319:276,1,60.3500011510849,10|8,3:0|3:0,0:0:0:0:
340,199,42410,1,2,2:0:0:0:
164,349,46488,6,0,B|217:341|217:341|224:344|224:344|285:333,1,120.91726230217,2|8,3:0|3:0,2:0:0:0:
76,306,47070,2,0,P|46:253|71:187,1,120.91726230217,6|0,1:0|1:0,2:0:0:0:
144,148,47507,1,0,2:0:0:0:
144,148,47653,2,0,L|130:77,1,60.4586311510849,2|0,1:0|2:0,2:0:0:0:
230,196,47944,2,0,L|300:183,1,60.4586311510849,0|0,1:0|2:0,0:0:0:0:
345,108,48235,6,0,P|414:77|478:100,1,120.91726230217,2|0,1:0|1:0,2:0:0:0:
488,182,48672,1,0,2:0:0:0:
488,182,48818,2,0,L|474:252,1,60.4586311510849,2|0,1:0|0:0,2:0:0:0:
395,284,49109,2,0,L|408:354,1,60.4586311510849,0|0,1:0|2:0,0:0:0:0:
321,217,49400,6,0,P|275:192|197:222,1,120.91726230217,6|0,1:0|1:0,2:0:0:0:
117,190,49837,2,0,P|89:216|80:257,1,60.4586311510849,0|0,2:0|1:0,0:0:0:0:
126,329,50129,1,2,2:0:0:0:
126,329,50274,2,0,L|200:315,1,60.4586311510849,2|2,1:0|2:0,0:0:0:0:
32,382,50565,5,6,1:0:0:0:
32,382,50711,1,8,2:0:0:0:
32,382,50857,2,0,L|17:323,1,60.4586311510849,10|0,2:0|1:0,2:0:0:0:
27,286,51075,1,0,1:0:0:0:
27,286,51148,2,0,L|12:226,1,60.4586311510849,10|0,2:0|1:0,2:0:0:0:
33,132,51439,2,0,P|70:107|103:109,1,60.4586311510849,10|0,3:0|1:0,2:0:0:0:
186,185,51730,6,0,B|217:194|245:194|245:194|269:178|297:147,1,120.91726230217,14|0,2:0|1:0,0:0:0:0:
291,56,52167,2,0,B|256:100|256:100|301:174,1,120.91726230217,14|0,2:0|1:0,0:0:0:0:
412,186,52604,2,0,L|377:310,1,120.91726230217,14|0,2:0|1:0,0:0:0:0:
278,382,53041,2,0,L|245:267,1,120.91726230217,14|0,2:0|1:0,0:0:0:0:
149,190,53478,2,0,P|117:201|72:218,1,60.4586311510849,14|0,2:0|1:0,0:0:0:0:
203,91,53769,2,0,P|231:101|258:112,1,60.4586311510849,10|0,2:0|1:0,0:0:0:0:
126,5,54061,6,0,P|64:11|22:68,1,120.91726230217,6|0,1:0|1:0,2:0:0:0:
203,91,54643,2,0,P|231:79|258:69,1,60.4586311510849,0|8,1:0|2:0,0:0:0:0:
347,58,54934,1,8,2:0:0:0:
347,58,55080,1,10,2:0:0:0:
347,58,55808,6,0,B|336:114|336:114|340:121|340:121|325:196,1,120.91726230217,10|0,3:0|0:0,2:0:0:0:
377,260,56245,6,0,P|443:274|495:224,1,135.142816397781,6|0,1:0|2:0,2:0:0:0:
329,175,56682,2,0,P|294:165|254:151,1,67.5714081988906,8|0,2:0|2:0,2:0:0:0:
176,89,56973,2,0,B|159:72|148:48|148:48|166:90|166:154,1,135.142816397781,2|8,1:0|2:0,2:0:0:0:
138,212,57410,1,0,2:0:0:0:
47,234,57556,6,0,P|7:210|0:175,1,67.5714081988906,2|0,1:0|2:0,2:0:0:0:
94,326,57847,2,0,P|128:337|174:348,1,67.5714081988906,8|0,2:0|2:0,2:0:0:0:
257,308,58138,2,0,P|301:341|381:319,1,135.142816397781,2|8,1:0|2:0,2:0:0:0:
469,283,58575,6,0,L|447:136,1,135.142816397781,2|2,2:0|2:0,2:0:0:0:
364,55,59012,2,0,L|343:191,1,135.142816397781,10|0,2:0|1:0,2:0:0:0:
257,220,59449,1,0,0:0:0:0:
176,178,59595,2,0,P|142:184|104:191,1,67.5714081988906,10|2,2:0|2:0,0:0:0:0:
23,153,59886,5,2,1:0:0:0:
23,153,60031,1,2,2:0:0:0:
8,246,60177,2,0,P|14:279|21:319,1,67.5714081988906,10|2,2:0|2:0,0:0:0:0:
87,373,60468,1,2,1:0:0:0:
161,308,60614,2,0,P|206:293|244:302,1,67.5714081988906,2|8,1:0|2:0,0:0:0:0:
331,382,60905,6,0,B|297:329|297:329|347:241,1,135.142816397781,6|0,1:0|1:0,2:0:0:0:
431,197,61342,2,0,L|278:153,2,134.911238064448,10|0|10,2:0|1:0|2:0,2:0:0:0:
508,145,62070,1,2,2:0:0:0:
446,63,62216,5,2,1:0:0:0:
446,63,62362,2,0,P|458:28|470:-6,1,67.5714081988906,2|8,2:0|2:0,2:0:0:0:
343,102,62653,2,0,P|355:137|367:173,1,67.5714081988906,2|0,2:0|1:0,2:0:0:0:
256,61,62944,1,2,1:0:0:0:
180,121,63090,1,8,2:0:0:0:
108,54,63235,6,0,B|63:95|63:95|100:184,1,135.142816397781,6|2,1:0|1:0,2:0:0:0:
20,251,63672,2,0,P|104:255|146:314,1,135.142816397781,10|0,2:0|1:0,2:0:0:0:
151,373,64109,1,2,1:0:0:0:
231,316,64255,1,8,2:0:0:0:
326,366,64400,6,0,B|335:306|335:306|332:296|332:296|341:227,1,135.142816397781,6|8,1:0|2:0,2:0:0:0:
292,158,64837,1,8,2:0:0:0:
375,106,64983,1,0,1:0:0:0:
375,106,65056,1,0,1:0:0:0:
375,106,65129,1,10,2:0:0:0:
347,8,65274,2,0,P|405:-2|430:13,1,67.5714081988906,2|8,1:0|2:0,0:0:0:0:
250,32,65565,6,0,L|95:4,1,135.142816397781,6|0,1:0|1:0,2:0:0:0:
44,113,66002,2,0,L|110:100,1,67.5714081988906,8|0,2:0|2:0,2:0:0:0:
208,161,66294,2,0,P|243:209|222:295,1,135.142816397781,2|8,1:0|2:0,2:0:0:0:
150,318,66730,1,0,2:0:0:0:
75,250,66876,6,0,L|8:262,1,67.5714081988906,2|0,1:0|2:0,2:0:0:0:
112,106,67167,2,0,L|123:172,1,67.5714081988906,8|0,2:0|2:0,2:0:0:0:
229,232,67459,2,0,P|308:229|349:164,1,135.142816397781,2|8,1:0|2:0,2:0:0:0:
335,104,67896,2,0,P|322:64|327:30,1,67.5714081988906,2|0,2:0|1:0,2:0:0:0:
416,8,68187,1,2,2:0:0:0:
487,79,68332,6,0,L|453:219,1,135.142816397781,10|0,2:0|1:0,2:0:0:0:
430,298,68769,1,0,0:0:0:0:
352,236,68915,2,0,P|318:226|268:243,1,67.5714081988906,10|0,2:0|2:0,0:0:0:0:
213,321,69206,6,0,L|181:190,2,134.911238064448,2|10|2,1:0|2:0|1:0,2:0:0:0:
140,377,69934,1,0,2:0:0:0:
53,333,70080,2,0,P|41:296|55:250,1,67.5714081988906,10|0,2:0|1:0,2:0:0:0:
70,236,70298,1,0,1:0:0:0:
70,236,70371,6,0,B|131:247|131:247|136:252|136:252|208:262,1,135.142816397781,2|10,1:0|2:0,2:0:0:0:
281,318,70808,2,0,B|315:250|315:250|268:197,1,135.142816397781,2|0,2:0|2:0,2:0:0:0:
190,169,71245,2,0,P|180:127|200:86,1,67.5714081988906,10|0,2:0|2:0,2:0:0:0:
256,39,71536,1,2,1:0:0:0:
163,1,71682,6,0,P|130:9|29:28,1,135.142816397781,2|0,2:0|2:0,2:0:0:0:
83,118,72119,2,0,P|148:129|176:138,1,67.5714081988906,2|0,1:0|2:0,2:0:0:0:
18,184,72410,2,0,P|0:216|10:263,1,67.5714081988906,10|0,2:0|2:0,2:0:0:0:
80,304,72701,5,2,1:0:0:0:
80,304,72847,1,0,1:0:0:0:
164,262,72993,2,0,L|146:112,1,135.142816397781,12|2,2:0|1:0,2:0:0:0:
208,64,73430,1,0,1:0:0:0:
286,112,73575,2,0,L|365:96,1,67.5714081988906,12|0,2:0|2:0,2:0:0:0:
423,204,73866,6,0,L|345:189,1,67.5714081988906,2|0,1:0|1:0,0:0:0:0:
475,118,74158,1,8,2:0:0:0:
475,118,74303,2,0,L|443:259,1,135.142816397781,0|0,1:0|1:0,2:0:0:0:
458,279,74667,1,0,1:0:0:0:
458,279,74740,2,0,L|443:346,1,67.5714081988906,8|0,2:0|1:0,2:0:0:0:
347,382,75031,6,0,P|299:363|270:357,2,67.5714081988907,14|0|0,2:0|1:0|1:0,0:0:0:0:
395,301,75468,2,0,P|426:291|457:278,2,67.5714081988907,12|0|0,2:0|1:0|1:0,2:0:0:0:
303,238,75905,2,0,P|297:203|286:157,2,67.5714081988907,12|0|0,2:0|1:0|1:0,0:0:0:0:
213,316,76342,6,0,P|159:320|110:255,1,135.142816397781,14|0,2:0|1:0,2:0:0:0:
33,197,76779,2,0,P|62:162|95:156,1,67.5714081988906,14|0,2:0|1:0,2:0:0:0:
204,93,77070,2,0,L|129:73,1,67.5714081988906,10|0,2:0|1:0,2:0:0:0:
271,212,77362,6,0,B|330:196|330:196|337:197|337:197|407:178,1,135.142816397781,14|4,2:0|1:3,0:0:0:0:
434,189,77726,1,4,1:3:0:0:
434,189,77798,2,0,P|463:219|434:312,1,135.142816397781,10|4,2:0|1:3,0:0:0:0:
355,308,78235,1,10,2:0:0:0:
355,308,79328,1,0,3:0:0:0:
355,308,79400,6,0,L|345:181,1,101.58869063167,10|0,2:0|2:0,2:0:0:0:
370,179,79692,6,0,P|401:174|444:165,1,60.4586311510848,6|0,1:0|2:0,2:0:0:0:
308,107,79983,2,0,P|270:87|227:92,1,60.4586311510848,10|0,2:0|2:0,2:0:0:0:
188,158,80274,2,0,P|137:185|69:157,1,120.91726230217,2|8,1:0|2:0,0:0:0:0:
48,82,80711,6,0,L|31:225,1,120.91726230217,2|2,2:0|2:0,2:0:0:0:
128,282,81148,2,0,L|116:200,1,60.4586311510848,10|0,2:0|2:0,2:0:0:0:
202,169,81439,1,2,1:0:0:0:
202,169,81585,1,0,2:0:0:0:
202,169,81730,2,0,P|256:185|272:208,1,60.4586311510848,10|0,2:0|2:0,0:0:0:0:
331,254,82022,6,0,L|205:276,1,120.91726230217,2|10,1:0|2:0,2:0:0:0:
107,366,82459,2,0,P|129:324|126:286,1,60.4586311510848,0|2,2:0|1:0,0:0:0:0:
66,247,82750,1,2,2:0:0:0:
66,247,82896,6,0,P|39:192|61:124,1,120.91726230217,8|0,2:0|1:0,0:0:0:0:
198,175,83332,2,0,P|200:211|179:250,1,60.3500011510849,2|10,2:0|2:0,0:0:0:0:
129,313,83624,1,0,2:0:0:0:
129,313,83769,2,0,P|107:355|110:393,1,60.4586311510848,2|2,1:0|2:0,0:0:0:0:
192,234,84061,2,0,L|181:193,3,30.2983827977647,8|8|8|8,2:0|2:0|2:0|2:0,0:0:0:0:
201,266,84352,6,0,B|256:255|256:255|261:258|261:258|339:241,1,120.91726230217,6|10,1:0|2:0,2:0:0:0:
392,295,84789,2,0,B|420:240|420:240|386:192,1,120.91726230217,0|2,2:0|2:0,0:0:0:0:
301,155,85226,2,0,P|285:116|296:81,1,60.4586311510848,8|2,2:0|2:0,0:0:0:0:
340,26,85517,1,0,1:0:0:0:
340,26,85663,6,0,P|417:24|457:71,1,120.91726230217,2|0,2:0|2:0,0:0:0:0:
507,125,86099,2,0,P|475:129|436:138,1,60.4586311510848,2|0,1:0|2:0,0:0:0:0:
367,212,86391,2,0,P|397:216|437:225,1,60.4586311510848,10|0,2:0|2:0,0:0:0:0:
498,289,86682,6,0,P|492:344|420:381,1,120.91726230217,14|0,2:0|3:0,2:0:0:0:
419,363,87046,1,0,3:0:0:0:
407,367,87119,2,0,L|369:359,1,30.4365172422092,0|0,3:0|3:0,3:0:0:0:
343,371,87264,2,0,L|274:358,1,60.4586311510848,10|10,2:0|2:0,0:0:0:0:
212,242,87701,1,2,1:0:0:0:
46,281,87993,5,8,0:0:0:0:
46,281,88138,2,0,L|60:348,1,60.4586311510848,8|4,2:0|1:3,0:0:0:0:
65,367,88357,1,4,1:3:0:0:
74,374,88430,5,8,2:0:0:0:
145,326,88575,1,8,2:0:0:0:
224,380,88721,2,0,P|257:372|293:369,1,60.4586311510848,8|8,2:0|2:0,0:0:0:0:
364,303,89012,6,0,P|377:246|339:195,1,120.91726230217,4|2,1:0|1:0,2:0:0:0:
252,171,89449,2,0,P|218:178|172:184,2,60.4586311510849,0|2|2,2:0|1:0|2:0,0:0:0:0:
300,96,89886,1,0,1:0:0:0:
300,96,90031,6,0,P|352:59|421:80,1,120.91726230217,10|8,2:0|3:0,2:0:0:0:
499,85,90468,2,0,P|491:113|482:159,1,60.4586311510848,2|0,1:0|2:0,2:0:0:0:
411,227,90760,2,0,P|404:197|397:169,1,60.4586311510848,2|0,1:0|2:0,2:0:0:0:
300,96,91051,1,2,1:0:0:0:
300,96,91197,6,0,B|244:103|244:103|240:108|240:108|166:119,1,120.91726230217,10|2,2:0|2:0,2:0:0:0:
101,81,91633,2,0,B|84:75|69:60|69:60|87:102|97:149,1,120.70000230217,2|0,1:0|1:0,2:0:0:0:
18,264,92216,2,0,P|11:293|5:323,1,60.3500011510849,2|8,1:0|2:0,0:0:0:0:
85,361,92507,6,0,P|144:352|223:342,2,120.710060635503,2|0|2,1:0|1:0|1:0,2:0:0:0:
20,269,93235,2,0,P|14:233|6:195,1,60.4586311510848,0|8,0:0|2:0,0:0:0:0:
53,121,93527,1,0,3:0:0:0:
53,121,93672,6,0,P|120:88|178:118,1,120.91726230217,6|0,1:0|1:0,2:0:0:0:
226,176,94109,1,0,2:0:0:0:
226,176,94255,2,0,P|257:168|296:165,2,60.4586311510849,0|0|0,1:0|0:0|1:0,2:0:0:0:
164,249,94692,1,8,2:0:0:0:
164,249,94837,2,0,P|168:279|175:309,1,60.4586311510848,0|0,1:0|2:0,2:0:0:0:
261,358,95129,6,0,P|295:356|328:329,1,60.4586311510848,2|0,1:0|2:0,2:0:0:0:
369,270,95420,2,0,P|394:255|427:255,1,60.4586311510848,2|0,1:0|1:0,0:0:0:0:
493,313,95711,1,14,2:0:0:0:
453,173,96002,6,0,L|468:109,2,60.4586311510849,6|0|8,1:0|1:0|2:0,0:0:0:0:
380,240,96439,2,0,P|318:230|285:170,1,120.91726230217,2|0,1:0|1:0,2:0:0:0:
213,141,96876,2,0,P|233:115|264:102,1,60.4586311510848,10|0,2:0|1:0,0:0:0:0:
354,52,97167,6,0,L|394:61,3,30.2983827977647,10|8|8|8,2:0|3:0|3:0|3:0,2:0:0:0:
408,86,97459,2,0,L|448:95,3,30.2983827977647,0|0|8|8,1:0|1:0|2:0|3:0,2:0:0:0:
462,119,97750,2,0,P|452:155|445:193,1,60.4586311510848,10|0,3:0|1:0,0:0:0:0:
467,266,98041,1,8,2:0:0:0:
332,184,98332,6,0,P|277:179|230:245,1,120.91726230217,12|2,2:0|1:0,0:0:0:0:
209,316,98769,2,0,B|244:256|244:256|221:239|217:212,1,120.91726230217,14|2,2:0|1:0,2:0:0:0:
129,169,99206,2,0,B|87:164|44:185|44:185|58:171|60:150,1,120.91726230217,12|0,2:0|1:0,0:0:0:0:
62,60,99643,2,0,P|23:73|14:160,1,120.91726230217,12|0,2:0|1:0,2:0:0:0:
66,221,100080,2,0,P|59:250|53:287,1,60.4586311510848,14|2,2:0|1:0,0:0:0:0:
152,348,100371,2,0,P|146:319|140:289,1,60.4586311510848,8|2,2:0|1:0,0:0:0:0:
216,192,100663,6,0,B|273:201|273:201|279:207|279:207|348:216,1,120.91726230217,12|2,2:0|1:0,2:0:0:0:
406,156,101099,2,0,B|349:165|349:165|343:171|343:171|274:180,1,120.91726230217,12|2,2:0|1:0,2:0:0:0:
229,96,101536,2,0,P|244:47|315:32,1,120.91726230217,12|0,2:0|1:0,2:0:0:0:
387,71,101973,1,12,2:0:0:0:
387,71,102119,2,0,L|366:148,1,60.4586311510848,8|0,2:0|1:0,2:0:0:0:
289,177,102410,2,0,L|310:253,1,60.4586311510848,10|0,1:3|1:0,2:0:0:0:
381,287,102701,1,14,1:3:0:0:
319,356,102847,1,0,1:0:0:0:
319,356,102920,1,0,1:0:0:0:
319,356,102993,6,0,P|256:371|201:334,1,120.91726230217,14|2,2:0|1:0,0:0:0:0:
164,264,103430,2,0,P|112:237|55:253,1,120.91726230217,12|0,2:0|1:0,0:0:0:0:
104,316,103866,2,0,L|125:172,1,120.91726230217,14|2,2:0|1:0,2:0:0:0:
221,170,104303,2,0,L|199:26,1,120.91726230217,12|0,2:0|1:0,2:0:0:0:
99,20,104740,2,0,P|66:29|23:38,1,60.4586311510848,12|2,2:0|1:0,0:0:0:0:
202,50,105031,2,0,P|235:42|277:33,1,60.4586311510848,10|2,2:0|1:0,0:0:0:0:
349,46,105323,5,14,2:0:0:0:
310,129,105468,1,2,1:0:0:0:
310,129,105541,1,0,1:0:0:0:
310,129,105614,1,8,2:0:0:0:
384,185,105760,2,0,P|394:218|375:261,1,60.4586311510848,6|0,1:0|0:0,0:0:0:0:
309,297,106051,2,0,P|303:326|313:353,1,60.4586311510848,2|0,1:0|0:0,0:0:0:0:
412,382,106342,6,0,B|454:363|497:368|497:368|478:359|467:341,1,120.91726230217,6|8,1:0|2:0,2:0:0:0:
469,320,106706,1,0,0:0:0:0:
475,310,106779,2,0,P|479:275|483:234,1,60.4586311510848,2|0,1:0|1:0,0:0:0:0:
389,187,107070,6,0,L|330:194,2,40.3057541007233,10|8|8,2:0|2:3|2:3,2:0:0:0:
338,215,107362,2,0,L|295:221,2,40.3057541007233,10|12|12,2:0|2:3|2:3,2:0:0:0:
291,247,107653,6,0,L|215:260,1,60.4586311510848,6|0,1:0|1:0,0:0:0:0:
148,276,107944,1,0,1:0:0:0:
148,276,108090,2,0,P|113:226|135:160,1,120.91726230217,0|0,1:0|1:0,2:0:0:0:
202,115,108527,2,0,P|194:82|187:40,1,60.4586311510848,0|0,1:0|0:0,0:0:0:0:
286,168,108818,6,0,B|359:151|359:151|383:159|383:159|470:137,1,181.375893453255,8|0,2:0|0:0,2:0:0:0:
505,228,109400,2,0,P|488:284|471:352,1,120.91726230217,0|0,2:0|0:0,0:0:0:0:
384,369,109837,1,0,1:0:0:0:
384,369,109910,1,0,1:0:0:0:
384,369,109983,6,0,P|345:345|314:346,1,60.4586311510848,6|0,1:0|1:0,0:0:0:0:
243,382,110274,1,0,1:0:0:0:
243,382,110420,2,0,B|217:328|217:328|261:278,1,120.91726230217,0|0,1:0|1:0,2:0:0:0:
343,256,110857,2,0,P|356:228|349:190,1,60.4586311510848,0|0,1:0|0:0,0:0:0:0:
311,116,111148,6,0,P|277:92|198:115,1,120.91726230217,8|2,2:0|1:0,2:0:0:0:
189,137,111512,1,0,1:0:0:0:
189,137,111585,1,0,1:0:0:0:
100,82,111730,2,0,L|114:23,2,60.4586311510849,10|0|0,2:0|1:0|0:0,0:0:0:0:
26,147,112167,1,8,2:0:0:0:
31,153,112313,6,0,P|14:198|17:221,1,60.4586311510848,6|0,1:0|1:0,0:0:0:0:
27,294,112604,2,0,P|71:328|146:310,1,120.91726230217,0|10,1:0|2:0,0:0:0:0:
192,250,113041,2,0,L|172:127,2,120.710060635503,0|0|2,1:0|1:0|1:0,0:0:0:0:
266,309,113769,2,0,P|296:318|341:309,1,60.4586311510848,2|0,1:0|0:0,0:0:0:0:
192,250,114061,2,0,P|158:258|113:269,1,60.4586311510848,10|0,2:0|1:0,0:0:0:0:
255,139,114352,2,0,P|259:168|265:199,1,60.4586311510848,0|0,0:0|1:0,0:0:0:0:
165,86,114643,5,6,1:0:0:0:
165,86,114789,2,0,P|204:44|273:41,1,120.91726230217,0|2,1:0|2:0,0:0:0:0:
340,97,115226,1,8,2:0:0:0:
340,97,115371,2,0,L|465:74,2,120.710060635503,0|0|2,1:0|1:0|1:0,2:0:0:0:
262,37,116099,6,0,B|213:63|213:63|246:129,1,120.91726230217,0|10,1:0|2:0,0:0:0:0:
310,178,116536,1,8,3:0:0:0:
310,178,116682,2,0,P|303:207|295:251,1,60.4586311510848,10|8,3:0|3:0,0:0:0:0:
297,236,120323,5,0,1:0:0:0:
297,236,120396,1,0,1:0:0:0:
297,236,120468,2,0,L|305:288,3,30.2983827977647,2|0|0|0,1:2|1:2|1:2|1:2,1:2:0:0:
321,287,120760,2,0,L|329:338,3,30.2983827977647,2|0|0|0,1:2|1:2|1:2|1:2,1:2:0:0:
345,335,121051,2,0,P|402:345|426:235,1,181.375893453255,2|0,1:2|1:2,1:2:0:0:
376,191,121633,6,0,L|401:66,1,120.91726230217,6|0,1:0|1:0,2:0:0:0:
217,1,122216,2,0,L|242:125,1,120.91726230217,2|8,1:0|2:3,2:0:0:0:
181,192,122653,1,0,2:0:0:0:
181,192,122798,2,0,P|137:208|108:202,1,60.4586311510848,2|0,1:0|2:0,2:0:0:0:
43,148,123090,2,0,P|44:100|61:75,1,60.4586311510848,0|0,1:0|2:0,2:0:0:0:
1,242,123381,6,0,P|11:274|21:316,1,60.4586311510848,2|0,1:0|2:0,0:0:0:0:
101,376,123672,2,0,P|108:346|116:319,1,60.4586311510848,0|0,1:0|1:0,0:0:0:0:
209,252,123963,2,0,P|269:234|325:278,1,120.91726230217,6|8,1:0|2:0,2:0:0:0:
335,358,124400,1,0,1:0:0:0:
335,358,124546,2,0,L|399:346,1,60.4586311510848,0|2,1:0|1:0,0:0:0:0:
465,267,124837,2,0,L|400:255,1,60.4586311510848,10|10,2:0|2:0,0:0:0:0:
354,167,125129,6,0,B|362:118|362:118|367:116|367:116|379:40,1,120.91726230217,6|10,1:0|2:0,0:0:0:0:
302,4,125565,1,0,1:0:0:0:
302,4,125638,1,0,1:0:0:0:
302,4,125711,2,0,P|271:4|241:20,1,60.4586311510848,10|0,2:0|1:0,2:0:0:0:
181,93,126002,2,0,P|172:122|180:157,1,60.4586311510848,10|0,3:0|1:0,0:0:0:0:
262,233,126294,6,0,L|403:203,1,120.91726230217,14|0,2:0|1:0,2:0:0:0:
495,141,126730,2,0,L|354:111,1,120.91726230217,14|0,2:0|1:0,2:0:0:0:
312,26,127167,2,0,P|271:2|193:20,1,120.91726230217,14|0,2:0|1:0,2:0:0:0:
191,145,127604,2,0,P|232:169|310:151,1,120.91726230217,14|0,2:0|1:0,2:0:0:0:
126,71,128041,2,0,L|52:58,1,60.4586311510848,14|0,2:0|1:0,0:0:0:0:
180,203,128332,2,0,L|193:129,1,60.4586311510848,14|0,2:0|1:0,0:0:0:0:
27,223,128624,6,0,L|52:362,1,120.91726230217,6|0,1:0|1:0,2:0:0:0:
238,218,129206,2,0,P|206:211|169:199,1,60.4586311510848,0|8,1:0|3:0,0:0:0:0:
323,192,129497,1,8,3:0:0:0:
323,192,129643,1,8,2:0:0:0:
383,321,129934,6,0,L|366:389,2,60.4586311510849,10|0|0,2:0|1:0|1:0,0:0:0:0:
510,271,130371,2,0,L|441:254,2,60.4586311510849,10|0|8,2:0|1:0|3:0,0:0:0:0:
372,190,130808,2,0,P|365:155|376:105,2,60.4586311510849,0|10|0,1:0|3:0|1:0,0:0:0:0:
310,265,131245,1,0,1:0:0:0:
310,265,131391,1,8,2:0:0:0:
236,199,131536,6,0,B|178:208|178:208|173:213|173:213|97:224,1,120.91726230217,2|0,2:0|0:0,2:0:0:0:
46,287,131973,6,0,P|26:193|53:146,1,135.142816397781,6|0,1:0|1:0,2:0:0:0:
101,92,132410,2,0,P|102:50|87:17,1,67.5714081988906,8|0,2:0|2:0,2:0:0:0:
178,162,132701,2,0,L|321:141,1,135.142816397781,2|8,1:0|2:0,0:0:0:0:
406,151,133138,1,0,2:0:0:0:
464,228,133284,6,0,P|455:263|449:301,1,67.4499981988907,2|8,1:0|1:3,0:0:0:0:
362,383,133575,2,0,P|356:349|347:317,1,67.5714081988906,8|0,2:0|2:0,2:0:0:0:
331,218,133866,2,0,P|249:208|208:163,1,135.142816397781,2|8,1:0|2:0,0:0:0:0:
139,96,134303,2,0,B|185:142|185:142|153:222,1,135.142816397781,6|10,1:0|1:3,2:0:0:0:
66,232,134740,2,0,B|20:278|20:278|52:358,1,135.142816397781,10|0,2:0|1:0,2:0:0:0:
135,367,135177,1,0,1:0:0:0:
208,310,135323,2,0,P|253:305|287:323,1,67.5714081988906,10|2,2:0|2:0,0:0:0:0:
340,382,135614,5,2,1:0:0:0:
340,382,135760,1,2,1:0:0:0:
407,309,135905,2,0,L|392:234,1,67.5714081988906,10|2,2:0|2:0,0:0:0:0:
293,193,136197,2,0,L|321:59,1,135.142816397781,2|10,1:0|2:0,2:0:0:0:
414,11,136633,6,0,P|484:31|506:103,1,135.142816397781,6|10,1:0|1:3,2:0:0:0:
443,165,137070,2,0,P|374:145|352:72,1,135.142816397781,10|0,2:0|1:0,2:0:0:0:
269,18,137507,1,0,1:0:0:0:
240,115,137653,2,0,P|228:148|214:182,1,67.5714081988906,10|2,2:0|2:0,0:0:0:0:
130,214,137944,5,2,1:0:0:0:
130,214,138090,1,2,1:0:0:0:
58,149,138235,2,0,P|56:105|90:72,1,67.5714081988906,10|2,2:0|2:0,0:0:0:0:
161,50,138527,1,2,1:0:0:0:
240,115,138672,2,0,P|275:106|317:100,1,67.5714081988906,2|8,1:0|2:0,2:0:0:0:
369,24,138963,6,0,B|423:58|423:58|389:152,1,135.142816397781,6|10,1:0|1:3,2:0:0:0:
303,205,139400,2,0,L|285:132,1,67.5714081988906,10|0,2:0|1:0,0:0:0:0:
412,242,139692,2,0,L|397:307,1,67.5714081988906,8|2,2:0|1:0,0:0:0:0:
336,375,139983,1,8,2:0:0:0:
272,296,140129,6,0,P|214:264|139:287,1,135.142816397781,6|8,1:0|2:0,2:0:0:0:
96,355,140565,1,8,2:0:0:0:
24,290,140711,2,0,L|-10:277,2,33.7857040994454,0|0|10,1:0|1:0|2:0,2:0:0:0:
88,214,141002,1,2,1:0:0:0:
88,214,141075,1,0,1:0:0:0:
88,214,141148,1,8,2:0:0:0:
19,140,141294,6,0,P|19:78|97:32,1,135.142816397781,6|8,1:0|1:3,2:0:0:0:
166,26,141730,2,0,P|200:35|236:43,1,67.5714081988906,8|0,2:0|2:0,2:0:0:0:
340,107,142022,2,0,P|307:114|206:149,1,135.142816397781,2|8,1:0|2:0,0:0:0:0:
162,227,142459,1,0,2:0:0:0:
199,314,142604,6,0,P|231:337|287:331,1,67.5714081988906,2|8,1:0|1:3,0:0:0:0:
335,222,142896,2,0,P|339:261|305:307,1,67.5714081988906,8|0,2:0|2:0,2:0:0:0:
246,168,143187,2,0,P|255:129|274:22,1,135.142816397781,2|8,1:0|2:0,0:0:0:0:
182,1,143624,6,0,P|151:8|95:15,1,67.5714081988906,6|0,1:0|0:0,2:0:0:0:
23,11,143915,1,10,1:3:0:0:
63,99,144061,2,0,B|48:163|48:163|51:174|51:174|31:244,1,135.142816397781,10|0,2:0|1:0,2:0:0:0:
18,319,144497,1,0,1:0:0:0:
109,285,144643,2,0,P|166:297|189:324,1,67.5714081988906,10|0,2:0|2:0,2:0:0:0:
232,374,144934,6,0,L|368:350,2,134.911238064448,6|10|2,1:0|2:0|1:0,2:0:0:0:
171,301,145663,1,0,1:0:0:0:
235,224,145808,2,0,L|278:234,2,33.7857040994454,10|8|4,2:0|2:3|2:3,0:0:0:0:
163,159,146099,6,0,P|150:90|208:46,1,135.142816397781,6|10,1:0|2:0,2:0:0:0:
279,13,146536,2,0,B|303:37|335:50|335:50|367:46|412:32,1,135.142816397781,2|0,2:0|2:0,2:0:0:0:
501,18,146973,2,0,P|490:47|480:86,1,67.5714081988906,10|0,2:0|2:0,2:0:0:0:
492,179,147264,1,2,1:0:0:0:
400,135,147410,2,0,P|349:147|320:231,1,135.142816397781,2|0,2:0|2:0,2:0:0:0:
365,297,147847,2,0,P|400:288|436:283,1,67.5714081988906,2|0,1:0|2:0,2:0:0:0:
296,366,148138,2,0,P|263:374|231:379,1,67.5714081988906,10|0,2:0|2:0,2:0:0:0:
145,339,148430,5,2,1:0:0:0:
145,339,148575,1,4,1:3:0:0:
198,259,148721,2,0,L|169:103,1,135.142816397781,8|2,2:0|1:0,2:0:0:0:
111,63,149158,1,4,1:3:0:0:
23,107,149303,2,0,P|9:144|28:192,1,67.5714081988906,12|0,2:0|1:0,2:0:0:0:
103,226,149595,6,0,B|162:213|162:213|171:216|171:216|253:198,1,135.142816397781,2|8,1:0|2:0,0:0:0:0:
331,224,150031,1,0,1:0:0:0:
331,224,150104,1,0,1:0:0:0:
331,224,150177,2,0,P|349:258|340:302,1,67.5714081988906,10|0,2:0|1:0,2:0:0:0:
293,135,150468,2,0,P|302:104|312:59,1,67.5714081988906,8|0,2:0|1:0,2:0:0:0:
204,33,150760,6,0,L|110:47,2,67.5714081988907,14|0|0,2:0|1:0|1:0,0:0:0:0:
293,135,151197,2,0,L|388:149,2,67.5714081988907,12|0|0,2:0|1:0|1:0,2:0:0:0:
177,196,151633,2,0,P|159:232|162:273,2,67.5714081988907,12|0|0,2:0|1:0|1:0,0:0:0:0:
118,81,152070,6,0,P|70:45|-15:75,1,135.142816397781,14|0,2:0|1:0,2:0:0:0:
132,173,152507,2,0,P|170:163|224:156,1,67.5714081988906,14|0,2:0|1:0,2:0:0:0:
67,282,152798,2,0,P|33:276|1:268,1,67.5714081988906,10|0,2:0|1:0,2:0:0:0:
187,360,153090,6,0,B|212:333|242:323|242:323|276:327|303:346,1,135.142816397781,14|0,2:0|1:0,0:0:0:0:
325,375,153454,1,0,1:0:0:0:
325,373,153527,2,0,P|336:330|370:229,1,135.142816397781,10|2,2:0|1:0,0:0:0:0:
431,188,153963,1,10,2:0:0:0:
431,188,155129,2,0,P|392:143|337:145,1,101.58869063167,8|0,3:0|0:0,0:0:0:0:
326,157,155420,5,6,1:0:0:0:
148,52,156002,2,0,L|166:178,1,120.91726230217,0|8,1:0|2:0,2:0:0:0:
72,237,156439,2,0,L|84:162,2,60.4586311510849,8|8|8,2:0|2:0|2:0,0:0:0:0:
5,359,157167,2,0,P|63:320|120:336,1,120.91726230217,8|0,2:0|3:0,2:0:0:0:
231,239,157750,6,0,B|273:285|273:285|242:340,1,120.91726230217,6|0,1:0|0:0,2:0:0:0:
165,171,158332,2,0,L|182:51,1,120.91726230217,0|8,1:0|2:0,2:0:0:0:
103,20,158769,2,0,P|73:9|35:14,2,60.4586311510849,8|8|8,2:0|2:0|2:0,0:0:0:0:
254,137,159497,2,0,P|295:153|371:126,1,120.91726230217,8|0,2:0|3:0,2:0:0:0:
393,38,159934,1,0,2:0:0:0:
393,38,160080,6,0,L|412:183,1,120.91726230217,6|0,1:0|0:0,2:0:0:0:
503,227,160663,2,0,P|512:284|478:332,1,120.91726230217,0|8,1:0|2:0,2:0:0:0:
390,373,161099,2,0,P|350:349|313:347,2,60.4586311510849,8|8|8,2:0|2:0|2:0,0:0:0:0:
226,381,161828,2,0,L|202:235,1,120.91726230217,8|0,2:0|2:0,2:0:0:0:
35,202,162410,6,0,P|80:161|151:171,1,120.91726230217,6|0,1:0|0:0,2:0:0:0:
292,230,162993,2,0,L|419:205,1,120.91726230217,0|8,1:0|2:0,2:0:0:0:
484,147,163430,2,0,L|470:80,1,60.4586311510848,8|8,2:0|2:0,0:0:0:0:
440,290,164158,1,0,1:0:0:0:
326,157,164449,6,0,P|284:146|262:122,1,60.4586311510848,8|0,3:0|3:0,0:0:0:0:
213,45,164740,2,0,B|268:105|268:105|217:202,1,181.050003453255,6|0,1:0|2:0,2:0:0:0:
124,176,165323,2,0,L|149:298,1,120.91726230217,0|8,1:0|2:0,2:0:0:0:
50,362,165760,2,0,L|62:304,1,60.4586311510848,8|8,2:0|2:0,0:0:0:0:
31,222,166051,6,0,P|49:189|144:191,1,120.91726230217,0|0,2:0|2:0,0:0:0:0:
213,203,166488,2,0,P|247:196|284:194,1,60.4586311510848,8|0,3:0|0:0,2:0:0:0:
331,110,166779,2,0,P|300:106|271:101,1,60.4586311510848,0|0,2:0|3:0,0:0:0:0:
406,177,167070,6,0,P|435:111|369:32,1,181.050003453255,6|0,1:0|2:0,2:0:0:0:
285,17,167653,2,0,L|164:-1,1,120.91726230217,0|8,1:0|2:0,2:0:0:0:
157,109,168090,2,0,L|240:95,1,60.4586311510848,8|8,2:0|2:0,0:0:0:0:
100,50,168381,6,0,P|80:77|75:110,1,60.4586311510848,8|0,2:0|0:0,2:0:0:0:
13,172,168672,1,0,2:0:0:0:
13,172,168818,2,0,L|27:235,1,60.4586311510848,8|0,3:0|0:0,2:0:0:0:
122,263,169109,2,0,L|110:204,1,60.4586311510848,0|0,2:0|2:0,0:0:0:0:
159,107,169400,6,0,B|213:98|243:134|243:134|273:174|329:161,1,181.050003453255,6|0,1:0|2:0,2:0:0:0:
390,103,169983,2,0,P|376:162|363:236,1,120.91726230217,0|8,1:0|2:0,2:0:0:0:
387,311,170420,2,0,P|425:301|450:298,1,60.4586311510848,8|8,2:0|2:0,0:0:0:0:
320,382,170711,5,8,2:0:0:0:
320,382,170857,2,0,P|267:374|250:355,1,60.4586311510848,0|0,0:0|2:0,0:0:0:0:
173,364,171148,2,0,P|164:311|225:251,1,120.91726230217,8|0,2:0|3:0,2:0:0:0:
324,188,171730,6,0,B|240:171|240:171|230:175|230:175|147:155,1,181.050003453255,6|8,1:0|3:0,2:0:0:0:
69,163,172313,2,0,P|80:114|141:75,2,120.70000230217,0|8|0,1:0|3:0|1:0,2:0:0:0:
9,240,173041,6,0,L|32:368,1,120.91726230217
130,365,173478,2,0,L|145:284,1,60.4586311510848,0|0,1:0|0:0,0:0:0:0:
229,240,173769,2,0,L|240:299,1,60.4586311510848
321,355,174061,5,6,1:0:0:0:
256,192,174206,12,0,179886,3:0:0:0:
331,347,191536,6,0,P|275:284|173:296,1,184.615374883016,2|2,2:0|2:0,2:0:0:0:
1,377,192701,2,0,B|53:315|53:315|0:209,1,184.615374883016,2|2,2:0|2:0,2:0:0:0:
123,73,193721,2,0,L|105:183,1,92.4661357748415,2|0,2:0|2:0,2:0:0:0:
155,233,194158,5,2,2:0:0:0:
155,233,194740,1,2,2:0:0:0:
249,164,195031,2,0,P|296:181|353:195,2,92.3076874415081,2|2|2,2:0|2:0|2:0,0:0:0:0:
183,76,195905,1,2,2:0:0:0:
89,147,196197,6,0,P|26:146|-2:116,1,92.4661357748415,2|0,2:0|2:0,2:0:0:0:
20,38,196633,2,0,L|3:140,1,92.4661357748415,2|0,2:0|2:0,2:0:0:0:
69,201,197070,2,0,L|86:304,1,92.4661357748415,2|0,2:0|2:0,2:0:0:0:
30,366,197507,1,2,2:0:0:0:
175,330,197798,1,2,2:0:0:0:
175,330,197944,2,0,P|214:354|274:350,1,92.4661357748415,2|2,2:0|2:0,0:0:0:0:
348,269,198527,5,2,2:0:0:0:
348,269,199109,2,0,L|328:166,1,92.4661357748415,2|0,2:0|2:0,2:0:0:0:
463,78,199692,2,0,L|445:176,1,92.4661357748415,2|0,2:0|2:0,2:0:0:0:
251,139,200274,2,0,P|286:103|374:110,1,138.699203662262,2|0,2:0|2:0,2:0:0:0:
456,76,200857,6,0,B|469:145|416:183|416:183|353:218|357:280|378:306|378:306|381:265|406:243,1,323.314578545279,2|0,2:0|0:0,2:0:0:0:
484,276,202167,6,0,L|375:251,1,92.4661357748415
317,190,202604,2,0,L|227:209,1,92.4661357748415,2|2,2:0|2:0,2:0:0:0:
151,284,203187,6,0,P|120:224|144:146,1,138.699203662262,2|2,2:0|2:0,0:0:0:0:
256,12,204061,2,0,B|301:101|251:161|222:179|222:179|183:172|122:139|131:36,1,369.230749766032,2|0,2:0|0:0,2:0:0:0:
130,44,206099,6,0,L|106:191,1,138.699203662262,2|0,2:0|0:0,2:0:0:0:
21,212,206682,2,0,P|-11:270|31:339,1,138.699203662262,2|0,2:0|0:0,2:0:0:0:
102,355,207264,2,0,B|149:346|149:346|155:350|155:350|218:337,1,106.691704062653,2|0,2:0|0:0,2:0:0:0:
305,375,207701,6,0,P|260:360|290:195,1,255.621292199707,6|0,1:0|0:0,2:0:0:0:
363,144,208430,2,0,B|487:170|487:170|446:157|432:105,1,192.04505414978
450,14,209012,6,0,P|468:76|425:139,1,128.030036099854
309,80,209595,2,0,P|280:135|299:194,1,128.030036099854
386,264,210031,6,0,L|248:295,1,128.030036099854,10|6,2:0|1:3,0:0:0:0:
180,316,210468,1,6,1:3:0:0:
180,316,211925,2,0,L|155:168,1,128.030036099854,8|0,3:0|0:0,2:0:0:0:
79,138,212362,6,0,P|141:92|225:124,1,142.2556,6|0,1:0|1:0,2:0:0:0:
311,192,212798,2,0,P|274:185|230:177,1,71.1277999999999,10|0,2:0|2:0,2:0:0:0:
402,135,213090,2,0,B|420:123|439:103|439:103|423:148|428:196,1,142.2556,0|10,1:0|2:0,2:0:0:0:
490,263,213527,1,2,2:0:0:0:
415,333,213672,5,2,1:0:0:0:
415,333,213818,2,0,P|379:310|336:308,1,71.1277999999999,2|8,2:0|2:0,2:0:0:0:
222,382,214109,2,0,P|257:374|303:366,1,71.1277999999999,2|0,2:0|1:0,2:0:0:0:
140,255,214400,2,0,P|147:291|156:336,1,71.1277999999999,2|8,1:0|2:0,0:0:0:0:
60,218,214692,6,0,P|114:170|202:191,1,142.2556,6|2,1:0|1:0,2:0:0:0:
243,257,215129,2,0,P|278:276|317:274,1,71.1277999999999,10|0,2:0|1:0,0:0:0:0:
381,206,215420,2,0,L|367:121,1,71.1277999999999,8|2,2:0|1:0,0:0:0:0:
402,50,215711,1,8,2:0:0:0:
316,5,215857,6,0,B|253:17|253:17|245:24|245:24|172:37,1,142.2556,6|8,1:0|2:0,2:0:0:0:
97,0,216294,1,8,3:0:0:0:
19,48,216439,1,0,1:0:0:0:
19,48,216512,1,0,1:0:0:0:
19,48,216585,1,10,2:0:0:0:
75,121,216730,1,2,1:0:0:0:
285,115,217022,6,0,B|330:166|330:166|278:243,1,142.2556,6|0,1:0|1:0,2:0:0:0:
222,303,217459,2,0,P|232:339|243:386,1,71.1277999999999,8|0,2:0|1:0,0:0:0:0:
119,272,217750,2,0,P|113:207|177:164,1,142.2556,10|8,2:0|2:0,0:0:0:0:
268,214,218187,1,0,1:0:0:0:
285,115,218332,6,0,P|319:108|366:102,1,71.1277999999999,14|0,2:0|1:0,0:0:0:0:
500,134,218624,2,0,P|465:140|419:147,1,71.1277999999999,8|0,2:0|1:0,2:0:0:0:
362,204,218915,2,0,L|392:354,1,142,10|8,2:0|2:0,2:0:0:0:
239,384,219352,6,0,L|266:244,1,142.2556,6|2,1:0|1:0,2:0:0:0:
210,153,219789,2,0,P|172:128|133:132,1,71.1277999999999,10|0,2:0|1:0,0:0:0:0:
74,197,220080,1,8,2:0:0:0:
74,197,220226,1,0,1:0:0:0:
113,293,220371,2,0,L|98:366,1,71.1277999999999,10|0,2:0|1:0,0:0:0:0:
196,230,220663,6,0,L|265:244,1,71.1277999999999,14|0,2:0|1:0,0:0:0:0:
346,314,220954,2,0,B|386:254|386:254|336:178,1,142.2556,10|10,2:0|2:0,2:0:0:0:
290,116,221391,1,0,1:0:0:0:
290,116,221463,1,0,1:0:0:0:
290,116,221536,2,0,L|301:70,2,35.5639,10|8|8,2:0|2:0|2:0,0:0:0:0:
212,177,221828,6,0,P|151:181|95:120,1,142.2556,6|10,1:0|2:0,2:0:0:0:
63,29,222264,2,0,B|49:90|49:90|51:99|51:99|32:179,1,142.2556,2|0,1:0|1:0,2:0:0:0:
117,271,222701,2,0,L|109:185,1,71.1277999999999,10|0,2:0|1:0,2:0:0:0:
46,317,222993,1,2,1:0:0:0:
46,317,223138,6,0,P|97:354|185:321,1,142.2556,2|2,1:0|1:0,2:0:0:0:
224,258,223575,2,0,P|261:235|299:239,1,71.1277999999999,2|0,1:0|1:0,0:0:0:0:
356,333,223866,2,0,P|322:325|271:317,1,71.1277999999999,10|0,2:0|2:0,2:0:0:0:
440,283,224158,5,6,1:0:0:0:
440,283,224303,1,8,2:0:0:0:
440,283,224449,2,0,P|465:249|463:203,1,71.1277999999999,8|0,2:0|1:0,0:0:0:0:
399,161,224740,1,10,2:0:0:0:
399,161,224886,1,0,1:0:0:0:
463,93,225031,2,0,L|452:-1,1,71.1277999999999,8|8,2:0|2:0,0:0:0:0:
349,0,225323,6,0,P|304:-2|266:20,1,71.1277999999999,14|0,1:2|1:0,2:0:0:0:
200,125,225614,2,0,P|245:127|283:105,1,71.1277999999999,8|0,2:0|1:0,2:0:0:0:
140,62,225905,1,10,2:0:0:0:
140,62,225978,1,8,3:0:0:0:
140,62,226051,2,0,L|159:214,1,142.2556,8|0,3:0|1:0,0:0:0:0:
134,234,226415,1,0,1:0:0:0:
134,234,226488,6,0,L|61:222,2,71.1278,14|0|0,2:0|0:0|1:0,2:0:0:0:
216,326,226925,2,0,L|289:314,2,71.1278,12|0|0,2:0|0:0|1:0,2:0:0:0:
77,374,227362,2,0,L|4:362,2,71.1278,12|0|0,2:0|1:0|1:0,0:0:0:0:
216,326,227798,6,0,B|234:297|273:283|273:283|322:293|358:336,1,142.2556,14|0,2:0|1:0,2:0:0:0:
354,341,228163,1,0,1:0:0:0:
354,341,228235,2,0,P|362:308|378:265,1,71.1277999999999,14|0,2:0|1:0,0:0:0:0:
312,203,228527,1,10,2:0:0:0:
312,203,228599,1,0,1:0:0:0:
312,203,228672,1,8,2:0:0:0:
370,120,228818,6,0,B|437:134|437:134|444:140|444:140|510:152,1,142.2556,6|0,1:0|0:0,0:0:0:0:
353,43,229255,2,0,P|308:72|307:165,1,142.2556,6|0,1:0|0:0,0:0:0:0:
371,212,229692,1,6,1:0:0:0:
371,212,230711,5,0,1:0:0:0:
371,212,230784,1,0,1:0:0:0:
371,212,230857,2,0,L|348:328,1,106.935466666666,8|0,2:0|2:0,2:0:0:0:
318,334,231148,6,0,P|290:327|250:320,1,64.0150180499268,6|0,1:0|2:0,2:0:0:0:
188,218,231439,2,0,P|215:224|256:232,1,64.0150180499268,10|0,2:0|2:0,2:0:0:0:
114,317,231730,2,0,B|107:261|107:261|102:257|102:257|89:163,1,128.030036099854,2|8,1:0|2:0,0:0:0:0:
5,163,232167,6,0,P|26:122|113:101,1,128.030036099854,2|2,2:0|2:0,2:0:0:0:
168,45,232604,2,0,P|204:52|235:90,1,64.0150180499268,10|0,2:0|2:0,2:0:0:0:
291,142,232896,1,2,1:0:0:0:
291,142,233041,1,0,2:0:0:0:
291,142,233187,2,0,L|277:212,1,64.0150180499268,10|0,2:0|2:0,0:0:0:0:
339,297,233478,6,0,B|359:328|385:345|385:345|421:343|471:325,1,128.030036099854,2|10,1:0|2:0,2:0:0:0:
501,271,233915,2,0,P|491:238|485:199,1,64.0150180499268,0|2,2:0|1:0,0:0:0:0:
507,128,234206,1,2,2:0:0:0:
507,128,234352,6,0,P|458:84|382:93,1,128.030036099854,8|0,2:0|1:0,0:0:0:0:
297,133,234789,2,0,P|234:132|217:118,1,63.8999980499268,2|10,2:0|2:0,0:0:0:0:
137,31,235080,1,0,2:0:0:0:
137,31,235226,2,0,P|132:69|120:113,1,64.0150180499268,2|2,1:0|2:0,0:0:0:0:
29,132,235517,2,0,L|-3:121,3,32.0806390249634,8|8|8|8,2:0|2:0|2:0|2:0,0:0:0:0:
53,144,235808,6,0,P|69:201|41:267,1,128.030036099854,6|10,1:0|2:0,2:0:0:0:
111,340,236245,2,0,P|146:330|187:323,1,64.0150180499268,0|2,2:0|1:0,0:0:0:0:
269,325,236536,1,2,2:0:0:0:
269,325,236682,6,0,B|238:263|238:263|289:196,1,128.030036099854,8|0,2:0|1:0,0:0:0:0:
358,188,237119,2,0,P|379:158|375:111,1,64.0150180499268,2|10,2:0|2:0,0:0:0:0:
327,65,237410,1,0,2:0:0:0:
327,65,237556,2,0,L|248:78,1,64.0150180499268,2|0,1:0|2:0,0:0:0:0:
145,0,237847,2,0,L|208:10,1,64.0150180499268,10|0,2:0|2:0,0:0:0:0:
75,58,238138,6,0,P|40:111|58:186,1,128.030036099854,14|0,2:0|1:0,2:0:0:0:
67,192,238502,1,0,1:0:0:0:
73,200,238575,2,0,L|112:203,1,32.2268990249634,0|0,1:0|1:0,2:0:0:0:
128,213,238721,5,10,2:0:0:0:
203,148,238866,2,0,P|246:147|277:169,1,64.0150180499268,10|0,2:0|0:0,0:0:0:0:
306,244,239158,1,14,2:0:0:0:
