osu file format v14

[General]
AudioFilename: audio.mp3
AudioLeadIn: 0
PreviewTime: 207192
Countdown: 0
SampleSet: Soft
StackLeniency: 0.5
Mode: 0
LetterboxInBreaks: 0
WidescreenStoryboard: 0

[Editor]
DistanceSpacing: 3.3
BeatDivisor: 4
GridSize: 32
TimelineZoom: 1.8

[Metadata]
Title:Realize
TitleUnicode:Realize
Artist:Suzuki Konomi
ArtistUnicode:鈴木このみ
Creator:Sotarks
Version:Aftershock
Source:Re:ゼロから始める異世界生活
Tags:starting life in chiga サテラ another world zero re:zero rezero kara Hajimeru Isekai Seikatsu from different anime op opening vocalist full version kujinn smokelind 2nd season fox emilia natsuki subaru rem ram theresia van astrea satella テレシ アヴァン アストレア reform white japanese female jpop j-pop
BeatmapID:2587024
BeatmapSetID:1244533

[Difficulty]
HPDrainRate:6.2
CircleSize:3.8
OverallDifficulty:9.2
ApproachRate:9.4
SliderMultiplier:1.92
SliderTickRate:1

[Events]
//Background and Video events
0,0,"bg.jpg",0,0
//Break Periods
2,182216,190954
//Storyboard Layer 0 (Background)
//Storyboard Layer 1 (Fail)
//Storyboard Layer 2 (Pass)
//Storyboard Layer 3 (Foreground)
//Storyboard Layer 4 (Overlay)
//Storyboard Sound Samples

[TimingPoints]
3964,291.26213592233,4,2,22,47,1,0
4546,-192.307692307692,4,2,22,47,0,0
5129,-138.888888888889,4,2,22,77,0,0
10080,-138.888888888889,4,2,22,47,0,0
10663,-138.888888888889,4,2,22,57,0,0
11245,-138.888888888889,4,2,22,67,0,0
11828,-138.888888888889,4,2,22,77,0,0
13575,-161.290322580645,4,2,22,57,0,0
14449,-312.5,4,2,22,47,0,0
23187,-121.951219512195,4,2,22,77,0,0
23769,-108.695652173913,4,2,22,77,0,0
28138,-89.2857142857142,4,2,22,77,0,0
28721,-108.695652173913,4,2,22,77,0,0
33090,-108.695652173913,4,2,22,67,0,0
41828,-108.695652173913,4,2,22,57,0,0
42410,-312.5,4,2,22,47,0,0
46488,-312.5,4,2,22,57,0,0
46779,-312.5,4,2,22,67,0,0
47070,-121.951219512195,4,2,22,77,0,0
55080,-138.888888888889,4,2,22,77,0,0
55808,-454.545454545457,4,2,22,77,0,0
56245,-98.0392156862744,4,2,22,87,0,1
78235,-98.0392156862744,4,2,22,87,0,0
79400,-312.5,4,2,22,87,0,0
79692,-138.888888888889,4,2,22,77,0,0
87846,-138.888888888889,4,2,22,47,0,0
89012,-121.951219512195,4,2,22,57,0,0
98332,-121.951219512195,4,2,22,77,0,0
98769,-108.695652173913,4,2,22,77,0,0
108090,-121.951219512195,4,2,22,77,0,0
108818,-161.290322580645,4,2,22,77,0,0
110420,-121.951219512195,4,2,22,77,0,0
111148,-161.290322580645,4,2,22,77,0,0
114934,-121.951219512195,4,2,22,77,0,0
116973,-312.5,4,2,22,47,0,0
120468,-161.290322580645,4,2,22,57,0,0
121633,-121.951219512195,4,2,22,77,0,0
126294,-108.695652173913,4,2,22,77,0,0
131536,-833.33333333334,4,2,22,57,0,0
131973,-98.0392156862746,4,2,22,87,0,1
154109,-98.0392156862746,4,2,22,87,0,0
155420,-138.888888888889,4,2,22,57,0,0
164740,-138.888888888889,4,2,22,77,0,0
174061,-625,4,2,22,77,0,0
191536,-312.5,4,2,22,27,0,0
204061,-238.095238095238,4,2,22,27,0,0
206099,-833.333333333333,4,2,22,37,0,0
206682,-454.545454545455,4,2,22,47,0,0
207264,-833.333333333333,4,2,22,57,0,0
207701,-138.888888888889,4,2,22,77,0,0
211925,-192.307692307692,4,2,22,77,0,0
212362,-98.0392156862745,4,2,22,87,0,1
228818,-98.0392156862745,4,2,22,87,0,0
230857,-312.5,4,2,22,87,0,0
231148,-138.888888888889,4,2,22,77,0,0

[Colours]
Combo1 : 221,255,253
Combo2 : 92,147,237
Combo3 : 234,111,231
Combo4 : 100,243,255

[HitObjects]
122,91,4546,6,0,B|170:61|217:94|201:110|236:142|294:118,1,174.863102933594,8|0,3:0|2:0,2:0:0:0:
357,65,5129,6,0,P|366:109|373:150,1,69.2444176875,6|0,1:0|2:0,2:0:0:0:
490,211,5420,2,0,P|496:176|503:143,1,69.2444176875,0|0,1:0|2:0,2:0:0:0:
370,231,5711,2,0,P|317:244|285:255,1,69.2444176875,0|0,1:0|2:0,2:0:0:0:
174,318,6002,2,0,P|207:325|240:335,1,69.2444176875,0|0,1:0|2:0,2:0:0:0:
73,196,6294,2,0,P|63:268|54:333,1,138.488835375,4|0,1:0|1:0,2:0:0:0:
252,93,6876,2,0,P|261:161|270:230,1,138.488835375,4|0,1:0|1:0,2:0:0:0:
32,62,7459,6,0,P|65:52|98:44,1,69.2444176875,6|0,1:0|2:0,2:0:0:0:
166,195,7750,2,0,P|132:185|99:177,1,69.2444176875,0|0,1:0|2:0,2:0:0:0:
279,62,8041,2,0,P|288:106|295:147,1,69.2444176875,0|0,1:0|2:0,2:0:0:0:
413,233,8332,2,0,P|421:164|431:95,1,138.488835375,0|0,1:0|1:0,2:0:0:0:
431,95,8769,1,4,3:2:0:0:
308,240,8915,2,0,P|274:230|241:222,1,69.2444176875,0|0,1:0|2:0,2:0:0:0:
73,158,9206,2,0,P|138:145|215:132,1,138.488835375,4|0,1:0|1:0,2:0:0:0:
351,372,9789,6,0,P|357:337|364:304,1,69.2444176875,6|0,1:0|2:0,2:0:0:0:
307,190,10080,1,0,1:0:0:0:
442,252,10226,1,0,3:0:0:0:
275,322,10371,1,0,1:0:0:0:
400,173,10517,1,0,3:0:0:0:
444,363,10663,1,0,1:0:0:0:
300,230,10808,1,8,3:0:0:0:
472,137,10954,5,8,2:0:0:0:
362,302,11099,1,8,2:0:0:0:
236,109,11245,1,8,2:0:0:0:
400,173,11391,1,8,2:0:0:0:
205,292,11536,1,8,2:0:0:0:
309,80,11682,1,8,2:0:0:0:
372,327,11828,1,8,2:0:0:0:
146,195,11973,1,8,2:0:0:0:
402,80,12119,5,10,2:0:0:0:
115,210,12264,1,10,2:0:0:0:
467,315,12556,1,10,2:0:0:0:
250,4,12847,1,10,2:0:0:0:
108,348,13138,1,10,2:0:0:0:
122,319,13430,5,0,1:0:0:0:
122,319,13502,1,0,1:0:0:0:
122,319,13575,2,0,P|161:322|241:346,1,119.254267277344,14|8,2:0|3:0,2:0:0:0:
333,317,14012,1,8,3:0:0:0:
261,245,14158,1,8,3:0:0:0:
237,344,14303,1,8,3:0:0:0:
354,220,14449,6,0,P|372:176|286:85,1,184.440832,6|0,1:0|2:0,2:0:0:0:
108,145,15614,2,0,B|162:120|202:158|178:177|227:209|283:179,1,184.440832,0|0,3:0|2:0,2:0:0:0:
80,62,16779,6,0,B|58:83|33:102|33:102|64:167|80:224,1,184.440832,2|0,2:0|2:0,2:0:0:0:
0,288,17944,2,0,B|56:262|116:246|116:246|140:266|165:284,1,184.440832,0|0,3:0|2:0,2:0:0:0:
288,234,19109,6,0,P|225:252|218:365,1,184.440832,2|0,2:0|2:0,2:0:0:0:
340,310,20274,2,0,P|325:227|305:116,1,184.440832,0|0,3:0|2:0,2:0:0:0:
415,47,21439,6,0,B|346:14|291:66|323:89|269:150|201:120,1,245.78048,2|0,2:0|3:0,2:0:0:0:
95,51,22750,1,0,1:0:0:0:
383,131,22896,1,8,2:0:0:0:
371,150,23187,6,0,L|381:196,3,39.5209392672525,8|8|8|8,2:0|2:0|2:0|2:0,2:0:0:0:
257,255,23478,2,0,L|265:216,3,39.5209392672525,8|8|8|8,2:0|2:0|2:0|2:0,2:0:0:0:
360,337,23769,6,0,P|307:352|266:367,1,88.4789730351563,4|0,1:0|1:0,2:0:0:0:
71,223,24061,2,0,P|113:234|155:249,1,88.4789730351563,10|0,2:0|2:0,2:0:0:0:
288,113,24352,1,2,1:0:0:0:
124,32,24497,2,0,P|139:97|146:134,1,88.4789730351563,2|8,1:0|2:0,2:0:0:0:
361,240,24789,2,0,P|369:196|380:153,1,88.4789730351563,2|0,2:0|1:0,2:0:0:0:
289,24,25080,1,0,1:0:0:0:
482,176,25226,2,0,P|473:132|462:89,1,88.4789730351563,10|0,2:0|2:0,2:0:0:0:
269,199,25517,1,2,1:0:0:0:
422,324,25663,2,0,P|463:309|506:297,1,88.4789730351563,2|8,1:0|2:0,2:0:0:0:
271,105,25954,6,0,P|184:148|181:225,1,176.957946070313,2|0,2:0|1:0,2:0:0:0:
280,370,26391,1,10,2:0:0:0:
101,284,26536,1,2,2:0:0:0:
269,199,26682,2,0,P|281:267|287:305,1,88.4789730351563,2|0,1:0|1:0,2:0:0:0:
155,152,26973,1,8,2:0:0:0:
374,56,27119,2,0,P|366:99|358:143,1,88.4789730351563,2|0,2:0|1:0,2:0:0:0:
424,270,27410,1,0,1:0:0:0:
269,199,27556,1,12,2:0:0:0:
450,116,27701,1,0,1:0:0:0:
450,116,27774,1,0,1:0:0:0:
450,116,27847,2,0,P|456:152|460:171,3,44.3405638509116,10|0|0|0,1:2|1:0|1:0|1:0,2:0:0:0:
374,56,28138,6,0,B|282:44|325:127|196:100,1,161.93945796875,14|0,2:0|2:0,2:0:0:0:
194,88,28430,5,6,1:0:0:0:
366,156,28575,1,2,2:0:0:0:
208,291,28721,2,0,P|215:247|223:203,1,88.4789730351563,10|0,2:0|2:0,2:0:0:0:
61,79,29012,2,0,P|68:122|76:166,1,88.4789730351563,2|0,1:0|2:0,2:0:0:0:
32,306,29303,1,10,2:0:0:0:
166,119,29449,1,2,2:0:0:0:
285,311,29595,2,0,P|241:318|198:328,1,88.4789730351563,2|0,1:0|2:0,2:0:0:0:
322,63,29886,2,0,P|400:101|396:199,1,176.957946070313,8|0,2:0|1:0,2:0:0:0:
285,311,30323,1,2,2:0:0:0:
470,241,30468,1,10,2:0:0:0:
320,154,30614,1,2,2:0:0:0:
431,367,30760,5,6,1:0:0:0:
431,367,30905,2,0,P|438:323|446:279,1,88.4789730351563,2|8,2:0|2:0,2:0:0:0:
216,151,31197,2,0,P|223:194|231:238,1,88.4789730351563,2|0,2:0|1:0,2:0:0:0:
185,368,31488,1,2,1:0:0:0:
344,277,31633,1,8,2:0:0:0:
131,91,31779,2,0,P|119:184|106:278,1,176.957946070313,6|8,1:0|2:0,2:0:0:0:
216,151,32216,1,10,2:0:0:0:
32,216,32362,1,2,1:0:0:0:
32,216,32434,1,0,1:0:0:0:
32,216,32507,2,0,P|24:172|16:128,1,88.4789730351563,10|0,2:0|1:0,2:0:0:0:
189,283,32798,1,10,3:0:0:0:
177,305,33090,6,0,P|225:291|275:282,1,88.4789730351563,6|0,1:0|2:0,2:0:0:0:
370,165,33381,2,0,P|327:152|284:143,1,88.4789730351563,0|0,1:0|2:0,2:0:0:0:
117,55,33672,2,0,P|131:118|137:156,1,88.4789730351563,0|0,1:0|2:0,2:0:0:0:
71,282,33963,1,2,1:0:0:0:
226,208,34109,1,2,1:0:0:0:
32,101,34255,2,0,P|21:143|14:187,1,88.4789730351563,10|0,2:0|1:0,2:0:0:0:
136,363,34546,1,2,1:0:0:0:
51,119,34692,2,0,P|40:161|33:205,1,88.4789730351563,2|0,2:0|1:0,2:0:0:0:
161,120,34983,2,0,P|153:76|143:33,1,88.4789730351563,2|0,2:0|1:0,2:0:0:0:
143,33,35274,1,2,2:0:0:0:
248,231,35420,6,0,P|302:183|412:192,1,176.957946070313,4|2,1:0|1:0,2:0:0:0:
108,360,36002,2,0,P|98:281|83:164,1,176.957946070313,2|2,1:0|1:0,2:0:0:0:
169,62,36439,1,2,1:0:0:0:
4,146,36585,1,8,2:0:0:0:
178,269,36730,1,0,1:0:0:0:
114,159,36876,1,2,1:0:0:0:
104,182,37167,2,0,P|146:169|189:160,1,88.4789730351563,10|0,2:0|1:0,2:0:0:0:
346,207,37459,1,10,3:0:0:0:
346,207,37604,1,10,3:0:0:0:
253,99,37750,5,4,1:0:0:0:
336,292,37896,1,0,1:0:0:0:
451,119,38041,2,0,P|443:75|433:32,1,88.4789730351563,0|0,1:0|2:0,2:0:0:0:
246,222,38332,1,10,2:0:0:0:
359,83,38478,2,0,P|316:70|273:61,1,88.4789730351563,0|0,1:0|2:0,2:0:0:0:
412,219,38769,2,0,P|454:206|497:197,1,88.4789730351563,0|6,1:0|2:0,2:0:0:0:
497,197,39061,1,0,1:0:0:0:
318,313,39206,1,0,1:0:0:0:
307,333,39497,2,0,P|299:289|289:246,1,88.4789730351563,10|0,2:0|2:0,2:0:0:0:
146,162,39789,2,0,P|135:204|128:248,1,88.4789730351563,0|0,1:0|2:0,2:0:0:0:
247,98,40080,5,6,1:0:0:0:
51,172,40226,1,0,1:0:0:0:
262,112,40371,2,0,B|369:89|323:188|446:151,1,176.957946070313,0|8,1:0|2:0,2:0:0:0:
296,305,40808,2,0,P|288:261|278:218,1,88.4789730351563,0|2,1:0|2:0,2:0:0:0:
463,266,41099,2,0,P|452:308|445:352,1,88.4789730351563,0|4,1:0|2:0,2:0:0:0:
445,352,41391,1,0,1:0:0:0:
366,179,41536,1,0,1:0:0:0:
366,179,41828,5,10,3:0:0:0:
350,254,41973,1,8,3:0:0:0:
426,269,42119,1,10,3:0:0:0:
442,194,42264,1,8,3:0:0:0:
350,254,42410,6,0,P|363:333|370:380,1,122.89024,2|0,2:0|2:0,2:0:0:0:
152,196,43575,2,0,P|139:275|132:322,1,122.89024,2|0,2:0|2:0,2:0:0:0:
376,120,44740,6,0,P|353:61|232:47,1,184.440832,2|0,2:0|2:0,2:0:0:0:
356,224,45905,2,0,P|389:216|421:209,1,61.550592,2|0,2:0|2:0,2:0:0:0:
462,85,46488,2,0,P|429:77|397:70,1,61.550592,2|8,3:0|3:0,2:0:0:0:
149,17,47070,6,0,P|158:69|164:100,1,78.8616972011719,6|0,1:0|2:0,2:0:0:0:
236,244,47362,1,0,1:0:0:0:
75,197,47507,1,0,2:0:0:0:
280,71,47653,2,0,P|271:123|265:154,1,78.8616972011719,2|0,1:0|2:0,2:0:0:0:
323,306,47944,1,0,1:0:0:0:
166,185,48090,1,0,2:0:0:0:
355,5,48235,2,0,P|364:57|370:88,1,78.8616972011719,2|0,1:0|2:0,2:0:0:0:
281,232,48527,1,0,1:0:0:0:
462,158,48672,1,0,2:0:0:0:
279,73,48818,2,0,B|231:59|198:91|218:103|176:144|108:111,1,157.723394402344,2|0,1:0|1:0,2:0:0:0:
138,120,49255,1,0,2:0:0:0:
390,328,49400,6,0,P|397:289|403:250,1,78.8616972011719,6|0,1:0|2:0,2:0:0:0:
187,334,49692,2,0,P|216:359|247:384,1,78.8616972011719,0|0,1:0|2:0,2:0:0:0:
276,171,49983,2,0,P|238:184|201:197,1,78.8616972011719,0|2,1:0|2:0,2:0:0:0:
292,280,50274,1,2,1:0:0:0:
194,113,50420,1,2,2:0:0:0:
113,307,50565,1,6,1:0:0:0:
303,184,50711,1,8,2:0:0:0:
94,82,50857,2,0,P|109:153|113:177,1,78.8616972011719,10|0,2:0|1:0,2:0:0:0:
82,236,51075,1,0,1:0:0:0:
82,236,51148,2,0,P|34:225|0:220,1,78.8616972011719,10|0,2:0|1:0,2:0:0:0:
102,351,51439,2,0,P|140:341|179:335,1,78.8616972011719,10|0,3:0|1:0,2:0:0:0:
319,179,51730,5,14,2:0:0:0:
277,367,51876,1,0,1:0:0:0:
316,198,52022,1,0,1:0:0:0:
440,342,52167,5,14,2:0:0:0:
209,256,52313,1,0,1:0:0:0:
390,134,52459,1,0,1:0:0:0:
277,367,52604,5,14,2:0:0:0:
236,119,52750,1,0,1:0:0:0:
274,339,52896,1,0,1:0:0:0:
411,113,53041,5,14,2:0:0:0:
177,243,53187,1,0,1:0:0:0:
408,329,53332,1,0,1:0:0:0:
230,91,53478,5,14,2:0:0:0:
134,350,53624,1,0,1:0:0:0:
155,56,53769,5,10,2:0:0:0:
251,315,53915,1,0,1:0:0:0:
301,43,54061,6,0,P|355:26|391:22,1,78.8616972011719,6|0,1:0|2:0,2:0:0:0:
445,261,54352,2,0,P|391:244|355:240,1,78.8616972011719,0|0,1:0|2:0,2:0:0:0:
199,366,54643,5,0,1:0:0:0:
355,125,54789,1,8,2:0:0:0:
145,251,54934,1,8,2:0:0:0:
443,107,55080,6,0,P|420:43|241:97,1,276.50304675,10|0,2:0|2:0,2:0:0:0:
162,226,55808,6,0,P|159:204|152:170,1,52.8225296113282,10|0,3:0|2:0,2:0:0:0:
148,32,56245,6,0,P|133:156|122:250,1,196.192513195313,6|0,1:0|2:0,2:0:0:0:
26,353,56682,2,0,P|18:304|10:256,1,98.0962565976563,8|0,2:0|2:0,2:0:0:0:
168,77,56973,2,0,P|159:130|152:178,1,98.0962565976563,2|0,1:0|2:0,2:0:0:0:
216,329,57264,1,8,2:0:0:0:
29,220,57410,1,0,2:0:0:0:
254,123,57556,2,0,P|262:171|269:219,1,98.0962565976563,2|0,1:0|2:0,2:0:0:0:
406,374,57847,2,0,P|413:325|421:277,1,98.0962565976563,8|0,2:0|2:0,2:0:0:0:
489,66,58138,2,0,P|414:89|386:98,1,98.0962565976563,2|0,1:0|2:0,2:0:0:0:
269,219,58430,1,8,2:0:0:0:
140,0,58575,6,0,P|215:23|243:32,1,98.0962565976563,2|0,2:0|1:0,2:0:0:0:
117,233,58866,1,2,2:0:0:0:
295,95,59012,2,0,P|310:219|321:313,2,195.856321195313,10|0|10,2:0|1:0|2:0,2:0:0:0:
210,280,59740,1,2,2:0:0:0:
382,172,59886,1,2,1:0:0:0:
205,99,60031,1,2,2:0:0:0:
318,289,60177,1,10,2:0:0:0:
409,80,60323,1,2,2:0:0:0:
258,181,60468,1,2,1:0:0:0:
440,277,60614,1,2,1:0:0:0:
313,52,60760,1,8,2:0:0:0:
194,305,60905,6,0,B|128:280|77:261|77:261|43:285|18:305,1,196.192513195313,6|0,1:0|1:0,2:0:0:0:
157,86,61342,2,0,P|165:134|172:182,1,98.0962565976563,10|0,2:0|2:0,2:0:0:0:
288,362,61633,2,0,P|295:313|303:265,1,98.0962565976563,0|0,1:0|2:0,2:0:0:0:
387,120,61925,1,10,2:0:0:0:
211,204,62070,1,2,2:0:0:0:
416,322,62216,1,2,1:0:0:0:
416,322,62362,2,0,P|408:273|400:225,1,98.0962565976563,2|8,2:0|2:0,2:0:0:0:
253,79,62653,2,0,P|244:127|237:175,1,98.0962565976563,2|0,2:0|1:0,2:0:0:0:
146,322,62944,1,2,1:0:0:0:
358,209,63090,1,8,2:0:0:0:
157,104,63235,6,0,P|94:136|90:269,1,196.192513195313,6|2,1:0|1:0,2:0:0:0:
342,346,63672,2,0,P|330:248|318:151,1,196.192513195313,10|0,2:0|1:0,2:0:0:0:
193,286,64109,1,2,1:0:0:0:
413,162,64255,1,8,2:0:0:0:
205,21,64400,2,0,P|196:69|189:117,1,98.0962565976563,6|0,1:0|2:0,2:0:0:0:
299,304,64692,2,0,P|291:255|283:207,1,98.0962565976563,8|8,2:0|2:0,2:0:0:0:
365,83,64983,1,0,1:0:0:0:
365,83,65056,1,0,1:0:0:0:
365,83,65129,1,10,2:0:0:0:
196,208,65274,1,2,1:0:0:0:
394,274,65420,1,8,2:0:0:0:
189,117,65565,6,0,P|123:146|115:263,1,196.192513195313,6|0,1:0|1:0,2:0:0:0:
380,179,66002,2,0,P|372:130|364:82,1,98.0962565976563,8|0,2:0|2:0,2:0:0:0:
145,8,66294,2,0,P|136:56|129:104,1,98.0962565976563,2|0,1:0|2:0,2:0:0:0:
219,233,66585,1,8,2:0:0:0:
31,144,66730,1,0,2:0:0:0:
240,55,66876,2,0,P|248:103|255:151,1,98.0962565976563,2|0,1:0|2:0,2:0:0:0:
306,356,67167,2,0,P|259:341|212:327,1,98.0962565976563,8|0,2:0|2:0,2:0:0:0:
61,171,67459,2,0,P|107:156|154:142,1,98.0962565976563,2|0,1:0|2:0,2:0:0:0:
102,313,67750,1,8,2:0:0:0:
262,70,67896,6,0,P|270:118|277:166,1,98.0962565976563,2|0,2:0|1:0,2:0:0:0:
98,63,68187,1,2,2:0:0:0:
251,259,68332,2,0,B|308:285|353:244|328:231|379:181|456:231,2,195.856321195313,10|0|10,2:0|1:0|2:0,2:0:0:0:
412,317,69061,1,0,2:0:0:0:
277,166,69206,2,0,P|230:180|183:194,1,98.0962565976563,2|0,1:0|2:0,2:0:0:0:
49,355,69497,2,0,P|96:369|143:384,1,98.0962565976563,10|0,2:0|2:0,2:0:0:0:
33,126,69789,2,0,P|24:174|17:222,1,98.0962565976563,2|0,1:0|2:0,2:0:0:0:
277,166,70080,2,0,P|269:117|261:69,1,98.0962565976563,10|0,2:0|1:0,2:0:0:0:
189,15,70298,1,0,1:0:0:0:
189,15,70371,6,0,P|180:63|173:111,1,98.0962565976563,2|0,1:0|2:0,2:0:0:0:
278,270,70663,1,10,2:0:0:0:
354,40,70808,2,0,P|307:54|260:68,1,98.0962565976563,2|0,2:0|1:0,2:0:0:0:
379,223,71099,1,0,2:0:0:0:
189,15,71245,2,0,P|180:63|173:111,1,98.0962565976563,10|0,2:0|2:0,2:0:0:0:
278,270,71536,1,2,1:0:0:0:
79,81,71682,2,0,P|87:129|94:177,1,98.0962565976563,2|8,2:0|2:0,2:0:0:0:
28,329,71973,1,0,2:0:0:0:
173,111,72119,2,0,P|219:125|266:139,1,98.0962565976563,2|0,1:0|2:0,2:0:0:0:
359,349,72410,2,0,P|312:363|265:377,1,98.0962565976563,10|0,2:0|2:0,2:0:0:0:
363,180,72701,5,2,1:0:0:0:
470,356,72847,1,0,1:0:0:0:
250,236,72993,2,0,P|257:187|265:139,1,98.0962565976563,12|0,2:0|2:0,2:0:0:0:
364,0,73284,1,2,1:0:0:0:
163,68,73430,1,0,1:0:0:0:
363,180,73575,2,0,P|355:131|347:83,1,98.0962565976563,12|0,2:0|2:0,2:0:0:0:
178,184,73866,1,2,1:0:0:0:
430,100,74012,1,0,1:0:0:0:
205,176,74158,1,8,2:0:0:0:
428,322,74303,2,0,P|436:244|450:111,1,196.192513195313,0|0,1:0|1:0,2:0:0:0:
462,40,74667,1,0,1:0:0:0:
462,40,74740,2,0,P|415:54|368:68,1,98.0962565976563,8|0,2:0|1:0,2:0:0:0:
136,237,75031,5,14,2:0:0:0:
226,17,75177,1,0,1:0:0:0:
332,189,75323,1,0,1:0:0:0:
107,38,75468,2,0,P|98:86|91:134,1,98.0962565976563,12|0,2:0|1:0,2:0:0:0:
222,334,75760,1,0,1:0:0:0:
3,229,75905,5,12,2:0:0:0:
193,119,76051,1,0,1:0:0:0:
78,340,76197,1,0,1:0:0:0:
301,165,76342,2,0,P|309:213|316:261,1,98.0962565976563,14|0,2:0|1:0,2:0:0:0:
425,90,76633,1,0,1:0:0:0:
225,260,76779,2,0,P|178:246|131:232,1,98.0962565976563,14|0,2:0|1:0,2:0:0:0:
13,65,77070,2,0,P|60:51|107:37,1,98.0962565976563,10|0,2:0|1:0,2:0:0:0:
8,283,77362,5,14,2:0:0:0:
179,102,77507,1,4,1:3:0:0:
259,349,77653,1,4,1:3:0:0:
259,349,77726,1,4,1:3:0:0:
259,349,77798,1,10,2:0:0:0:
50,176,77944,1,4,1:3:0:0:
296,57,78090,1,4,1:3:0:0:
197,226,78235,1,10,2:0:0:0:
227,218,79255,5,0,3:0:0:0:
227,218,79328,1,0,3:0:0:0:
227,218,79400,2,0,P|258:210|286:207,1,46.268416,10|0,2:0|2:0,2:0:0:0:
355,171,79692,6,0,P|348:218|343:262,1,69.2444176875,6|0,1:0|2:0,2:0:0:0:
466,183,79983,2,0,P|461:148|456:114,1,69.2444176875,10|0,2:0|2:0,2:0:0:0:
471,11,80274,1,2,1:0:0:0:
471,11,80420,2,0,P|432:22|394:37,1,69.2444176875,2|8,2:0|2:0,2:0:0:0:
266,65,80711,2,0,P|299:74|331:86,1,69.2444176875,2|0,2:0|1:0,2:0:0:0:
188,129,81002,1,2,2:0:0:0:
188,129,81148,2,0,P|183:94|178:60,1,69.2444176875,10|0,2:0|2:0,2:0:0:0:
279,162,81439,1,2,1:0:0:0:
279,162,81585,1,0,2:0:0:0:
105,105,81730,1,10,2:0:0:0:
105,105,81876,1,0,2:0:0:0:
196,224,82022,6,0,P|228:212|261:202,1,69.2444176875,2|0,1:0|2:0,2:0:0:0:
221,323,82313,2,0,P|188:311|155:301,1,69.2444176875,10|0,2:0|2:0,2:0:0:0:
51,257,82604,1,2,1:0:0:0:
51,257,82750,2,0,P|56:291|60:325,1,69.2444176875,2|8,2:0|2:0,2:0:0:0:
164,191,83041,2,0,P|158:225|154:259,1,69.2444176875,2|0,2:0|1:0,2:0:0:0:
66,124,83332,1,2,2:0:0:0:
66,124,83478,2,0,P|98:112|131:102,1,69.2444176875,10|0,2:0|2:0,2:0:0:0:
253,168,83769,1,2,1:0:0:0:
185,36,83915,1,2,2:0:0:0:
164,191,84061,1,8,2:0:0:0:
164,191,84133,1,8,2:0:0:0:
164,191,84206,1,8,2:0:0:0:
164,191,84279,1,8,2:0:0:0:
164,191,84352,6,0,P|158:225|154:259,1,69.2444176875,6|0,1:0|2:0,2:0:0:0:
299,330,84643,2,0,P|294:295|288:261,1,69.2444176875,10|0,2:0|2:0,2:0:0:0:
254,139,84934,1,2,1:0:0:0:
254,139,85080,2,0,P|287:148|319:161,1,69.2444176875,2|8,2:0|2:0,2:0:0:0:
397,30,85371,2,0,P|363:39|331:52,1,69.2444176875,2|0,2:0|1:0,2:0:0:0:
434,213,85663,1,2,2:0:0:0:
434,213,85808,2,0,P|438:178|444:144,1,69.2444176875,10|0,2:0|2:0,2:0:0:0:
316,245,86099,1,2,1:0:0:0:
316,245,86245,1,0,2:0:0:0:
471,320,86391,1,10,2:0:0:0:
471,320,86536,1,0,2:0:0:0:
349,144,86682,6,0,P|291:155|223:170,1,104.10393853125,14|0,2:0|2:0,2:0:0:0:
161,188,86973,2,0,P|165:168|172:131,1,34.85952084375,0|0,3:0|3:0,3:0:0:0:
263,45,87119,2,0,P|266:61|269:78,1,34.85952084375,0|0,3:0|3:0,3:0:0:0:
141,35,87264,1,10,2:0:0:0:
293,197,87410,1,10,2:0:0:0:
293,197,87701,6,0,P|287:243|281:288,1,69.2444176875,10|0,2:0|2:0,2:0:0:0:
393,164,87993,1,8,2:0:0:0:
199,235,88138,1,8,2:0:0:0:
370,319,88284,1,4,1:3:0:0:
370,319,88357,1,4,1:3:0:0:
370,319,88430,1,8,2:0:0:0:
256,143,88575,1,8,2:0:0:0:
216,354,88721,1,8,2:0:0:0:
260,118,88866,1,8,2:0:0:0:
381,337,89012,6,0,P|430:322|466:314,1,78.8616972011719,4|0,1:0|2:0,2:0:0:0:
512,200,89303,2,0,P|463:185|427:177,1,78.8616972011719,2|0,1:0|2:0,2:0:0:0:
296,105,89595,1,2,1:0:0:0:
296,105,89740,2,0,P|307:159|314:214,1,78.8616972011719,2|0,2:0|1:0,2:0:0:0:
165,300,90031,2,0,P|175:233|193:127,1,157.723394402344,10|8,2:0|3:0,2:0:0:0:
216,16,90468,2,0,P|177:25|140:37,1,78.8616972011719,2|0,1:0|2:0,2:0:0:0:
10,123,90760,2,0,P|48:132|85:144,1,78.8616972011719,2|0,1:0|2:0,2:0:0:0:
32,16,91051,1,2,1:0:0:0:
200,210,91197,6,0,P|206:171|214:132,1,78.8616972011719,10|0,2:0|1:0,2:0:0:0:
321,57,91488,1,2,2:0:0:0:
321,57,91633,2,0,P|329:95|335:134,1,78.8616972011719,2|0,1:0|2:0,2:0:0:0:
419,277,91925,2,0,P|373:226|273:250,1,157.723394402344,0|2,1:0|1:0,2:0:0:0:
224,342,92362,1,8,2:0:0:0:
124,257,92507,2,0,P|198:266|295:278,1,157.723394402344,2|0,1:0|1:0,2:0:0:0:
280,276,92944,1,0,2:0:0:0:
175,169,93090,2,0,P|101:178|4:190,1,157.723394402344,2|8,1:0|2:0,2:0:0:0:
18,188,93527,1,0,3:0:0:0:
238,37,93672,6,0,P|246:75|252:114,1,78.8616972011719,6|0,1:0|2:0,2:0:0:0:
314,248,93963,2,0,P|320:209|328:170,1,78.8616972011719,0|0,1:0|2:0,2:0:0:0:
426,28,94255,2,0,P|400:105|470:168,1,157.723394402344,0|0,1:0|1:0,2:0:0:0:
324,26,94692,1,8,2:0:0:0:
426,240,94837,2,0,P|388:228|350:218,1,78.8616972011719,0|0,1:0|2:0,2:0:0:0:
191,136,95129,2,0,P|228:124|266:114,1,78.8616972011719,2|0,1:0|2:0,2:0:0:0:
131,234,95420,1,2,1:0:0:0:
211,47,95565,1,0,1:0:0:0:
321,241,95711,2,0,P|312:279|306:318,1,78.8616972011719,14|0,2:0|2:0,2:0:0:0:
191,136,96002,5,6,1:0:0:0:
409,215,96148,1,0,1:0:0:0:
209,303,96294,1,8,2:0:0:0:
415,112,96439,2,0,P|423:150|429:189,1,78.8616972011719,2|0,1:0|2:0,2:0:0:0:
268,92,96730,1,0,1:0:0:0:
504,155,96876,1,10,2:0:0:0:
295,266,97022,1,0,1:0:0:0:
373,75,97167,6,0,L|419:85,3,39.5209392672525,10|8|8|8,2:0|3:0|3:0|3:0,2:0:0:0:
295,266,97459,2,0,L|333:257,3,39.5209392672525,0|0|8|8,1:0|1:0|2:0|3:0,2:0:0:0:
178,125,97750,1,10,3:0:0:0:
112,241,97896,1,0,1:0:0:0:
302,148,98041,2,0,P|288:84|281:55,1,78.8616972011719,8|0,2:0|1:0,2:0:0:0:
169,324,98332,5,12,2:0:0:0:
381,188,98478,1,0,1:0:0:0:
178,125,98624,1,2,1:0:0:0:
362,313,98769,2,0,P|431:286|466:278,1,88.4789730351563,14|2,2:0|1:0,2:0:0:0:
311,84,99061,1,2,1:0:0:0:
188,285,99206,1,12,2:0:0:0:
361,167,99352,1,2,1:0:0:0:
168,88,99497,1,0,1:0:0:0:
338,292,99643,2,0,P|345:242|361:187,1,88.4789730351563,12|2,2:0|1:0,2:0:0:0:
170,309,99934,1,0,1:0:0:0:
285,93,100080,5,14,2:0:0:0:
359,370,100226,1,2,1:0:0:0:
168,88,100371,1,8,2:0:0:0:
94,365,100517,1,2,1:0:0:0:
335,169,100663,2,0,P|377:181|417:199,1,88.4789730351563,12|0,2:0|1:0,2:0:0:0:
252,351,100954,1,2,1:0:0:0:
151,174,101099,2,0,P|158:124|174:69,1,88.4789730351563,12|2,2:0|1:0,2:0:0:0:
283,234,101391,1,2,1:0:0:0:
114,362,101536,2,0,P|71:349|31:331,1,88.4789730351563,12|2,2:0|1:0,2:0:0:0:
151,174,101828,5,0,1:0:0:0:
245,369,101973,1,12,2:0:0:0:
36,208,102119,2,0,P|43:158|59:103,1,88.4789730351563,8|0,2:0|1:0,2:0:0:0:
99,57,102337,1,0,1:0:0:0:
99,57,102410,2,0,P|121:61|149:67,3,44.3405638509116,10|0|0|0,1:3|1:0|1:0|1:0,2:0:0:0:
203,203,102701,2,0,P|181:206|159:211,3,44.3405638509116,14|0|0|0,1:3|1:0|1:0|1:0,2:0:0:0:
319,95,102993,5,14,2:0:0:0:
263,298,103138,1,2,1:0:0:0:
311,122,103284,1,2,1:0:0:0:
388,334,103430,1,12,2:0:0:0:
203,203,103575,1,2,1:0:0:0:
393,117,103721,1,0,1:0:0:0:
242,322,103866,2,0,P|201:304|159:291,1,88.4789730351563,14|2,2:0|1:0,2:0:0:0:
293,89,104158,1,2,1:0:0:0:
368,296,104303,2,0,P|357:338|351:382,1,88.4789730351563,12|0,2:0|1:0,2:0:0:0:
211,203,104595,1,0,1:0:0:0:
412,107,104740,5,12,2:0:0:0:
159,291,104886,1,2,1:0:0:0:
263,7,105031,1,10,2:0:0:0:
368,296,105177,1,2,1:0:0:0:
112,94,105323,1,14,2:0:0:0:
308,187,105468,1,2,1:0:0:0:
308,187,105541,1,0,1:0:0:0:
308,187,105614,1,8,2:0:0:0:
91,347,105760,1,6,1:0:0:0:
441,208,106051,1,2,1:0:0:0:
176,10,106342,6,0,B|147:38|126:58|126:58|154:109|181:168,1,176.957946070313,6|8,1:0|2:0,2:0:0:0:
49,52,106779,1,2,1:0:0:0:
228,83,106925,1,0,1:0:0:0:
71,207,107070,2,0,P|75:179|81:142,2,58.9859820234376,10|8|8,2:0|2:3|2:3,2:0:0:0:
267,252,107362,2,0,P|263:224|257:187,2,58.9859820234376,10|12|12,2:0|2:3|2:3,2:0:0:0:
141,286,107653,5,6,1:0:0:0:
346,195,107798,1,0,1:0:0:0:
154,274,107944,1,0,1:0:0:0:
350,176,108090,2,0,P|398:185|439:196,1,78.8616972011719,0|0,1:0|2:0,2:0:0:0:
258,324,108381,1,0,1:0:0:0:
353,83,108527,1,0,1:0:0:0:
353,83,108818,6,0,B|281:60|230:114|272:135|208:195|126:156,1,238.099830554688,8|0,2:0|2:0,2:0:0:0:
413,326,109837,5,0,1:0:0:0:
413,326,109910,1,0,1:0:0:0:
413,326,109983,1,6,1:0:0:0:
217,238,110129,1,0,1:0:0:0:
420,307,110274,1,0,1:0:0:0:
197,249,110420,2,0,P|149:258|108:269,1,78.8616972011719,0|0,1:0|2:0,2:0:0:0:
302,134,110711,1,0,1:0:0:0:
238,340,110857,1,0,1:0:0:0:
238,340,111148,6,0,L|224:232,1,89.645052458008,8|0,2:0|2:0,2:0:0:0:
213,179,111439,2,0,L|201:230,2,29.813566819336,2|0|0,1:0|1:0|1:0,2:0:0:0:
154,331,111730,1,10,2:0:0:0:
301,181,111876,2,0,L|318:317,1,119.254267277344,0|8,1:0|2:0,2:0:0:0:
370,112,112313,5,6,1:0:0:0:
198,236,112459,1,0,1:0:0:0:
418,332,112604,1,0,1:0:0:0:
418,332,112896,5,10,2:0:0:0:
254,131,113041,1,0,1:0:0:0:
254,131,113332,1,0,1:0:0:0:
254,131,113624,5,2,1:0:0:0:
167,361,113769,1,2,1:0:0:0:
167,361,114061,1,10,2:0:0:0:
396,237,114206,1,0,1:0:0:0:
396,237,114497,1,0,1:0:0:0:
182,115,114643,5,6,1:0:0:0:
304,334,114789,1,0,1:0:0:0:
398,103,114934,2,0,P|335:74|289:65,1,78.8616972011719,0|2,1:0|2:0,2:0:0:0:
210,233,115226,1,8,2:0:0:0:
297,0,115371,2,0,P|259:12|225:31,1,78.8616972011719,0|2,1:0|2:0,2:0:0:0:
249,326,115663,6,0,P|299:267|264:171,1,157.723394402344,0|2,1:0|1:0,2:0:0:0:
133,87,116099,1,0,1:0:0:0:
133,87,116391,1,10,2:0:0:0:
114,166,116536,1,8,3:0:0:0:
196,183,116682,1,10,3:0:0:0:
215,104,116828,1,8,3:0:0:0:
114,166,116973,6,0,P|127:244|134:290,1,122.89024,2|0,2:0|2:0,2:0:0:0:
263,384,118138,2,0,P|272:323|282:262,1,122.89024,2|0,2:0|2:0,2:0:0:0:
407,101,119303,2,0,P|360:130|322:128,2,92.220416,2|0|0,2:0|3:0|3:0,2:0:0:0:
340,33,120323,1,0,1:0:0:0:
340,33,120396,1,0,1:0:0:0:
340,33,120468,2,0,L|294:47,3,29.8816841526694,2|0|0|0,1:2|1:2|1:2|1:2,1:2:0:0:
224,122,120760,2,0,L|195:113,3,29.8816841526694,2|0|0|0,1:2|1:2|1:2|1:2,1:2:0:0:
83,58,121051,2,0,L|73:99,3,29.8816841526694,2|0|0|0,1:2|1:2|1:2|1:2,1:2:0:0:
7,194,121342,2,0,L|0:165,3,29.8816841526694,2|0|0|0,1:2|1:2|1:2|1:2,1:2:0:0:
113,288,121633,6,0,P|118:248|127:194,1,78.8616972011719,6|0,1:0|2:0,2:0:0:0:
207,77,121925,1,0,1:0:0:0:
25,147,122070,1,0,2:0:0:0:
235,235,122216,2,0,P|230:195|221:141,1,78.8616972011719,2|0,1:0|2:0,2:0:0:0:
116,23,122507,1,8,2:3:0:0:
298,93,122653,1,0,2:0:0:0:
103,193,122798,2,0,P|108:153|117:99,1,78.8616972011719,2|0,1:0|2:0,2:0:0:0:
317,0,123090,2,0,P|323:38|328:77,1,78.8616972011719,0|0,1:0|2:0,2:0:0:0:
173,271,123381,1,2,1:0:0:0:
241,53,123527,1,0,2:0:0:0:
339,262,123672,1,0,1:0:0:0:
339,262,123745,1,0,1:0:0:0:
339,262,123818,1,0,1:0:0:0:
339,262,123891,1,0,1:0:0:0:
339,262,123963,6,0,P|271:248|246:246,1,78.8616972011719,6|0,1:0|3:0,2:0:0:0:
184,287,124182,1,0,3:0:0:0:
184,287,124255,2,0,P|175:242|173:233,3,39.5209392672525,8|8|0|0,2:0|2:0|1:0|1:0,2:0:0:0:
235,171,124546,1,0,1:0:0:0:
66,330,124692,1,2,1:0:0:0:
66,330,124764,1,0,1:0:0:0:
66,330,124837,1,10,2:0:0:0:
261,247,124983,1,10,2:0:0:0:
102,147,125129,5,6,1:0:0:0:
215,362,125274,1,8,2:0:0:0:
337,160,125420,2,0,P|324:93|312:52,1,78.8616972011719,10|0,2:0|1:0,2:0:0:0:
328,5,125638,1,0,1:0:0:0:
328,5,125711,2,0,P|277:19|244:37,1,78.8616972011719,10|0,2:0|1:0,2:0:0:0:
91,143,126002,1,10,3:0:0:0:
161,0,126148,1,0,1:0:0:0:
276,180,126294,6,0,P|261:258|251:319,1,133.021691552735,14|0,2:0|2:0,2:0:0:0:
179,364,126585,2,0,P|174:340|166:301,1,44.5427185175782,0|0,1:0|1:0,2:0:0:0:
0,114,126730,6,0,P|15:192|25:253,1,133.021691552735,14|0,2:0|2:0,2:0:0:0:
97,298,127022,2,0,P|102:274|110:235,1,44.5427185175782,0|0,1:0|1:0,2:0:0:0:
276,52,127167,6,0,P|261:130|251:191,1,133.021691552735,14|0,2:0|2:0,2:0:0:0:
179,236,127459,2,0,P|174:212|166:173,1,44.5427185175782,0|0,1:0|1:0,2:0:0:0:
0,0,127604,6,0,P|15:78|25:139,1,133.021691552735,14|0,2:0|2:0,2:0:0:0:
97,184,127896,2,0,P|102:160|110:121,1,44.5427185175782,0|0,1:0|1:0,2:0:0:0:
140,13,128041,5,14,2:0:0:0:
38,281,128187,1,0,1:0:0:0:
116,0,128332,1,14,2:0:0:0:
218,268,128478,1,0,1:0:0:0:
23,130,128624,6,0,P|91:113|130:106,1,88.4789730351563,6|0,1:0|2:0,2:0:0:0:
297,251,128915,2,0,P|229:234|190:227,1,88.4789730351563,0|8,1:0|3:0,2:0:0:0:
324,114,129206,1,0,1:0:0:0:
94,256,129352,1,8,3:0:0:0:
404,159,129497,1,8,3:0:0:0:
42,326,129643,1,8,2:0:0:0:
42,326,129934,5,10,2:0:0:0:
107,170,130080,1,0,1:0:0:0:
194,288,130226,1,0,1:0:0:0:
0,205,130371,5,10,2:0:0:0:
157,94,130517,1,0,1:0:0:0:
99,267,130663,1,8,3:0:0:0:
57,62,130808,1,0,1:0:0:0:
187,197,130954,5,10,3:0:0:0:
246,7,131099,1,0,1:0:0:0:
90,157,131245,1,0,1:0:0:0:
322,97,131391,1,8,2:0:0:0:
165,39,131536,6,0,L|160:69,1,28.812288703125,2|0,2:0|2:0,2:0:0:0:
210,204,131973,6,0,P|198:119|180:-9,1,196.192513195313,6|0,1:0|1:0,2:0:0:0:
116,270,132410,2,0,P|168:282|224:297,1,98.0962565976563,8|0,2:0|2:0,2:0:0:0:
328,80,132701,1,2,1:0:0:0:
166,159,132847,1,4,1:3:0:0:
349,308,132993,2,0,P|360:246|372:195,1,98.0962565976563,8|0,2:0|2:0,2:0:0:0:
291,74,133284,5,2,1:0:0:0:
453,153,133430,1,8,1:3:0:0:
225,258,133575,2,0,P|214:196|202:145,1,98.0962565976563,8|0,2:0|2:0,2:0:0:0:
265,34,133866,1,2,1:0:0:0:
103,113,134012,1,4,1:3:0:0:
329,196,134158,1,8,2:0:0:0:
92,30,134303,6,0,P|40:55|37:200,1,196.192513195313,6|10,1:0|1:3,2:0:0:0:
236,262,134740,2,0,P|113:282|16:324,1,196.192513195313,10|0,2:0|1:0,2:0:0:0:
180,117,135177,1,0,1:0:0:0:
123,331,135323,1,10,2:0:0:0:
189,141,135468,1,2,2:0:0:0:
289,338,135614,5,2,1:0:0:0:
94,239,135760,1,2,1:0:0:0:
307,121,135905,1,10,2:0:0:0:
214,247,136051,1,2,2:0:0:0:
109,42,136197,2,0,P|161:19|206:9,1,98.0962565976563,2|0,1:0|1:0,2:0:0:0:
355,213,136488,1,10,2:0:0:0:
183,117,136633,6,0,B|154:145|131:167|131:167|164:235|194:308,1,196.192513195313,6|10,1:0|1:3,2:0:0:0:
444,184,137070,2,0,P|399:124|265:136,1,196.192513195313,10|0,2:0|1:0,2:0:0:0:
421,286,137507,1,0,1:0:0:0:
368,71,137653,1,10,2:0:0:0:
425,265,137798,1,2,2:0:0:0:
248,113,137944,5,2,1:0:0:0:
463,186,138090,1,2,1:0:0:0:
253,304,138235,1,10,2:0:0:0:
446,176,138381,1,2,2:0:0:0:
222,85,138527,1,2,1:0:0:0:
358,316,138672,2,0,P|366:267|376:219,1,98.0962565976563,2|8,1:0|2:0,2:0:0:0:
164,13,138963,6,0,P|184:100|209:232,1,196.192513195313,6|10,1:0|1:3,2:0:0:0:
144,355,139400,1,10,2:0:0:0:
222,85,139546,1,0,1:0:0:0:
216,369,139692,1,8,2:0:0:0:
133,113,139837,1,2,1:0:0:0:
10,328,139983,1,8,2:0:0:0:
84,53,140129,6,0,B|142:27|187:74|165:84|197:124|276:98,1,196.192513195313,6|8,1:0|2:0,2:0:0:0:
418,11,140565,1,8,2:0:0:0:
226,213,140711,2,0,P|168:198|157:196,1,49.3843202988281,0|0,1:0|1:0,2:0:0:0:
245,21,140857,1,10,2:0:0:0:
412,240,141002,2,0,P|470:225|481:223,1,49.3843202988281,2|0,1:0|1:0,2:0:0:0:
393,48,141148,1,8,2:0:0:0:
278,282,141294,6,0,B|211:256|158:237|158:237|127:261|93:286,1,196.192513195313,6|8,1:0|1:3,2:0:0:0:
264,74,141730,2,0,P|274:121|282:170,1,98.0962565976563,8|0,2:0|2:0,2:0:0:0:
175,342,142022,1,2,1:0:0:0:
376,227,142167,1,4,1:3:0:0:
167,116,142313,2,0,P|156:163|148:212,1,98.0962565976563,8|0,2:0|2:0,2:0:0:0:
239,384,142604,5,2,1:0:0:0:
38,269,142750,1,8,1:3:0:0:
256,161,142896,2,0,P|266:208|274:257,1,98.0962565976563,8|0,2:0|2:0,2:0:0:0:
144,76,143187,1,2,1:0:0:0:
339,129,143332,1,4,1:3:0:0:
164,244,143478,1,8,2:0:0:0:
353,39,143624,6,0,P|422:65|428:192,1,196.192513195313,6|10,1:0|1:3,2:0:0:0:
234,289,144061,2,0,P|332:306|444:350,1,196.192513195313,10|0,2:0|1:0,2:0:0:0:
339,129,144497,1,0,1:0:0:0:
151,371,144643,2,0,P|142:322|132:274,1,98.0962565976563,10|0,2:0|2:0,2:0:0:0:
158,26,144934,6,0,P|105:55|49:75,1,98.0962565976563,6|0,1:0|1:0,2:0:0:0:
277,210,145226,2,0,P|278:149|289:91,1,98.0962565976563,10|0,2:0|2:0,2:0:0:0:
51,220,145517,2,0,P|102:251|147:289,1,98.0962565976563,2|0,1:0|1:0,2:0:0:0:
158,148,145808,1,10,2:0:0:0:
158,148,145881,1,8,2:3:0:0:
158,148,145954,1,4,2:3:0:0:
158,148,146027,1,4,2:3:0:0:
158,148,146099,6,0,P|221:131|267:124,1,98.0962565976563,6|0,1:0|2:0,2:0:0:0:
399,214,146391,1,10,2:0:0:0:
233,21,146536,2,0,P|281:29|328:43,1,98.0962565976563,2|0,2:0|1:0,2:0:0:0:
208,245,146828,1,0,2:0:0:0:
94,29,146973,2,0,P|82:76|73:124,1,98.0962565976563,10|0,2:0|2:0,2:0:0:0:
191,274,147264,1,2,1:0:0:0:
3,67,147410,2,0,P|14:114|23:162,1,98.0962565976563,2|8,2:0|2:0,2:0:0:0:
0,322,147701,1,0,2:0:0:0:
158,130,147847,2,0,P|206:138|253:152,1,98.0962565976563,2|0,1:0|2:0,2:0:0:0:
356,327,148138,2,0,P|307:335|260:349,1,98.0962565976563,10|0,2:0|2:0,2:0:0:0:
351,193,148430,5,2,1:0:0:0:
458,369,148575,1,4,1:3:0:0:
232,251,148721,2,0,P|240:202|252:155,1,98.0962565976563,8|0,2:0|1:0,2:0:0:0:
352,13,149012,1,2,1:0:0:0:
151,81,149158,1,4,1:3:0:0:
351,193,149303,2,0,P|342:144|330:97,1,98.0962565976563,12|0,2:0|1:0,2:0:0:0:
166,197,149595,5,2,1:0:0:0:
350,287,149740,1,0,1:0:0:0:
350,287,149813,1,0,1:0:0:0:
350,287,149886,2,0,L|402:268,3,49.1601922988281,8|0|0|0,2:0|2:0|1:0|1:0,2:0:0:0:
208,344,150177,2,0,L|253:360,3,49.1601922988281,10|0|0|0,2:0|2:0|1:0|1:0,2:0:0:0:
104,264,150468,2,0,L|149:247,3,49.1601922988281,8|0|0|0,2:0|1:0|1:0|1:0,2:0:0:0:
12,356,150760,5,14,2:0:0:0:
100,145,150905,1,0,1:0:0:0:
204,321,151051,1,0,1:0:0:0:
16,104,151197,2,0,P|8:152|0:200,1,98.0962565976563,12|0,2:0|1:0,2:0:0:0:
191,90,151488,1,0,1:0:0:0:
36,4,151633,1,12,2:0:0:0:
145,224,151779,1,0,1:0:0:0:
275,0,151925,1,0,1:0:0:0:
33,204,152070,6,0,P|42:156|50:108,1,98.0962565976563,14|0,2:0|1:0,2:0:0:0:
205,292,152362,1,0,1:0:0:0:
84,93,152507,2,0,P|76:141|67:189,1,98.0962565976563,14|0,2:0|1:0,2:0:0:0:
238,318,152798,2,0,P|229:269|221:221,1,98.0962565976563,10|0,2:0|1:0,2:0:0:0:
322,53,153090,5,14,2:0:0:0:
103,174,153235,1,8,3:0:0:0:
337,281,153381,1,0,1:0:0:0:
337,281,153454,1,0,1:0:0:0:
337,281,153527,1,10,2:0:0:0:
203,41,153672,1,8,3:0:0:0:
103,298,153818,1,2,1:0:0:0:
369,147,153963,1,10,2:0:0:0:
369,147,154109,1,0,3:0:0:0:
105,48,155129,5,8,3:0:0:0:
258,320,155420,6,0,P|295:262|241:138,1,207.7332530625,6|0,1:0|2:0,2:0:0:0:
102,281,156002,2,0,P|164:262|194:256,1,69.2444176875,0|0,1:0|2:0,2:0:0:0:
340,288,156294,1,8,2:0:0:0:
166,169,156439,1,8,2:0:0:0:
335,69,156585,1,8,2:0:0:0:
266,201,156730,2,0,P|257:131|246:43,1,138.488835375,8|0,2:0|2:0,2:0:0:0:
161,7,157167,2,0,P|151:75|143:144,1,138.488835375,8|0,2:0|3:0,2:0:0:0:
143,144,157604,1,0,2:0:0:0:
14,237,157750,6,0,B|82:210|122:260|99:272|151:319|228:280,1,207.7332530625,6|0,1:0|2:0,2:0:0:0:
321,210,158332,2,0,P|329:262|334:295,1,69.2444176875,0|0,1:0|2:0,2:0:0:0:
187,176,158624,1,8,2:0:0:0:
415,238,158769,1,8,2:0:0:0:
230,374,158915,1,8,2:0:0:0:
347,135,159061,2,0,P|417:147|498:162,1,138.488835375,8|0,2:0|2:0,2:0:0:0:
496,267,159497,2,0,P|428:254|359:242,1,138.488835375,8|0,2:0|3:0,2:0:0:0:
359,242,159934,1,0,2:0:0:0:
196,349,160080,6,0,P|124:290|180:185,1,207.7332530625,6|0,1:0|2:0,2:0:0:0:
263,120,160663,2,0,P|271:172|276:205,1,69.2444176875,0|0,1:0|2:0,2:0:0:0:
154,75,160954,1,8,2:0:0:0:
362,135,161099,1,8,2:0:0:0:
158,194,161245,1,8,2:0:0:0:
372,28,161391,2,0,P|382:92|394:171,1,138.488835375,8|0,2:0|2:0,2:0:0:0:
250,236,161828,2,0,P|260:167|271:99,1,138.488835375,8|0,2:0|2:0,2:0:0:0:
271,99,162264,1,0,2:0:0:0:
408,279,162410,6,0,B|340:252|300:302|323:314|271:361|194:322,1,207.7332530625,6|0,1:0|2:0,2:0:0:0:
99,282,162993,2,0,P|107:334|112:367,1,69.2444176875,0|0,1:0|2:0,2:0:0:0:
193,187,163284,1,8,2:0:0:0:
0,285,163430,1,8,2:0:0:0:
212,200,163575,2,0,P|204:252|199:285,1,69.2444176875,8|0,2:0|3:0,2:0:0:0:
132,110,163866,2,0,P|194:91|224:85,1,69.2444176875,0|8,3:0|3:0,2:0:0:0:
110,231,164158,2,0,P|48:212|18:206,1,69.2444176875,0|0,1:0|3:0,2:0:0:0:
1,117,164449,1,8,3:0:0:0:
1,117,164595,1,0,3:0:0:0:
171,300,164740,6,0,P|249:236|371:255,1,207.7332530625,6|0,1:0|2:0,2:0:0:0:
479,319,165323,2,0,P|468:253|462:230,1,69.2444176875,0|0,1:0|2:0,2:0:0:0:
355,116,165614,1,8,2:0:0:0:
505,159,165760,1,8,2:0:0:0:
338,310,165905,2,0,P|342:275|349:241,1,69.2444176875,8|0,2:0|2:0,2:0:0:0:
220,156,166197,2,0,P|226:189|231:224,1,69.2444176875,0|0,2:0|2:0,2:0:0:0:
92,332,166488,2,0,P|103:268|116:191,1,138.488835375,8|0,3:0|2:0,2:0:0:0:
115,195,166925,1,0,3:0:0:0:
21,61,167070,6,0,B|89:34|129:84|106:96|158:143|235:104,1,207.7332530625,6|0,1:0|2:0,2:0:0:0:
327,32,167653,2,0,P|320:65|315:100,1,69.2444176875,0|0,1:0|2:0,2:0:0:0:
365,235,167944,1,8,2:0:0:0:
221,153,168090,1,8,2:0:0:0:
403,71,168235,1,8,2:0:0:0:
253,268,168381,2,0,P|179:252|107:237,1,138.488835375,8|0,2:0|2:0,2:0:0:0:
15,112,168818,2,0,P|82:97|150:83,1,138.488835375,8|0,3:0|2:0,2:0:0:0:
150,83,169255,1,0,2:0:0:0:
370,216,169400,6,0,P|430:145|380:46,1,207.7332530625,6|0,1:0|2:0,2:0:0:0:
252,9,169983,2,0,P|266:75|271:101,1,69.2444176875,0|0,1:0|2:0,2:0:0:0:
206,221,170274,1,8,2:0:0:0:
342,134,170420,1,8,2:0:0:0:
182,61,170565,1,8,2:0:0:0:
327,238,170711,2,0,P|396:221|484:202,1,138.488835375,8|0,2:0|2:0,2:0:0:0:
358,357,171148,2,0,P|290:340|223:325,1,138.488835375,8|0,2:0|3:0,2:0:0:0:
223,325,171585,1,0,2:0:0:0:
107,187,171730,6,0,B|79:228|50:254|50:254|86:295|108:371,1,207.7332530625,6|8,1:0|3:0,2:0:0:0:
210,229,172313,2,0,P|203:195|195:161,1,69.2444176875,0|0,1:0|2:0,2:0:0:0:
96,97,172604,2,0,P|88:130|81:164,1,69.2444176875,8|0,3:0|2:0,2:0:0:0:
210,42,172896,1,0,1:0:0:0:
283,188,173090,6,0,L|170:153,2,92.32589025,8|8|0,3:0|3:0|1:0,2:0:0:0:
361,100,173672,1,8,3:0:0:0:
247,311,173866,1,8,3:0:0:0:
8,67,174061,6,0,B|194:-23|314:150|207:191|350:369|497:297,1,614.4512,6|0,1:0|3:0,2:0:0:0:
86,358,191536,6,0,P|118:352|146:347,1,61.550592,2|0,2:0|2:0,2:0:0:0:
218,243,192119,2,0,P|248:248|278:254,1,61.550592,2|0,2:0|2:0,2:0:0:0:
377,364,192701,6,0,P|382:322|388:267,1,92.325888,2|0,2:0|2:0,2:0:0:0:
466,285,193284,2,0,P|460:255|454:224,1,61.550592,2|0,2:0|2:0,2:0:0:0:
490,153,193721,6,0,P|470:136|425:130,1,61.550592,2|0,2:0|2:0,2:0:0:0:
360,129,194158,2,0,P|316:167|246:163,1,122.89024,2|2,2:0|2:0,2:0:0:0:
92,66,195031,5,2,2:0:0:0:
183,207,195323,5,2,2:0:0:0:
290,93,195614,5,2,2:0:0:0:
392,155,195905,5,2,2:0:0:0:
392,155,196197,6,0,P|386:185|380:215,1,61.550592,2|0,2:0|2:0,2:0:0:0:
304,215,196633,2,0,P|309:245|315:275,1,61.550592,2|0,2:0|2:0,2:0:0:0:
330,354,197070,6,0,P|299:348|269:342,1,61.550592,2|0,2:0|2:0,2:0:0:0:
239,274,197507,2,0,P|208:279|178:285,1,61.550592,2|2,2:0|2:0,2:0:0:0:
124,339,197944,5,2,2:0:0:0:
382,213,198235,5,2,2:0:0:0:
195,61,198527,6,0,L|185:135,1,61.550592,2|0,2:0|2:0,2:0:0:0:
52,139,199109,2,0,L|62:213,1,61.550592,2|0,2:0|2:0,2:0:0:0:
320,220,199692,2,0,L|310:294,1,61.550592,2|0,2:0|2:0,2:0:0:0:
193,381,200274,2,0,L|182:283,1,92.325888,2|0,2:0|2:0,2:0:0:0:
107,177,200857,6,0,B|177:186|229:150|229:150|259:208|325:220,1,245.78048,2|2,2:0|2:0,2:0:0:0:
461,158,202604,6,0,L|453:124,1,30.775296,2|0,2:0|2:0,2:0:0:0:
375,126,202896,2,0,L|383:92,1,30.775296,2|0,2:0|2:0,2:0:0:0:
448,29,203187,5,2,2:0:0:0:
388,207,203624,5,2,2:0:0:0:
442,365,204061,6,0,B|425:299|500:309|467:216|419:211|389:232|389:232|371:215|294:220|305:314|350:343,1,362.979444925782,2|0,2:0|2:0,2:0:0:0:
339,334,206099,6,0,L|297:324,1,40.353024984375,2|0,2:0|2:0,2:0:0:0:
227,289,206682,6,0,L|151:307,1,73.9805462558594,2|0,2:0|2:0,2:0:0:0:
64,268,207264,6,0,P|54:258|54:266,1,28.812288703125,2|0,2:0|2:0,2:0:0:0:
134,218,207701,6,0,B|103:165|40:180|40:180|83:134|152:157|152:157|139:99|86:77|86:77|144:59|193:142|215:183|296:132|296:132|355:84|345:42|335:-41|173:21|257:108|296:132|296:132|371:79|410:112|427:149|433:179|433:179|406:145|361:153,1,1106.012187,6|10,1:0|2:0,2:0:0:0:
386,151,210323,5,6,1:3:0:0:
270,354,210468,1,6,1:3:0:0:
270,354,211925,6,0,P|266:300|241:348,1,124.853247238281,8|0,3:0|2:0,2:0:0:0:
345,246,212362,6,0,B|288:220|243:261|268:274|217:324|140:274,1,196.192513195313,6|0,1:0|1:0,2:0:0:0:
2,204,212798,2,0,P|10:253|17:301,1,98.0962565976563,10|0,2:0|2:0,2:0:0:0:
216,96,213090,2,0,P|207:144|200:192,1,98.0962565976563,0|0,1:0|2:0,2:0:0:0:
109,10,213381,1,10,2:0:0:0:
324,83,213527,1,2,2:0:0:0:
90,212,213672,5,2,1:0:0:0:
90,212,213818,2,0,P|82:163|74:115,1,98.0962565976563,2|8,2:0|2:0,2:0:0:0:
297,197,214109,2,0,P|288:245|281:293,1,98.0962565976563,2|0,2:0|1:0,2:0:0:0:
216,96,214400,1,2,1:0:0:0:
399,268,214546,1,8,2:0:0:0:
201,186,214692,6,0,P|142:214|156:353,1,196.192513195313,6|2,1:0|1:0,2:0:0:0:
346,86,215129,1,10,2:0:0:0:
263,336,215274,1,0,1:0:0:0:
399,34,215420,1,8,2:0:0:0:
482,284,215565,1,2,1:0:0:0:
291,24,215711,1,8,2:0:0:0:
208,274,215857,6,0,P|306:255|422:232,1,196.192513195313,6|8,1:0|2:0,2:0:0:0:
483,190,216221,1,0,2:0:0:0:
483,190,216294,2,0,P|479:223|475:249,3,49.1601922988281,8|0|0|0,3:0|2:0|1:0|1:0,2:0:0:0:
373,116,216585,1,10,2:0:0:0:
504,329,216730,1,2,1:0:0:0:
504,329,217022,6,0,B|449:302|402:340|432:364|375:404|301:363,1,196.192513195313,6|0,1:0|1:0,2:0:0:0:
251,116,217459,5,8,2:0:0:0:
353,279,217604,1,0,1:0:0:0:
332,63,217750,5,10,2:0:0:0:
203,268,217896,1,0,1:0:0:0:
148,20,218041,5,8,2:0:0:0:
277,225,218187,1,0,1:0:0:0:
396,15,218332,5,14,2:0:0:0:
182,168,218478,1,0,1:0:0:0:
433,326,218624,2,0,P|442:272|454:212,1,98.0962565976563,8|0,2:0|1:0,2:0:0:0:
138,100,218915,2,0,P|147:148|155:196,1,98.0962565976563,10|0,2:0|1:0,2:0:0:0:
141,232,219133,1,0,2:0:0:0:
141,232,219206,1,8,2:0:0:0:
295,29,219352,6,0,P|370:33|398:151,1,196.192513195313,6|2,1:0|1:0,2:0:0:0:
224,313,219789,5,10,2:0:0:0:
309,114,219934,1,0,1:0:0:0:
326,353,220080,5,8,2:0:0:0:
218,100,220226,1,0,1:0:0:0:
60,278,220371,5,10,2:0:0:0:
168,25,220517,1,0,1:0:0:0:
321,269,220663,5,14,2:0:0:0:
89,158,220808,1,0,1:0:0:0:
89,158,220881,1,0,1:0:0:0:
89,158,220954,2,0,P|92:137|98:104,3,49.1601922988281,10|0|0|0,2:0|1:0|1:0|1:0,2:0:0:0:
231,210,221245,2,2,P|227:185|223:161,3,49.1601922988281,10|0|0|0,2:0|1:0|1:0|1:0,2:0:0:0:
120,300,221536,1,10,2:0:0:0:
120,300,221609,1,8,2:0:0:0:
120,300,221682,1,8,2:0:0:0:
323,143,221828,6,0,P|315:201|306:263,1,98.0962565976563,6|0,1:0|1:0,2:0:0:0:
409,384,222119,1,10,2:0:0:0:
204,196,222264,2,0,P|210:244|217:292,1,98.0962565976563,2|0,1:0|1:0,2:0:0:0:
403,177,222556,1,0,1:0:0:0:
131,279,222701,2,0,P|67:265|26:257,1,98.0962565976563,10|0,2:0|1:0,2:0:0:0:
177,72,222993,1,2,1:0:0:0:
285,363,223138,2,0,P|349:349|390:341,1,98.0962565976563,2|8,1:0|2:0,2:0:0:0:
235,169,223430,1,2,1:0:0:0:
164,384,223575,1,2,1:0:0:0:
366,234,223721,1,0,1:0:0:0:
156,110,223866,2,0,P|149:158|142:206,1,98.0962565976563,10|0,2:0|2:0,2:0:0:0:
328,84,224158,5,6,1:0:0:0:
59,162,224303,1,8,2:0:0:0:
356,89,224449,1,8,2:0:0:0:
149,23,224595,1,0,1:0:0:0:
338,243,224740,1,10,2:0:0:0:
262,46,224886,1,0,1:0:0:0:
123,316,225031,1,8,2:0:0:0:
406,163,225177,1,8,2:0:0:0:
193,104,225323,6,0,L|207:178,3,49.1601922988281,14|0|0|0,1:2|1:0|1:0|1:0,2:0:0:0:
307,272,225614,2,0,L|316:224,3,49.1601922988281,8|0|0|0,2:0|2:0|1:0|1:0,2:0:0:0:
344,92,225905,2,0,L|392:102,1,49.3843202988281,10|8,2:0|3:0,2:0:0:0:
186,278,226051,1,8,3:0:0:0:
186,278,226124,1,8,3:0:0:0:
186,278,226197,2,0,L|138:288,3,49.1601922988281,8|0|0|0,2:0|2:0|1:0|1:0,2:0:0:0:
96,119,226488,6,0,P|54:172|55:260,1,147.480576896484,14|0,2:0|2:0,2:0:0:0:
131,315,226779,2,0,L|193:302,1,49.3843202988281,0|0,1:0|1:0,2:0:0:0:
322,57,226925,2,0,P|364:110|363:198,1,147.480576896484,12|0,2:0|2:0,2:0:0:0:
287,253,227216,2,0,L|225:240,1,49.3843202988281,0|0,1:0|1:0,2:0:0:0:
397,98,227362,5,12,2:0:0:0:
428,309,227507,1,0,1:0:0:0:
271,152,227653,1,0,1:0:0:0:
206,364,227798,2,0,P|160:318|68:327,1,147.480576896484,14|0,2:0|2:0,2:0:0:0:
9,359,228090,2,0,L|-3:300,1,49.3843202988281,0|0,1:0|1:0,2:0:0:0:
187,100,228235,1,14,2:0:0:0:
55,194,228381,1,0,1:0:0:0:
55,194,228454,1,0,2:0:0:0:
55,194,228527,2,0,P|109:207|127:213,1,49.3843202988281,10|0,2:0|1:0,2:0:0:0:
231,291,228672,2,0,P|177:304|159:310,1,49.3843202988281,8|0,2:0|1:0,2:0:0:0:
104,71,228818,5,6,1:0:0:0:
336,382,229255,1,6,1:0:0:0:
445,15,229692,1,6,1:0:0:0:
410,34,230711,5,0,1:0:0:0:
410,34,230784,1,0,1:0:0:0:
410,34,230857,2,0,P|414:61|419:86,1,46.268416,8|0,2:0|2:0,2:0:0:0:
434,173,231148,6,0,P|398:164|353:156,1,69.2444176875,6|0,1:0|2:0,2:0:0:0:
289,259,231439,2,0,P|255:266|222:274,1,69.2444176875,10|0,2:0|2:0,2:0:0:0:
89,204,231730,1,2,1:0:0:0:
89,204,231876,2,0,P|79:255|74:289,1,69.2444176875,2|8,2:0|2:0,2:0:0:0:
252,188,232167,2,0,P|246:154|239:120,1,69.2444176875,2|0,2:0|1:0,2:0:0:0:
171,0,232459,1,2,2:0:0:0:
171,0,232604,2,0,P|205:7|238:15,1,69.2444176875,10|0,2:0|2:0,2:0:0:0:
143,119,232896,1,2,1:0:0:0:
143,119,233041,1,0,2:0:0:0:
334,42,233187,1,10,2:0:0:0:
334,42,233332,1,0,2:0:0:0:
267,197,233478,6,0,P|261:163|254:129,1,69.2444176875,2|0,1:0|2:0,2:0:0:0:
411,180,233769,2,0,P|404:214|398:248,1,69.2444176875,10|0,2:0|2:0,2:0:0:0:
458,362,234061,1,2,1:0:0:0:
458,362,234206,2,0,P|424:369|391:377,1,69.2444176875,2|8,2:0|2:0,2:0:0:0:
292,297,234497,2,0,P|258:289|225:282,1,69.2444176875,2|0,2:0|1:0,2:0:0:0:
101,361,234789,1,2,2:0:0:0:
101,361,234934,2,0,P|95:327|88:293,1,69.2444176875,10|0,2:0|2:0,2:0:0:0:
140,165,235226,1,2,1:0:0:0:
9,237,235371,1,2,2:0:0:0:
179,303,235517,1,8,2:0:0:0:
179,303,235590,1,8,2:0:0:0:
179,303,235663,1,8,2:0:0:0:
179,303,235735,1,8,2:0:0:0:
179,303,235808,6,0,P|185:269|192:235,1,69.2444176875,6|0,1:0|2:0,2:0:0:0:
307,143,236099,2,0,P|314:177|320:211,1,69.2444176875,10|0,2:0|2:0,2:0:0:0:
379,336,236391,1,2,1:0:0:0:
379,336,236536,2,0,P|345:328|312:321,1,69.2444176875,2|8,2:0|2:0,2:0:0:0:
156,225,236828,2,0,P|190:217|223:210,1,69.2444176875,2|0,2:0|1:0,2:0:0:0:
43,312,237119,1,2,2:0:0:0:
43,312,237264,2,0,P|49:278|56:244,1,69.2444176875,10|0,2:0|2:0,2:0:0:0:
157,103,237556,1,2,1:0:0:0:
157,103,237701,1,0,2:0:0:0:
4,171,237847,1,10,2:0:0:0:
4,171,237993,1,0,2:0:0:0:
152,292,238138,6,0,P|208:273|278:252,1,104.10393853125,14|0,2:0|2:0,2:0:0:0:
342,227,238430,2,0,P|331:275|330:283,1,34.85952084375,0|0,1:0|1:0,2:0:0:0:
480,296,238575,2,0,P|476:279|471:263,1,34.85952084375,0|0,1:0|1:0,2:0:0:0:
342,363,238721,1,10,2:0:0:0:
461,149,238866,1,10,2:0:0:0:
461,149,239158,5,14,2:0:0:0:
