osu file format v14

[General]
AudioFilename: audio.mp3
AudioLeadIn: 0
PreviewTime: 59956
Countdown: 0
SampleSet: None
StackLeniency: 0.7
Mode: 0
LetterboxInBreaks: 0
WidescreenStoryboard: 1

[Editor]
DistanceSpacing: 1
BeatDivisor: 4
GridSize: 4
TimelineZoom: 1.7

[Metadata]
Title:My Days
TitleUnicode:My Days
Artist:Suzuki Konomi
ArtistUnicode:鈴木このみ;
Creator:suli
Version:Insane
Source:My Days;永远的7日之都
Tags:My Days;永远的7日之都;鈴木このみ;
BeatmapID:1536606
BeatmapSetID:727756

[Difficulty]
HPDrainRate:6
CircleSize:4
OverallDifficulty:7.5
ApproachRate:9.2
SliderMultiplier:1.9
SliderTickRate:1

[Events]
//Background and Video events
0,0,"65616708_p0.jpg",0,0
//Break Periods
2,45905,49486
//Storyboard Layer 0 (Background)
//Storyboard Layer 1 (Fail)
//Storyboard Layer 2 (Pass)
//Storyboard Layer 3 (Foreground)
//Storyboard Sound Samples

[TimingPoints]
106,300,4,2,6,70,1,0
4006,300,4,2,6,70,1,0
4006,-100,4,2,6,15,0,0
17206,-100,4,2,1,25,0,0
36406,-100,4,2,6,25,0,0
46006,-200,4,2,1,25,0,0
50056,-100,4,2,6,25,0,0
55606,-200,4,2,6,5,0,0
58006,-100,4,2,6,40,0,0
60406,-83.3333333333333,4,2,6,25,0,1
93256,-100,4,2,6,15,0,0
104806,-200,4,2,6,15,0,0
109606,-200,4,2,6,10,0,0

[HitObjects]
256,192,4006,12,0,6106,0:0:0:0:
92,90,6256,5,0,0:0:0:0:
92,90,6331,1,0,0:0:0:0:
92,90,6406,2,0,B|225:90|225:90|226:90|260:137,1,190
210,271,6856,5,0,0:0:0:0:
126,210,7006,1,2,0:0:0:0:
126,210,7156,1,0,0:0:0:0:
210,271,7306,2,0,B|286:271|286:271|345:162,1,190
257,130,7756,5,0,0:0:0:0:
257,130,7906,2,0,B|256:91|256:91|185:34,1,95
132,168,8206,2,0,B|97:195|97:195|87:254,1,95
181,281,8506,2,2,B|338:276|338:276|312:297,2,190,0|0|2,0:0|0:0|0:0,0:0:0:0:
85,215,9256,5,0,0:0:0:0:
85,215,9406,1,0,0:0:0:0:
193,201,9556,2,0,B|231:166|231:166|229:116,1,95
219,36,9856,5,0,0:0:0:0:
219,36,10006,1,0,0:0:0:0:
319,78,10156,2,0,B|369:65|369:65|392:21,1,95
237,144,10606,5,0,0:0:0:0:
237,144,10756,1,0,0:0:0:0:
150,254,10906,2,2,B|131:275|131:275|117:114,2,190
225,173,11656,5,0,0:0:0:0:
225,173,11806,2,0,B|297:171|297:171|319:191,1,95
236,86,12106,5,0,0:0:0:0:
236,86,12256,2,0,B|164:84|164:84|142:104,1,95
196,189,12556,6,0,L|88:236,1,95
233,296,12856,2,0,L|322:251,1,95
197,60,13156,5,0,0:0:0:0:
182,94,13306,1,0,0:0:0:0:
282,109,13456,1,0,0:0:0:0:
292,132,13606,2,2,B|426:122|426:122|463:54,2,190
197,60,14356,5,4,0:0:0:0:
182,94,14656,1,4,0:0:0:0:
282,109,14956,1,4,0:0:0:0:
256,192,15256,12,0,17056,0:0:0:0:
436,89,17206,6,4,B|292:95|292:95|246:171,1,190
171,171,17656,1,0,0:0:0:0:
254,230,17806,2,0,B|316:249|316:249|379:218,1,95
171,171,18106,2,0,B|116:147|116:147|42:161,1,95
352,186,18406,5,2,0:0:0:0:
254,248,18556,1,0,0:0:0:0:
255,139,18706,2,0,L|243:36,1,95
244,44,19006,5,2,0:0:0:0:
119,34,19156,1,0,0:0:0:0:
161,162,19306,2,0,B|106:177|106:177|66:171,1,95
219,250,19606,2,0,B|276:232|276:232|293:199,1,95
398,207,19906,2,0,L|356:306,1,95
354,136,20206,6,0,B|310:158|310:158|281:224,1,95
150,247,20506,2,0,B|198:231|198:231|222:175,1,95
194,58,20806,5,2,0:0:0:0:
194,58,20956,1,0,0:0:0:0:
216,191,21106,2,0,L|99:173,1,95
83,248,21406,6,0,P|38:187|48:140,1,95
122,176,21706,2,0,P|152:106|198:91,1,95
305,139,22006,5,0,0:0:0:0:
305,139,22156,1,0,0:0:0:0:
412,196,22306,1,2,0:0:0:0:
307,255,22456,1,0,0:0:0:0:
307,255,22606,6,0,B|237:280|237:280|260:318,1,95
164,296,22906,1,2,0:0:0:0:
164,296,23056,2,0,P|167:249|192:209,1,95
254,148,23356,2,0,B|186:123|186:123|144:145,1,95
281,251,23656,5,0,0:0:0:0:
374,193,23806,1,2,0:0:0:0:
374,193,23956,1,0,0:0:0:0:
282,144,24106,2,0,B|315:134|315:134|257:54,1,95
203,70,24406,5,2,0:0:0:0:
282,144,24556,1,0,0:0:0:0:
96,214,24706,2,0,B|82:244|82:244|82:286|92:317,1,95
172,276,25006,2,0,B|200:267|200:267|234:282|277:246,1,95
350,186,25306,1,2,0:0:0:0:
350,186,25456,2,0,P|297:128|262:257,2,285
374,275,26506,5,0,0:0:0:0:
374,275,26581,1,0,0:0:0:0:
374,275,26656,1,0,0:0:0:0:
374,275,26731,1,0,0:0:0:0:
374,275,26806,2,0,L|488:257,2,95
356,85,27256,5,0,0:0:0:0:
262,132,27406,1,2,0:0:0:0:
339,204,27556,2,0,L|249:247,1,95
265,90,27856,5,0,0:0:0:0:
201,189,28006,1,2,0:0:0:0:
339,204,28156,2,0,B|357:154|357:154|322:84,1,95
201,189,28456,5,0,0:0:0:0:
201,189,28606,1,2,0:0:0:0:
194,84,28756,1,0,0:0:0:0:
112,136,28906,2,0,L|40:136,2,47.5
201,189,29206,5,2,0:0:0:0:
201,189,29356,1,0,0:0:0:0:
294,127,29506,2,0,B|281:56|281:56|239:32,1,95
188,195,29806,5,2,0:0:0:0:
188,195,29956,1,0,0:0:0:0:
270,295,30106,2,0,B|345:264|345:264|305:235,1,95
179,287,30406,1,2,0:0:0:0:
179,287,30556,6,0,B|163:222|163:222|131:197,1,95
191,132,30856,1,0,0:0:0:0:
191,132,31006,2,0,B|128:106|128:106|71:124,1,95
289,120,31306,5,2,0:0:0:0:
191,132,31456,1,0,0:0:0:0:
255,224,31606,2,0,B|329:238|329:238|366:213,1,95
433,152,31906,5,2,0:0:0:0:
433,152,32056,1,0,0:0:0:0:
303,60,32206,1,0,0:0:0:0:
303,60,32356,1,0,0:0:0:0:
303,60,32506,2,0,L|185:50,2,95
224,145,32956,5,0,0:0:0:0:
224,145,33106,2,0,L|260:261,2,95
135,193,33556,2,0,L|24:205,2,95
196,73,34006,5,2,0:0:0:0:
196,73,34156,1,0,0:0:0:0:
295,147,34306,1,2,0:0:0:0:
295,147,34456,1,0,0:0:0:0:
295,147,34606,2,0,B|356:120|356:120|374:76,1,95
295,147,35056,6,0,B|225:112|225:112|141:139,1,142.5
75,133,35356,2,0,B|119:149|119:149|182:124,1,95
81,215,35656,1,0,0:0:0:0:
81,215,35731,1,0,0:0:0:0:
81,215,35806,2,0,B|71:275|71:275|165:280,1,142.5
228,237,36106,2,0,B|272:248|272:248|231:306,1,95
218,73,36406,5,2,0:0:0:0:
218,73,36481,1,0,0:0:0:0:
218,73,36556,1,0,0:0:0:0:
218,73,36631,1,0,0:0:0:0:
218,73,36706,2,0,B|235:149|235:149|273:161,1,95
314,94,37006,2,0,L|442:102,1,95
465,171,37306,5,2,0:0:0:0:
465,171,37456,1,0,0:0:0:0:
355,184,37606,2,0,B|378:224|378:224|376:298,1,95
301,238,37906,2,0,L|176:232,1,95
138,284,38206,2,4,P|130:194|207:146,1,190
213,241,38806,5,2,0:0:0:0:
201,340,38956,1,0,0:0:0:0:
305,292,39106,2,0,P|322:231|307:186,1,95
155,120,39406,2,0,L|52:92,2,95
217,193,39856,6,4,B|261:124|261:124|341:112,1,142.5
235,158,40156,6,4,B|317:162|317:162|367:225,1,142.5
274,157,40456,6,4,B|312:230|312:230|282:305,1,142.5
229,229,40756,2,4,B|104:246|104:246|152:185,1,190
42,147,41206,5,2,0:0:0:0:
42,147,41356,1,0,0:0:0:0:
106,247,41506,2,0,B|137:296|137:296|186:306,1,95
196,222,41806,2,0,B|235:179|235:179|232:129,1,95
157,154,42106,5,2,0:0:0:0:
157,154,42256,2,0,L|171:60,1,95
70,174,42556,1,0,0:0:0:0:
188,278,42706,2,0,B|234:270|234:270|286:295,1,95
382,249,43006,2,0,B|335:205|335:205|302:196,1,95
305,196,43456,5,0,0:0:0:0:
181,121,43606,2,0,B|190:73|190:73|222:34,1,95
174,280,43906,5,2,0:0:0:0:
174,280,44056,1,0,0:0:0:0:
266,110,44206,2,0,B|317:93|317:93|360:99,1,95
174,280,44506,5,2,0:0:0:0:
79,175,44656,2,0,B|115:164|115:164|183:169,1,95
300,229,44956,5,0,0:0:0:0:
173,169,45106,1,2,0:0:0:0:
286,92,45256,1,0,0:0:0:0:
446,162,45406,2,4,B|382:94|382:94|253:90,1,190
336,168,50056,6,0,L|365:121,3,47.5
287,112,50356,2,0,L|271:68,4,47.5
206,148,50806,2,0,B|74:155|74:155|142:205,1,190
67,79,51256,2,0,B|91:168|91:168|173:222,1,190
172,221,51706,5,2,0:0:0:0:
218,82,51856,2,0,B|270:76|270:76|321:95,1,95
143,206,52156,5,2,0:0:0:0:
259,158,52306,2,0,B|290:200|290:200|299:253,1,95
219,92,52606,5,2,0:0:0:0:
107,158,52756,1,0,0:0:0:0:
205,233,52906,2,0,B|184:281|184:281|142:315,1,95
160,142,53206,6,6,B|110:219|110:219|214:231,1,190,0|0,0:0|0:0,0:0:0:0:
250,108,53656,1,0,0:0:0:0:
207,230,53806,2,0,B|246:210|246:210|431:235,2,190
316,82,54556,6,0,B|377:69|377:69|415:82,2,95
244,123,55006,2,0,L|223:5,1,95
225,208,55306,2,0,B|168:183|168:183|150:139,1,95
273,121,55606,6,0,B|318:115|318:115|337:122,1,47.5
279,123,55906,2,0,B|324:121|324:121|343:129,1,47.5
238,262,56206,6,0,B|193:268|193:268|174:261,1,47.5
232,260,56506,2,0,B|187:262|187:262|168:254,1,47.5
238,121,56806,6,0,B|193:115|193:115|174:122,1,47.5
232,123,57106,2,0,B|187:121|187:121|168:129,1,47.5
273,262,57406,6,0,B|318:268|318:268|337:261,1,47.5
396,176,57706,1,0,0:0:0:0:
396,176,57781,1,0,0:0:0:0:
396,176,57856,1,0,0:0:0:0:
396,176,57931,1,0,0:0:0:0:
396,176,58006,2,0,P|344:131|208:164,1,190
146,156,58456,6,4,B|136:119|180:68|180:68|222:91|240:184,1,190
278,251,58906,1,0,0:0:0:0:
278,251,59056,1,2,0:0:0:0:
364,185,59356,5,0,0:0:0:0:
364,185,59506,1,0,0:0:0:0:
235,101,59806,5,0,0:0:0:0:
235,101,59956,2,0,L|217:145,2,47.5
122,146,60256,1,0,0:0:0:0:
122,146,60406,2,4,P|177:225|307:198,1,227.999993041992
296,209,60856,5,0,0:0:0:0:
347,131,61006,1,2,0:0:0:0:
394,220,61156,1,0,0:0:0:0:
394,220,61306,1,0,0:0:0:0:
394,220,61456,2,0,P|418:108|328:44,1,227.999993041992
217,77,61906,2,0,P|261:185|329:134,1,227.999993041992
90,184,62356,5,0,0:0:0:0:
72,330,62506,1,2,0:0:0:0:
168,238,62656,5,0,0:0:0:0:
247,317,62806,1,0,0:0:0:0:
264,212,62956,1,0,0:0:0:0:
264,212,63106,6,0,P|243:144|80:106,1,227.999993041992
359,319,63556,1,0,0:0:0:0:
359,319,63706,2,4,P|429:256|399:119,2,227.999993041992
414,39,64456,6,0,P|342:88|329:126,1,113.999996520996
354,209,64756,2,0,P|250:225|212:187,1,113.999996520996
66,141,65056,1,0,0:0:0:0:
66,141,65206,6,0,P|42:229|102:313,1,170.999994781494
128,216,65506,2,0,P|182:203|220:162,1,113.999996520996
220,162,65806,5,0,0:0:0:0:
254,66,65956,1,0,0:0:0:0:
309,224,66106,5,0,0:0:0:0:
360,94,66256,1,0,0:0:0:0:
441,216,66406,1,0,0:0:0:0:
309,224,66556,2,2,P|221:194|260:49,1,227.999993041992
281,136,67006,6,0,P|336:138|383:107,2,113.999996520996
134,149,67456,5,0,0:0:0:0:
158,68,67606,1,2,0:0:0:0:
295,235,67756,5,0,0:0:0:0:
281,136,67906,1,2,0:0:0:0:
197,209,68056,1,0,0:0:0:0:
197,209,68206,1,2,0:0:0:0:
329,334,68356,6,0,P|390:277|394:194,1,170.999994781494
392,85,68656,2,0,P|377:140|394:194,1,113.999996520996
319,234,68956,2,0,P|223:133|237:33,1,227.999993041992
339,96,69406,2,0,P|382:92|396:78,2,56.9999982604981
282,194,69706,2,0,P|307:229|326:234,2,56.9999982604981
163,97,70006,5,0,0:0:0:0:
163,97,70156,2,0,P|113:122|93:174,1,113.999996520996
177,178,70456,2,0,P|263:200|304:150,1,113.999996520996
247,114,70756,2,0,P|310:87|321:27,1,113.999996520996,0|0,0:3|0:3,0:3:0:0:
142,235,71056,2,2,P|204:270|170:180,2,227.999993041992
62,202,71806,5,0,0:0:0:0:
121,115,71956,1,0,0:0:0:0:
121,115,72031,1,0,0:0:0:0:
121,115,72106,1,0,0:0:0:0:
121,115,72181,1,0,0:0:0:0:
121,115,72256,2,0,P|231:82|246:47,1,113.999996520996
201,14,72556,6,2,P|281:33|321:95,1,113.999996520996
291,165,72856,2,0,P|314:243|280:309,1,113.999996520996
153,166,73156,5,0,0:0:0:0:
153,166,73306,1,2,0:0:0:0:
234,228,73456,2,2,P|181:276|50:212,2,227.999993041992
239,64,74206,6,0,P|206:44|163:50,2,56.9999982604981
193,137,74506,2,0,P|162:160|152:202,2,56.9999982604981
222,213,74806,2,0,P|296:203|342:90,1,170.999994781494
149,256,75106,2,0,P|187:301|282:290,1,113.999996520996
222,213,75406,2,0,P|193:172|92:166,1,113.999996520996
108,73,75706,6,0,P|61:121|69:212,1,113.999996520996
313,266,76006,2,0,P|258:255|222:213,1,113.999996520996
307,171,76306,2,0,P|362:158|399:117,2,113.999996520996
241,39,76756,5,0,0:0:0:0:
241,39,76831,1,0,0:0:0:0:
241,39,76906,1,0,0:0:0:0:
241,39,76981,1,0,0:0:0:0:
241,39,77056,2,0,P|302:84|355:61,1,113.999996520996
127,131,77356,5,0,0:0:0:0:
86,246,77506,1,2,0:0:0:0:
205,194,77656,5,0,0:0:0:0:
241,284,77806,1,2,0:0:0:0:
333,82,77956,5,0,0:0:0:0:
306,187,78106,1,2,0:0:0:0:
333,82,78256,5,0,0:0:0:0:
333,82,78556,1,2,0:0:0:0:
306,187,78856,5,0,0:0:0:0:
306,187,79156,1,2,0:0:0:0:
116,280,79306,5,0,0:0:0:0:
116,280,79381,1,0,0:0:0:0:
116,280,79456,1,0,0:0:0:0:
116,280,79531,1,0,0:0:0:0:
116,280,79606,2,0,P|180:314|269:241,1,170.999994781494
178,225,79906,2,0,P|193:171|169:121,1,113.999996520996
231,64,80206,5,0,0:0:0:0:
231,64,80356,1,0,0:0:0:0:
317,214,80506,6,0,P|398:201|438:129,1,170.999994781494
331,130,80806,2,0,P|345:75|326:23,1,113.999996520996
231,64,81106,1,0,0:0:0:0:
231,64,81256,1,0,0:0:0:0:
231,64,81406,6,0,P|228:155|207:180,1,113.999996520996
155,105,81706,1,0,0:0:0:0:
155,105,81856,1,0,0:0:0:0:
256,248,82006,2,0,P|152:247|130:211,1,113.999996520996
109,175,82306,6,0,P|65:247|81:300,1,113.999996520996
212,177,82606,2,4,P|231:103|174:175,1,227.999993041992
142,232,83056,1,0,0:0:0:0:
142,232,83206,1,0,0:0:0:0:
142,232,83356,2,0,P|206:278|252:245,1,113.999996520996
214,176,83656,5,0,0:0:0:0:
264,61,83806,2,0,P|226:58|191:65,2,56.9999982604981
310,141,84106,1,0,0:0:0:0:
310,141,84181,1,0,0:0:0:0:
310,141,84256,2,0,B|395:164|448:106,1,113.999996520996
250,36,84556,5,0,0:0:0:0:
201,135,84706,1,2,0:0:0:0:
310,141,84856,1,0,0:0:0:0:
151,70,85006,5,2,0:0:0:0:
129,202,85156,1,0,0:0:0:0:
45,112,85306,1,2,0:0:0:0:
129,202,85456,2,0,P|213:209|253:178,1,113.999996520996
254,81,85756,5,0,0:0:0:0:
350,173,85906,1,0,0:0:0:0:
350,173,86056,1,0,0:0:0:0:
350,173,86206,6,0,P|363:206|355:254,2,56.9999982604981
283,220,86506,2,0,P|281:248|269:274,2,56.9999982604981
194,204,86806,5,2,0:0:0:0:
120,94,86956,1,0,0:0:0:0:
207,96,87106,5,2,0:0:0:0:
108,203,87256,1,0,0:0:0:0:
46,52,87406,1,2,0:0:0:0:
212,97,87556,6,0,P|287:85|318:49,1,113.999996520996
379,123,87856,2,0,P|311:55|310:81,1,227.999993041992
195,71,88306,6,0,P|169:62|141:66,2,56.9999982604981
173,157,88606,2,0,P|152:174|142:201,2,56.9999982604981
208,290,89056,5,0,0:0:0:0:
269,150,89206,1,2,0:0:0:0:
355,287,89356,1,0,0:0:0:0:
183,224,89506,5,2,0:0:0:0:
425,171,89656,1,0,0:0:0:0:
424,170,89806,2,0,P|421:114|383:74,1,113.999996520996
336,151,90106,2,0,P|283:135|232:158,1,113.999996520996
289,218,90406,2,0,P|249:257|245:313,1,113.999996520996
252,129,90706,2,0,P|192:50|197:22,1,113.999996520996
357,128,91006,6,0,P|394:119|442:161,2,56.9999982604981
383,207,91306,2,0,P|409:233|396:296,2,56.9999982604981
229,82,91756,5,0,0:0:0:0:
383,207,91906,1,0,0:0:0:0:
332,88,92056,5,0,0:0:0:0:
260,226,92206,1,2,0:0:0:0:
170,33,92356,5,0,0:0:0:0:
260,226,92506,1,2,0:0:0:0:
260,226,92581,1,0,0:0:0:0:
260,226,92656,1,0,0:0:0:0:
256,192,93256,12,2,95956,0:0:0:0:
420,294,96106,5,0,0:0:0:0:
420,294,96181,1,0,0:0:0:0:
420,294,96256,1,0,0:0:0:0:
420,294,96331,1,0,0:0:0:0:
420,294,96406,2,0,B|287:294|287:294|286:294|252:247,1,190
302,113,96856,5,0,0:0:0:0:
386,174,97006,1,2,0:0:0:0:
386,174,97156,1,0,0:0:0:0:
302,113,97306,2,0,B|226:113|226:113|167:222,1,190
255,254,97756,5,0,0:0:0:0:
255,254,97906,2,0,B|256:293|256:293|327:350,1,95
380,216,98206,2,0,B|415:189|415:189|425:130,1,95
331,103,98506,2,2,B|174:108|174:108|200:87,2,190,0|0|2,0:0|0:0|0:0,0:0:0:0:
427,169,99256,5,0,0:0:0:0:
427,169,99406,1,0,0:0:0:0:
319,183,99556,2,0,B|281:218|281:218|283:268,1,95
293,348,99856,5,0,0:0:0:0:
293,348,100006,1,0,0:0:0:0:
193,306,100156,2,0,B|143:319|143:319|120:363,1,95
275,240,100606,5,0,0:0:0:0:
275,240,100756,1,0,0:0:0:0:
362,130,100906,2,2,B|381:109|381:109|395:270,2,190
287,211,101656,5,0,0:0:0:0:
287,211,101806,2,0,B|215:213|215:213|193:193,1,95
276,298,102106,5,0,0:0:0:0:
276,298,102256,2,0,B|348:300|348:300|370:280,1,95
316,195,102556,6,0,L|424:148,1,95
279,88,102856,2,0,L|190:133,1,95
315,324,103156,5,0,0:0:0:0:
330,290,103306,1,0,0:0:0:0:
227,286,103456,1,0,0:0:0:0:
220,252,103606,2,2,B|86:262|86:262|49:330,2,190
216,167,104356,2,0,L|271:161,4,47.5
256,192,104806,12,0,109606,0:0:0:0:
