osu file format v14

[General]
AudioFilename: audio.mp3
AudioLeadIn: 0
PreviewTime: 56762
Countdown: 3
SampleSet: Normal
StackLeniency: 0.7
Mode: 0
LetterboxInBreaks: 0
WidescreenStoryboard: 0

[Editor]
Bookmarks: 14050,23650,33250,42850,47650,52450,54850,57250,66850,76450,93250
DistanceSpacing: 0.8
BeatDivisor: 4
GridSize: 8
TimelineZoom: 1

[Metadata]
Title:My Days
TitleUnicode:My Days
Artist:Suzuki Konomi
ArtistUnicode:鈴木このみ
Creator:Sonnyc
Version:Normal
Source:永远的7日之都
Tags:forever 7th capital
BeatmapID:1712800
BeatmapSetID:815969

[Difficulty]
HPDrainRate:4
CircleSize:2.5
OverallDifficulty:5
ApproachRate:6
SliderMultiplier:1.62
SliderTickRate:2

[Events]
//Background and Video events
0,0,"tp[1].jpg",0,0
//Break Periods
//Storyboard Layer 0 (Background)
//Storyboard Layer 1 (Fail)
//Storyboard Layer 2 (Pass)
//Storyboard Layer 3 (Foreground)
//Storyboard Sound Samples

[TimingPoints]
850,300,4,1,0,70,1,0
42850,-100,4,2,0,40,0,0
47050,-100,4,1,0,70,0,0
52450,-153.846153846154,4,2,0,40,0,0
54550,-100,4,1,0,70,0,0
57250,-100,4,1,0,70,0,1
89500,-100,4,1,0,70,0,0

[Colours]
Combo1 : 255,128,64
Combo2 : 0,255,128
Combo3 : 128,128,255
Combo4 : 255,0,128

[HitObjects]
175,116,14050,2,0,L|339:116,2,162,2|8|2,0:0|0:0|0:0,0:0:0:0:
337,268,15100,2,0,L|173:268,1,162,2|2,0:0|0:0,0:0:0:0:
408,192,17050,21,2,0:0:0:0:
304,352,17500,2,0,P|250:265|208:352,1,243,2|8,0:0|0:0,0:0:0:0:
104,192,18400,1,8,0:0:0:0:
337,116,18850,22,0,L|173:116,2,162,2|8|2,0:0|0:0|0:0,0:0:0:0:
175,268,19900,2,0,L|339:268,1,162,2|2,0:0|0:0,0:0:0:0:
104,192,21850,21,2,0:0:0:0:
208,352,22300,2,0,P|272:208|304:352,1,405,2|0,0:0|0:0,0:0:0:0:
376,116,23950,22,0,L|132:116,1,243,6|2,0:0|0:0,0:0:0:0:
175,268,24700,2,0,L|339:268,1,162,2|2,0:0|0:0,0:0:0:0:
104,192,26650,21,2,0:0:0:0:
208,352,27100,2,0,P|262:265|304:352,1,243,2|8,0:0|0:0,0:0:0:0:
408,192,28000,1,8,0:0:0:0:
176,116,28450,22,0,L|348:116,2,162,2|8|2,0:0|0:0|0:0,0:0:0:0:
337,268,29500,2,0,L|173:268,1,162,2|2,0:0|0:0,0:0:0:0:
408,192,31450,21,2,0:0:0:0:
304,352,31900,2,0,P|250:265|208:352,1,243,2|8,0:0|0:0,0:0:0:0:
108,272,32650,1,2,0:0:0:0:
428,104,33550,21,2,0:0:0:0:
428,104,33850,1,2,0:0:0:0:
428,296,34300,2,0,L|184:296,1,243,2|0,0:0|0:0,0:0:0:0:
56,296,35050,1,2,0:0:0:0:
56,104,35950,5,2,0:0:0:0:
56,104,36250,1,2,0:0:0:0:
256,32,36700,21,6,0:0:0:0:
256,352,37300,1,6,0:0:0:0:
84,104,38350,37,2,0:0:0:0:
84,104,38650,1,2,0:0:0:0:
84,296,39100,2,0,L|328:296,1,243,2|0,0:0|0:0,0:0:0:0:
456,296,39850,1,2,0:0:0:0:
348,96,40450,6,0,P|284:200|164:96,1,324,2|2,0:0|0:0,0:0:0:0:
120,348,41650,1,2,0:0:0:0:
392,348,42250,1,2,0:0:0:0:
256,112,42850,5,4,0:0:0:0:
256,272,45250,1,0,0:0:0:0:
256,112,47650,22,0,P|184:168|256:272,2,243,6|2|0,0:0|0:0|0:0,0:0:0:0:
136,60,48850,1,2,0:0:0:0:
136,324,49450,1,2,0:0:0:0:
256,112,50050,2,0,P|368:180|256:272,1,324,2|2,0:0|0:0,0:0:0:0:
188,192,52450,22,0,P|268:324|316:192,2,368.549983129121,2|2|8,0:0|0:0|0:3,0:0:0:0:
156,68,54850,37,6,0:0:0:0:
348,68,55300,1,2,0:0:0:0:
256,308,55900,21,8,0:0:0:0:
320,124,56350,1,8,0:0:0:0:
192,124,56650,1,8,0:0:0:0:
164,376,57250,38,0,P|228:272|348:376,1,324,6|2,0:0|0:0,0:0:0:0:
372,192,58300,1,2,0:0:0:0:
256,132,58600,1,2,0:0:0:0:
140,192,58900,1,2,0:0:0:0:
388,8,59650,5,2,0:0:0:0:
124,8,60250,1,2,0:0:0:0:
140,192,60700,1,2,0:0:0:0:
256,132,61000,1,2,0:0:0:0:
372,192,61300,1,2,0:0:0:0:
104,352,62050,6,2,B|184:296|256:344|256:352|256:360|328:408|408:352,1,324
372,160,63100,1,2,0:0:0:0:
256,220,63400,1,2,0:0:0:0:
140,160,63700,1,0,0:0:0:0:
360,64,64450,6,0,P|292:16|152:64,1,243,2|2,0:0|0:0,0:0:0:0:
256,140,65200,1,2,0:0:0:0:
360,216,65500,2,0,P|292:264|152:216,1,243,2|2,0:0|0:0,0:0:0:0:
175,4,66850,6,0,L|337:4,2,162,6|8|2,0:0|0:0|0:0,0:0:0:0:
140,192,67900,1,2,0:0:0:0:
256,252,68200,1,2,0:0:0:0:
372,192,68500,1,2,0:0:0:0:
388,376,69250,5,2,0:0:0:0:
124,376,69850,1,2,0:0:0:0:
140,192,70300,1,2,0:0:0:0:
256,252,70600,1,2,0:0:0:0:
372,192,70900,1,2,0:0:0:0:
408,32,71650,6,2,B|328:88|256:40|256:32|256:24|184:-24|104:32,1,324
140,224,72700,1,2,0:0:0:0:
256,164,73000,1,2,0:0:0:0:
372,224,73300,1,2,0:0:0:0:
152,320,74050,6,0,P|220:368|360:320,1,243,2|2,0:0|0:0,0:0:0:0:
256,244,74800,1,2,0:0:0:0:
256,116,75100,1,2,0:0:0:0:
256,116,75700,1,2,0:0:0:0:
0,251,76450,6,0,P|70:379|197:309,1,324,6|2,0:0|0:0,0:0:0:0:
314,309,77350,2,0,P|441:379|512:252,1,324,2|2,0:0|0:0,0:0:0:0:
512,132,78250,6,0,P|441:4|314:74,1,324,2|2,0:0|0:0,0:0:0:0:
197,75,79150,2,0,P|128:44|80:104,2,162,2|2|6,0:0|0:0|0:0,0:0:0:0:
100,108,81250,37,2,0:0:0:0:
164,220,81550,1,8,0:0:0:0:
100,332,81850,2,0,L|356:332,1,243,2|2,0:0|0:0,0:0:0:0:
412,108,83650,5,2,0:0:0:0:
348,220,83950,1,8,0:0:0:0:
412,332,84250,2,0,L|156:332,1,243,2|2,0:0|0:0,0:0:0:0:
144,32,86050,5,2,0:0:0:0:
256,96,86350,1,8,0:0:0:0:
368,32,86650,2,0,L|368:288,1,243,2|2,0:0|0:0,0:0:0:0:
144,352,88450,5,2,0:0:0:0:
256,288,88750,1,8,0:0:0:0:
368,352,89050,2,0,L|368:96,1,243,2|2,0:0|0:0,0:0:0:0:
256,192,90850,12,4,93250,0:0:0:0:
