osu file format v14

[General]
AudioFilename: audio.mp3
AudioLeadIn: 0
PreviewTime: 56475
Countdown: 0
SampleSet: Soft
StackLeniency: 0.5
Mode: 0
LetterboxInBreaks: 0
WidescreenStoryboard: 0

[Editor]
Bookmarks: 42604,46804,114604,119404
DistanceSpacing: 1.1
BeatDivisor: 4
GridSize: 4
TimelineZoom: 2

[Metadata]
Title:My Days
TitleUnicode:My Days
Artist:Suzuki Konomi
ArtistUnicode:鈴木このみ
Creator:Meg
Version:Yuuma's Hard
Source:永远的7日之都
Tags:永遠的7日之都 forever 7th capital GARNiDELiA iMage-- kuei Yuuma Yasaija 714 Yasaija714 Captain Yasaija Depths Naguri game japanese rock shake up! up eternal city
BeatmapID:2156526
BeatmapSetID:861113

[Difficulty]
HPDrainRate:4.8
CircleSize:3.6
OverallDifficulty:6.5
ApproachRate:8
SliderMultiplier:1.4
SliderTickRate:1

[Events]
//Background and Video events
0,0,"yuuma.jpg",0,0
//Break Periods
2,42804,46054
2,52404,53554
2,85804,93304
2,114804,118654
//Storyboard Layer 0 (Background)
//Storyboard Layer 1 (Fail)
//Storyboard Layer 2 (Pass)
//Storyboard Layer 3 (Foreground)
//Storyboard Layer 4 (Overlay)
//Storyboard Sound Samples

[TimingPoints]
604,300,4,2,1,10,1,0
904,-100,4,2,1,20,0,0
1204,-100,4,2,1,30,0,0
1504,-100,4,2,1,40,0,0
1804,-100,4,2,1,50,0,0
2104,-100,4,2,1,60,0,0
2404,-100,4,2,1,70,0,0
3004,-100,4,2,1,60,0,0
13804,-125,4,2,1,50,0,0
22054,-125,4,2,1,60,0,0
42604,-125,4,2,1,60,0,0
46804,-125,4,2,1,60,0,0
52204,-125,4,2,3,50,0,0
54304,-125,4,2,1,60,0,0
57004,-90.9090909090909,4,2,1,70,0,1
84454,-90.9090909090909,4,2,1,60,0,0
85804,-100,4,2,1,60,0,0
95404,-125,4,2,1,60,0,0
105004,-200,4,2,1,60,0,0
109054,-200,4,2,1,60,0,0
109804,-125,4,2,1,60,0,0
114604,-125,4,2,1,50,0,0
119404,-125,4,2,1,40,0,0
120004,-125,4,2,1,50,0,0
120604,-125,4,2,1,60,0,0
121204,-125,4,2,1,70,0,0
124204,-90.9090909090909,4,2,1,70,0,1
151654,-100,4,2,1,60,0,0
153004,-100,4,2,2,50,0,0
157804,-100,4,2,2,40,0,0
162604,-125,4,2,1,60,0,0
167404,-125,4,2,2,60,0,0
167704,-125,4,2,1,60,0,0
177004,-125,4,2,1,60,0,0
180304,-125,4,2,1,60,0,0
181804,-100,4,2,1,60,0,0
191404,-100,4,2,1,70,0,0
199654,-100,4,2,1,60,0,0
206854,-100,4,2,1,80,0,0
207604,-100,4,2,1,70,0,0
208204,-100,4,2,1,70,0,1
213004,-100,4,2,1,60,0,0
213304,-90.9090909090909,4,2,1,80,0,1
235654,-100,4,2,1,80,0,0
237004,-100,4,2,1,50,0,0
239104,-100,4,2,1,60,0,0
258604,-100,4,2,1,50,0,0
259804,-100,4,2,1,40,0,0
261004,-100,4,2,1,30,0,0
262204,-100,4,2,1,20,0,0
264004,-100,4,2,1,10,0,0
265804,-100,4,2,1,5,0,0

[Colours]
Combo1 : 0,0,160
Combo2 : 209,249,91
Combo3 : 253,0,253
Combo4 : 251,204,166

[HitObjects]
256,192,604,12,8,2704,0:0:0:0:
66,70,3004,6,0,P|122:33|188:50,1,140,4|8,3:2|0:0,0:0:0:0:
265,123,3454,1,0,0:0:0:0:
265,123,3604,2,0,L|254:208,2,70,0|8|0,3:0|0:0|0:0,0:0:0:0:
352,61,4054,6,0,L|374:231,1,140,4|0,3:2|3:0,0:0:0:0:
452,275,4504,2,0,L|442:367,1,70,8|0,0:0|0:0,0:0:0:0:
350,299,4804,1,0,3:0:0:0:
350,299,4954,2,0,P|291:261|222:259,1,140,8|0,0:0|0:0,0:0:0:0:
176,355,5404,6,0,P|114:324|87:261,1,140,6|8,3:2|0:0,0:0:0:0:
85,161,5854,1,0,0:0:0:0:
85,161,6004,2,0,P|48:172|12:170,2,70,0|8|0,3:0|0:0|0:0,0:0:0:0:
167,93,6454,6,0,P|230:64|298:78,1,140,4|0,3:2|3:0,0:0:0:0:
381,141,6904,2,0,L|396:72,1,70,8|0,0:0|0:0,0:0:0:0:
486,139,7204,1,0,3:0:0:0:
486,139,7354,2,0,L|506:290,1,140,8|0,0:0|0:0,0:0:0:0:
415,334,7804,6,0,P|351:358|283:345,1,140,4|8,3:2|0:0,0:0:0:0:
207,277,8254,1,0,0:0:0:0:
207,277,8404,2,0,P|166:264|119:266,2,70,0|8|0,3:0|0:0|0:0,0:0:0:0:
305,241,8854,6,0,P|324:174|308:106,1,140,4|0,3:2|3:0,0:0:0:0:
320,2,9304,2,0,P|285:1|252:13,1,70,8|0,0:0|0:0,0:0:0:0:
186,94,9604,1,0,3:0:0:0:
186,94,9754,2,0,P|123:117|36:106,1,140,8|0,0:0|0:0,0:0:0:0:
74,218,10204,6,0,P|139:241|208:235,1,140,4|8,3:2|0:0,0:0:0:0:
304,184,10654,1,0,0:0:0:0:
304,184,10804,2,0,P|374:172|389:175,2,70,0|8|0,3:0|0:0|0:0,0:0:0:0:
208,235,11254,5,4,3:2:0:0:
370,367,11554,1,4,3:2:0:0:
502,205,11854,1,4,3:2:0:0:
256,192,11929,12,8,13504,0:3:0:0:
77,75,13804,6,0,P|132:65|156:68,1,56,6|0,3:2|0:0,0:0:0:0:
192,127,14104,2,0,P|247:137|271:134,1,56,8|0,0:0|0:0,0:0:0:0:
328,101,14404,1,0,3:0:0:0:
328,101,14554,2,0,P|383:91|407:94,1,56,8|0,0:0|0:0,0:0:0:0:
459,132,14854,6,0,L|447:243,1,112,2|2,3:2|3:2,0:0:0:0:
391,309,15304,2,0,P|347:318|320:314,1,56,8|0,0:0|0:0,0:0:0:0:
263,271,15604,2,0,L|257:198,2,56,0|8|0,3:0|0:0|0:0,0:0:0:0:
99,307,16204,6,0,B|57:266|57:266|53:213,1,112,2|8,3:2|0:0,0:0:0:0:
206,134,16804,1,0,3:0:0:0:
206,134,16954,2,0,P|178:133|151:140,1,56,8|0,0:0|0:0,0:0:0:0:
188,220,17254,6,0,P|240:229|311:206,1,112,2|2,3:2|3:2,0:0:0:0:
354,149,17704,2,0,L|362:37,1,112,8|0,0:0|3:0,0:0:0:0:
450,49,18154,1,8,0:0:0:0:
443,313,18604,6,0,P|408:320|378:315,1,56,2|0,3:2|0:0,0:0:0:0:
331,252,18904,2,0,P|303:250|276:256,1,56,8|0,0:0|0:0,0:0:0:0:
213,315,19204,1,0,3:0:0:0:
213,315,19354,2,0,P|178:322|148:317,1,56,8|0,0:0|0:0,0:0:0:0:
78,288,19654,2,0,L|89:177,1,112,2|2,3:2|3:2,0:0:0:0:
100,91,20104,2,0,P|137:86|168:90,1,56,8|0,0:0|0:0,0:0:0:0:
229,136,20404,2,0,P|256:137|283:131,2,56,0|8|0,3:0|0:0|0:0,0:0:0:0:
384,64,21004,6,0,P|408:113|400:168,1,112,2|8,3:2|0:0,0:0:0:0:
290,297,21604,1,0,3:0:0:0:
290,297,21754,2,0,L|357:288,1,56,8|0,0:0|0:0,0:0:0:0:
430,275,22054,1,4,3:2:0:0:
65,70,22804,1,2,3:2:0:0:
65,70,23104,2,0,L|68:97,4,28,8|8|8|8|0,0:0|0:0|0:0|0:0|0:0,0:0:0:0:
88,237,23704,6,0,P|147:241|168:239,1,56,12|0,0:0|0:0,0:0:0:0:
210,187,24004,1,0,3:0:0:0:
210,187,24154,2,0,P|269:183|290:185,1,56,8|0,0:0|0:0,0:0:0:0:
345,216,24454,2,0,L|360:331,1,112,0|0,3:0|3:0,0:0:0:0:
439,287,24904,2,0,L|447:213,1,56,8|0,0:0|0:0,0:0:0:0:
503,168,25204,2,0,L|494:94,1,56,0|8,3:0|0:0,0:0:0:0:
481,28,25504,2,0,P|436:22|401:28,1,56
362,78,25804,6,0,P|319:90|245:77,1,112,2|8,3:2|0:0,0:0:0:0:
122,41,26404,1,0,3:0:0:0:
122,41,26554,2,0,P|149:37|177:40,1,56,8|0,0:0|0:0,0:0:0:0:
253,80,26854,6,0,L|244:191,1,112,2|0,3:2|3:0,0:0:0:0:
289,266,27304,2,0,P|235:278|184:256,1,112,8|0,0:0|3:0,0:0:0:0:
125,190,27754,1,8,0:0:0:0:
367,122,28204,6,0,P|420:110|471:132,1,112,2|8,3:2|0:0,0:0:0:0:
511,211,28654,1,0,0:0:0:0:
436,253,28804,1,0,3:0:0:0:
436,253,28954,2,0,P|391:264|356:261,1,56,8|0,0:0|0:0,0:0:0:0:
309,213,29254,6,0,P|255:197|200:202,1,112,2|0,3:2|3:0,0:0:0:0:
128,251,29704,2,0,L|137:306,1,56,8|0,0:0|0:0,0:0:0:0:
42,241,30004,2,0,L|51:185,1,56,0|8,3:0|0:0,0:0:0:0:
33,100,30304,2,0,P|60:97|88:103,1,56
171,132,30604,6,0,P|245:147|298:127,1,112,2|8,3:2|0:0,0:0:0:0:
396,61,31204,1,0,3:0:0:0:
396,61,31354,2,0,P|368:64|343:76,1,56,8|0,0:0|0:0,0:0:0:0:
278,137,31654,6,0,L|297:247,1,112,2|0,3:2|3:0,0:0:0:0:
390,296,32104,2,0,L|400:223,1,56,8|0,0:0|0:0,0:0:0:0:
302,353,32404,1,4,3:0:0:0:
302,353,32554,2,0,L|224:335,2,56,4|8|0,3:0|0:0|0:0,0:0:0:0:
297,247,33004,6,0,P|242:238|188:254,1,112,6|0,3:2|3:0,0:0:0:0:
117,304,33454,1,0,3:0:0:0:
60,240,33604,1,8,0:0:0:0:
60,240,33754,2,0,L|71:125,2,112,0|0|8,0:0|3:0|0:0,0:0:0:0:
30,323,34504,1,0,3:0:0:0:
30,323,34654,1,0,3:0:0:0:
117,304,34804,2,0,P|170:288|225:296,1,112,12|2,0:0|0:1,0:0:0:0:
394,355,35404,6,0,P|423:297|422:227,1,112,6|0,3:2|0:0,0:0:0:0:
377,182,35854,1,0,3:0:0:0:
455,143,36004,1,8,0:0:0:0:
455,143,36154,2,0,P|459:99|451:72,1,56,0|10,3:0|0:0,0:0:0:0:
382,28,36454,6,0,L|257:38,1,112,12|12,0:0|0:0,0:0:0:0:
102,118,37054,2,0,L|227:128,1,112,12|8,0:0|0:0,0:0:0:0:
303,136,37504,1,8,0:0:0:0:
303,136,37654,1,8,0:0:0:0:
249,208,37804,6,0,P|242:263|251:318,1,112,6|0,3:2|0:0,0:0:0:0:
329,360,38254,1,0,3:0:0:0:
386,296,38404,1,8,0:0:0:0:
386,296,38554,2,0,P|395:240|388:185,2,112,0|0|8,0:0|3:0|0:0,0:0:0:0:
329,360,39304,1,0,3:0:0:0:
329,360,39454,1,0,3:0:0:0:
251,318,39604,2,0,B|198:300|198:300|142:306,1,112,12|0,0:0|0:0,0:0:0:0:
19,189,40204,5,6,3:2:0:0:
19,189,40354,2,0,L|29:121,1,56,8|0,0:0|0:0,0:0:0:0:
110,103,40654,1,0,3:0:0:0:
110,103,40804,2,0,L|118:158,1,56,8|0,0:0|0:0,0:0:0:0:
134,246,41104,1,0,3:0:0:0:
202,189,41254,1,8,0:0:0:0:
202,189,41404,6,0,P|252:179|273:182,1,56,0|8,3:0|0:0,0:0:0:0:
342,194,41704,1,0,3:0:0:0:
287,259,41854,2,0,L|282:308,2,28,0|8|8,0:0|0:0|0:0,0:0:0:0:
342,194,42154,2,0,L|337:131,2,56,0|8|0,3:0|3:0|3:0,0:0:0:0:
403,258,42604,5,6,0:0:0:0:
86,214,46804,6,0,L|80:250,5,37.3333333333333,8|8|8|4|4|4,3:0|3:0|3:0|3:0|3:0|3:0,0:0:0:0:
102,302,47404,6,0,P|177:333|256:310,1,168,6|0,3:2|3:0,0:0:0:0:
322,255,48004,2,0,P|374:238|430:243,1,112,8|0,0:0|3:0,0:0:0:0:
454,77,48604,6,0,P|401:68|379:71,1,56,0|8,3:0|0:0,0:0:0:0:
346,134,48904,2,0,P|295:148|214:128,1,112,0|8,3:0|0:0,0:0:0:0:
162,98,49354,1,0,3:0:0:0:
162,98,49504,2,0,L|171:29,1,56,8|0,0:0|0:0,0:0:0:0:
85,139,49804,6,0,L|113:307,1,168,6|2,3:2|3:2,0:0:0:0:
186,352,50404,2,0,L|197:240,1,112,8|0,0:0|3:0,0:0:0:0:
250,168,50854,6,0,P|295:162|315:167,1,56,0|0,3:0|0:0,0:0:0:0:
345,243,51154,1,8,0:0:0:0:
345,243,51304,2,0,P|372:245|399:238,1,56,0|0,3:0|3:0,0:0:0:0:
466,186,51604,2,0,L|472:112,1,56,8|0,0:0|3:0,0:0:0:0:
401,70,51904,2,0,L|395:-4,2,56,12|0|4,0:0|0:0|0:0,0:0:0:0:
109,339,54304,6,0,L|115:300,3,28,0|0|0|0,3:0|3:0|3:0|3:0,0:0:0:0:
142,283,54604,6,0,L|133:169,1,112,12|0,0:0|3:0,0:0:0:0:
123,79,55054,2,0,B|179:67|179:67|232:101|293:86,1,168,12|8,0:0|0:0,0:0:0:0:
374,50,55654,1,4,3:2:0:0:
411,242,55954,5,12,0:0:0:0:
447,153,56104,2,0,P|393:145|344:171,1,112,8|8,0:0|0:0,0:0:0:0:
66,307,57004,6,0,P|21:247|39:175,1,154.000004699707,6|8,3:2|0:0,0:0:0:0:
126,97,57454,1,0,0:0:0:0:
126,97,57604,2,0,L|118:14,2,77.0000023498536,0|0|8,3:0|3:0|0:0,0:0:0:0:
196,188,58054,6,0,P|234:190|271:181,1,77.0000023498536,6|0,3:2|0:0,0:0:0:0:
341,93,58354,2,0,P|378:83|416:86,1,77.0000023498536,0|8,3:0|0:0,0:0:0:0:
511,154,58654,2,0,L|503:230,1,77.0000023498536,0|0,0:0|3:0,0:0:0:0:
391,260,58954,2,0,L|396:340,2,77.0000023498536,0|8|0,3:0|0:0|0:0,0:0:0:0:
311,174,59404,6,0,B|226:152|236:213|155:191,1,154.000004699707,6|8,3:2|0:0,0:0:0:0:
79,112,59854,1,0,0:0:0:0:
79,112,60004,2,0,P|41:106|4:118,2,77.0000023498536,0|0|8,3:0|3:0|0:0,0:0:0:0:
53,226,60454,6,0,L|60:307,1,77.0000023498536,6|0,3:2|0:0,0:0:0:0:
159,362,60754,2,0,L|165:285,1,77.0000023498536,0|8,3:0|0:0,0:0:0:0:
264,225,61054,1,0,3:0:0:0:
264,225,61204,2,0,P|299:210|338:205,1,77.0000023498536,12|0,3:2|3:0,0:0:0:0:
332,93,61504,2,0,P|369:97|406:112,1,77.0000023498536,12|0,3:2|0:0,0:0:0:0:
456,12,61804,6,0,P|507:66|513:142,1,154.000004699707,6|8,3:2|0:0,0:0:0:0:
480,254,62254,1,0,0:0:0:0:
480,254,62404,2,0,B|415:268|415:268|381:258|381:258|328:265,1,154.000004699707,0|8,3:0|0:0,0:0:0:0:
227,323,62854,6,0,P|190:316|159:293,1,77.0000023498536,6|0,3:2|0:0,0:0:0:0:
64,232,63154,2,0,P|88:202|123:187,1,77.0000023498536,0|8,3:0|0:0,0:0:0:0:
224,136,63454,1,0,0:0:0:0:
224,136,63604,2,0,P|236:171|232:209,2,77.0000023498536,0|0|8,3:0|3:0|0:0,0:0:0:0:
141,63,64054,1,0,0:0:0:0:
141,63,64204,6,0,P|205:24|278:43,1,154.000004699707,6|8,3:2|0:0,0:0:0:0:
356,127,64654,2,0,P|428:145|492:106,1,154.000004699707,0|0,0:0|3:0,0:0:0:0:
410,26,65104,1,8,0:0:0:0:
356,127,65254,6,0,L|370:280,1,154.000004699707,6|0,3:2|3:0,0:0:0:0:
273,344,65704,2,0,L|267:268,1,77.0000023498536,8|0,0:0|3:0,0:0:0:0:
169,203,66004,1,8,3:2:0:0:
88,286,66154,1,8,0:0:0:0:
88,286,66229,1,8,0:0:0:0:
88,286,66304,2,0,P|69:292|50:291,3,38.5000011749268,8|8|8|8,0:0|0:0|0:0|0:0,0:0:0:0:
11,248,66604,6,0,L|6:171,2,77.0000023498536,6|0|8,3:2|0:0|0:0,0:0:0:0:
117,201,67054,1,0,0:0:0:0:
117,201,67204,2,0,P|203:187|219:189,1,77.0000023498536,0|0,3:0|3:0,0:0:0:0:
295,242,67504,1,8,0:0:0:0:
396,188,67654,6,0,L|401:111,1,77.0000023498536,6|0,3:2|0:0,0:0:0:0:
295,64,67954,2,0,L|300:140,1,77.0000023498536,0|8,3:0|0:0,0:0:0:0:
194,188,68254,2,0,L|199:111,1,77.0000023498536,0|0,0:0|3:0,0:0:0:0:
93,64,68554,2,0,P|37:49|1:53,2,77.0000023498536,0|8|0,3:0|0:0|0:0,0:0:0:0:
32,160,69004,5,6,3:2:0:0:
32,160,69154,2,0,L|37:236,1,77.0000023498536,0|8,0:0|0:0,0:0:0:0:
74,345,69454,1,0,0:0:0:0:
151,258,69604,1,0,3:0:0:0:
151,258,69754,2,0,P|212:237|248:244,1,77.0000023498536,0|8,3:0|0:0,0:0:0:0:
302,323,70054,6,0,P|340:320|374:302,1,77.0000023498536,6|0,3:2|0:0,0:0:0:0:
463,227,70354,2,0,L|467:150,1,77.0000023498536,0|8,3:0|0:0,0:0:0:0:
357,110,70654,1,0,0:0:0:0:
357,110,70804,2,0,L|361:187,1,77.0000023498536,12|0,3:2|3:0,0:0:0:0:
251,227,71104,2,0,L|255:150,1,77.0000023498536,12|0,3:2|0:0,0:0:0:0:
177,61,71404,6,0,P|86:59|42:113,1,154.000004699707,6|8,3:2|0:0,0:0:0:0:
42,333,72004,2,0,P|80:330|115:315,1,77.0000023498536,0|0,3:0|3:0,0:0:0:0:
201,247,72304,1,8,0:0:0:0:
201,247,72454,6,0,P|254:239|288:246,1,77.0000023498536,6|0,3:2|0:0,0:0:0:0:
356,325,72754,2,0,P|394:328|431:320,1,77.0000023498536,0|8,3:0|0:0,0:0:0:0:
487,219,73054,1,0,0:0:0:0:
487,219,73204,2,0,L|477:122,1,77.0000023498536,0|0,3:0|3:0,0:0:0:0:
464,26,73504,1,8,0:0:0:0:
373,97,73654,1,0,0:0:0:0:
373,97,73804,6,0,P|290:136|215:99,1,154.000004699707,6|8,3:2|0:0,0:0:0:0:
147,44,74254,2,0,P|105:41|49:71,1,77.0000023498536,0|0,0:0|3:0,0:0:0:0:
127,155,74554,2,0,P|103:189|101:253,1,77.0000023498536,0|8,3:0|0:0,0:0:0:0:
213,227,74854,6,0,P|231:264|347:306,1,154.000004699707,6|0,3:2|3:0,0:0:0:0:
404,221,75304,1,8,0:0:0:0:
404,221,75454,2,0,P|385:183|270:142,1,154.000004699707,4|0,0:0|3:0,0:0:0:0:
173,129,75904,1,8,0:3:0:0:
173,129,76204,6,0,L|180:52,1,77.0000023498536,6|0,3:2|0:0,0:0:0:0:
292,14,76504,2,0,L|299:90,1,77.0000023498536,8|0,0:0|3:0,0:0:0:0:
313,205,76804,1,0,3:0:0:0:
313,205,77104,6,0,L|391:196,1,77.0000023498536,8|0,0:0|0:0,0:0:0:0:
367,307,77404,2,0,L|290:315,1,77.0000023498536,2|0,3:2|3:0,0:0:0:0:
174,328,77704,1,8,0:0:0:0:
59,128,78004,2,0,P|48:184|55:214,1,77.0000023498536,0|0,3:0|3:0,0:0:0:0:
160,167,78304,2,0,P|163:128|152:92,1,77.0000023498536,8|0,0:0|0:0,0:0:0:0:
128,281,78604,6,0,P|202:293|266:253,1,154.000004699707,2|8,3:2|0:0,0:0:0:0:
359,187,79054,1,0,3:0:0:0:
359,187,79204,2,0,L|368:276,1,77.0000023498536,4|4,3:0|3:0,0:0:0:0:
466,326,79504,6,0,L|484:87,1,231.000007049561,12|0,0:0|3:0,0:0:0:0:
396,19,80104,1,8,0:0:0:0:
396,19,80404,2,0,P|358:18|322:31,1,77.0000023498536,8|0,0:0|3:0,0:0:0:0:
264,127,80704,2,0,P|225:128|189:115,1,77.0000023498536,8|0,0:0|0:0,0:0:0:0:
94,50,81004,5,6,3:2:0:0:
94,50,81154,1,0,0:0:0:0:
13,132,81304,2,0,L|24:208,1,77.0000023498536,8|0,0:0|0:0,0:0:0:0:
100,297,81604,2,0,L|111:220,1,77.0000023498536,0|0,3:0|3:0,0:0:0:0:
216,173,81904,1,8,0:0:0:0:
216,173,82054,6,0,P|300:129|371:173,1,154.000004699707,6|0,3:2|3:0,0:0:0:0:
450,208,82504,1,8,0:0:0:0:
450,208,82804,2,0,L|454:131,1,77.0000023498536,8|0,0:0|0:0,0:0:0:0:
354,273,83104,2,0,L|358:349,1,77.0000023498536,12|0,0:0|0:0,0:0:0:0:
268,195,83404,6,0,P|231:183|193:184,1,77.0000023498536,12|0,0:0|3:0,0:0:0:0:
94,245,83704,1,8,0:0:0:0:
94,245,83854,1,0,3:0:0:0:
16,161,84004,2,0,B|7:120|27:88|27:88|104:55,1,154.000004699707,8|8,0:0|0:0,0:0:0:0:
211,11,84454,1,12,0:0:0:0:
32,99,94054,6,0,B|63:134|62:186|62:186|83:103|137:53|137:53|165:117|168:199|168:199|184:157|222:129,1,490,4|0,0:0|3:0,0:0:0:0:
366,41,95404,6,0,L|421:51,1,56,6|0,3:2|0:0,0:0:0:0:
469,121,95704,2,0,L|413:131,1,56,8|0,0:0|0:0,0:0:0:0:
366,201,96004,1,0,3:0:0:0:
366,201,96154,2,0,L|421:211,1,56,8|0,0:0|0:0,0:0:0:0:
468,281,96454,6,0,P|417:302|362:295,1,112,2|0,3:0|3:2,0:0:0:0:
288,257,96904,2,0,P|252:250|218:259,1,56,8|0,0:0|0:0,0:0:0:0:
161,295,97204,2,0,L|166:362,2,56,0|8|0,3:0|0:0|0:0,0:0:0:0:
27,194,97804,6,0,L|16:305,1,112,2|8,3:2|0:0,0:0:0:0:
150,204,98404,1,0,3:0:0:0:
150,204,98554,2,0,L|151:136,1,56,8|0,0:0|0:0,0:0:0:0:
95,81,98854,6,0,P|146:62|199:76,1,112,2|2,3:0|0:0,0:0:0:0:
264,137,99304,2,0,P|317:151|368:132,1,112,8|0,0:0|3:0,0:0:0:0:
440,83,99754,1,8,0:0:0:0:
440,83,100204,6,0,P|447:109|448:137,1,56,0|0,3:0|0:0,0:0:0:0:
406,214,100504,2,0,P|398:240|397:268,1,56,8|0,0:0|0:0,0:0:0:0:
424,351,100804,1,0,3:0:0:0:
424,351,100954,2,0,L|361:350,1,56,8|0,0:0|0:0,0:0:0:0:
308,288,101254,6,0,L|189:290,1,112,2|0,3:0|3:2,0:0:0:0:
115,321,101704,2,0,P|109:293|113:265,1,56,8|0,0:0|0:0,0:0:0:0:
171,201,102004,2,0,P|174:173|169:145,2,56,0|8|0,3:0|0:0|0:0,0:0:0:0:
95,51,102604,6,0,P|143:25|198:34,1,112,2|8,3:2|0:0,0:0:0:0:
349,102,103204,1,0,3:0:0:0:
349,102,103354,2,0,P|312:112|277:106,1,56,8|0,0:0|0:0,0:0:0:0:
308,23,103654,1,4,3:2:0:0:
69,228,105004,6,0,P|76:116|156:194,1,280,6|2,0:0|0:0,0:0:0:0:
417,325,107404,6,0,B|408:295|427:257|427:257|412:229|412:229|430:200|418:167|418:167|407:137|407:137|405:94|434:50,1,280,2|2,0:0|0:0,0:0:0:0:
427,59,109204,2,0,B|394:44|394:44|360:42,1,70,8|4,3:0|3:0,0:0:0:0:
208,116,109804,6,0,B|161:139|161:139|114:98|51:112,1,168,6|0,3:2|3:0,0:0:0:0:
83,194,110404,1,8,0:0:0:0:
132,26,110704,1,0,3:0:0:0:
252,152,111004,1,0,3:0:0:0:
283,232,111154,1,8,0:0:0:0:
257,315,111304,2,0,P|284:318|311:310,1,56,0|0,3:0|3:0,0:0:0:0:
197,251,111604,2,0,P|169:247|142:255,1,56,8|0,0:0|3:0,0:0:0:0:
70,301,111904,1,8,0:0:0:0:
70,301,112204,6,0,P|28:230|50:151,1,168,6|0,3:2|3:0,0:0:0:0:
95,77,112804,1,8,0:0:0:0:
199,211,113104,2,0,P|226:211|252:201,1,56,0|0,3:0|3:0,0:0:0:0:
327,153,113404,1,0,3:0:0:0:
393,209,113554,2,0,L|386:272,2,56,8|0|0,0:0|3:0|3:0,0:0:0:0:
448,141,114004,2,0,L|441:85,2,56,8|0|12,0:0|3:0|0:0,0:0:0:0:
496,212,114454,1,0,0:0:0:0:
496,212,114604,1,0,0:0:0:0:
46,259,119404,6,0,L|34:147,2,112,0|0|0,3:0|3:0|3:0,0:0:0:0:
122,301,120154,2,0,L|130:233,1,56,0|8,0:0|0:0,0:0:0:0:
189,181,120454,1,0,0:0:0:0:
189,181,120604,2,0,P|241:165|295:178,2,112,8|8|8,0:0|0:0|0:0,0:0:0:0:
250,257,121354,1,8,0:0:0:0:
250,257,121429,1,8,0:0:0:0:
250,257,121504,2,0,P|262:294|263:304,3,28,8|0|0|0,0:0|0:0|3:0|3:0,0:0:0:0:
272,324,121804,6,0,P|327:325|375:298,1,112,12|0,0:0|3:0,0:0:0:0:
438,238,122254,2,0,B|456:215|459:174|459:174|450:122|414:85,1,168,12|8,0:0|0:0,0:0:0:0:
334,57,122854,1,12,0:0:0:0:
167,81,123154,5,12,0:0:0:0:
229,18,123304,2,0,P|253:67|245:122,1,112,8|8,0:0|0:0,0:0:0:0:
28,319,124204,6,0,B|116:304|101:353|180:339,1,154.000004699707,6|8,3:2|0:0,0:0:0:0:
257,255,124654,1,0,0:0:0:0:
257,255,124804,2,0,P|247:217|247:179,2,77.0000023498536,0|0|8,3:0|3:0|0:0,0:0:0:0:
327,348,125254,6,0,P|365:348|402:338,1,77.0000023498536,6|0,3:2|0:0,0:0:0:0:
494,268,125554,2,0,P|494:229|484:192,1,77.0000023498536,0|8,3:0|0:0,0:0:0:0:
414,99,125854,2,0,P|375:98|338:108,1,77.0000023498536,0|0,0:0|3:0,0:0:0:0:
247,179,126154,2,0,P|209:188|171:188,2,77.0000023498536,0|8|0,3:0|0:0|0:0,0:0:0:0:
192,73,126604,6,0,P|118:78|68:134,1,154.000004699707,6|8,3:2|0:0,0:0:0:0:
25,240,127054,1,0,0:0:0:0:
25,240,127204,2,0,L|16:319,2,77.0000023498536,0|0|8,3:0|3:0|0:0,0:0:0:0:
129,294,127654,6,0,P|166:301|204:294,1,77.0000023498536,6|0,3:2|0:0,0:0:0:0:
287,377,127954,2,0,P|312:348|325:312,1,77.0000023498536,0|8,3:0|0:0,0:0:0:0:
437,281,128254,1,0,3:0:0:0:
437,281,128404,2,0,P|424:244|400:215,1,77.0000023498536,12|0,3:2|3:0,0:0:0:0:
290,174,128704,2,0,P|302:137|326:108,1,77.0000023498536,12|0,3:2|0:0,0:0:0:0:
392,13,129004,6,0,B|304:-2|319:47|240:33,1,154.000004699707,6|8,3:2|0:0,0:0:0:0:
126,13,129454,1,0,0:0:0:0:
126,13,129604,2,0,P|151:89|150:176,1,154.000004699707,0|8,3:0|0:0,0:0:0:0:
123,276,130054,6,0,P|161:279|198:268,1,77.0000023498536,6|0,3:2|0:0,0:0:0:0:
277,352,130354,2,0,P|299:320|307:283,1,77.0000023498536,0|8,3:0|0:0,0:0:0:0:
419,257,130654,1,0,0:0:0:0:
419,257,130804,2,0,P|403:222|374:196,2,77.0000023498536,0|0|8,3:0|3:0|0:0,0:0:0:0:
507,332,131254,1,0,0:0:0:0:
507,331,131404,6,0,P|510:255|502:178,1,154.000004699707,6|8,3:2|0:0,0:0:0:0:
462,71,131854,2,0,P|434:6|368:28,1,154.000004699707,0|0,0:0|3:0,0:0:0:0:
281,104,132304,1,8,0:0:0:0:
191,31,132454,6,0,B|155:95|155:95|182:170,1,154.000004699707,6|0,3:2|3:0,0:0:0:0:
249,264,132904,2,0,P|213:278|175:282,1,77.0000023498536,8|0,3:0|3:0,0:0:0:0:
77,222,133204,1,4,3:0:0:0:
182,170,133354,1,8,0:0:0:0:
182,170,133429,1,8,0:0:0:0:
182,170,133504,2,0,P|199:162|218:159,3,38.5000011749268,8|8|8|8,0:0|0:0|0:0|0:0,0:0:0:0:
275,175,133804,6,0,P|312:182|351:181,2,77.0000023498536,6|0|8,3:2|0:0|0:0,0:0:0:0:
321,70,134254,1,0,0:0:0:0:
321,70,134404,2,0,P|359:69|397:76,1,77.0000023498536,0|0,3:0|3:0,0:0:0:0:
480,156,134704,1,8,0:0:0:0:
438,263,134854,6,0,P|421:315|417:364,1,77.0000023498536,6|0,3:2|0:0,0:0:0:0:
321,275,135154,2,0,P|314:237|300:201,1,77.0000023498536,0|8,3:0|0:0,0:0:0:0:
226,290,135454,2,0,P|174:307|125:311,1,77.0000023498536,0|0,0:0|3:0,0:0:0:0:
45,257,135754,2,0,L|33:168,2,77.0000023498536,0|8|0,3:0|0:0|0:0,0:0:0:0:
146,196,136204,6,0,L|156:119,1,77.0000023498536,6|0,3:2|0:0,0:0:0:0:
175,5,136504,1,8,0:0:0:0:
175,5,136654,1,0,0:0:0:0:
262,79,136804,2,0,P|317:84|346:71,1,77.0000023498536,0|0,3:0|3:0,0:0:0:0:
433,13,137104,1,8,0:0:0:0:
504,103,137254,6,0,L|488:212,1,77.0000023498536,6|0,3:2|0:0,0:0:0:0:
415,261,137554,2,0,L|431:370,1,77.0000023498536,0|8,3:0|0:0,0:0:0:0:
314,211,137854,1,0,0:0:0:0:
314,211,138004,2,0,P|276:208|241:222,1,77.0000023498536,12|0,3:2|3:0,0:0:0:0:
170,127,138304,2,0,P|140:151|124:186,1,77.0000023498536,12|0,3:2|0:0,0:0:0:0:
7,169,138604,6,0,P|16:243|76:297,1,154.000004699707,6|8,3:2|0:0,0:0:0:0:
185,336,139054,1,0,0:0:0:0:
185,336,139204,2,0,L|195:243,1,77.0000023498536,0|0,3:0|3:0,0:0:0:0:
300,208,139504,1,8,0:0:0:0:
300,208,139654,6,0,P|300:246|306:284,1,77.0000023498536,6|0,3:2|0:0,0:0:0:0:
414,237,139954,2,0,P|414:198|408:160,1,77.0000023498536,0|8,3:0|0:0,0:0:0:0:
381,52,140254,1,0,0:0:0:0:
381,52,140404,2,0,P|311:38|290:44,1,77.0000023498536,0|0,3:0|3:0,0:0:0:0:
212,107,140704,1,8,0:0:0:0:
119,46,140854,1,0,0:0:0:0:
119,46,141004,6,0,P|96:111|127:189,1,154.000004699707,6|8,3:2|0:0,0:0:0:0:
212,265,141454,2,0,L|135:276,1,77.0000023498536,0|0,0:0|3:0,0:0:0:0:
225,355,141754,2,0,L|301:366,1,77.0000023498536,0|8,3:0|0:0,0:0:0:0:
411,322,142054,6,0,P|437:251|413:179,1,154.000004699707,6|0,3:2|3:0,0:0:0:0:
317,111,142504,1,8,0:0:0:0:
317,111,142654,2,0,P|290:181|314:253,1,154.000004699707,6|2,3:2|3:2,0:0:0:0:
411,322,143104,1,8,0:0:0:0:
411,322,143404,6,0,P|449:321|485:307,1,77.0000023498536,6|0,3:2|0:0,0:0:0:0:
313,252,143704,2,0,P|278:238|240:237,1,77.0000023498536,8|0,0:0|3:0,0:0:0:0:
133,279,144004,1,0,3:0:0:0:
133,279,144304,6,0,L|145:355,1,77.0000023498536,8|0,0:0|0:0,0:0:0:0:
35,216,144604,2,0,L|47:139,1,77.0000023498536,0|0,3:0|3:0,0:0:0:0:
63,21,144904,1,8,0:0:0:0:
255,150,145204,2,0,P|218:161|179:160,1,77.0000023498536,0|0,3:0|3:0,0:0:0:0:
200,46,145504,2,0,P|236:34|275:35,1,77.0000023498536,8|0,0:0|0:0,0:0:0:0:
384,77,145804,6,0,L|399:230,1,154.000004699707,0|8,3:0|0:0,0:0:0:0:
453,331,146254,1,0,3:0:0:0:
453,331,146404,2,0,P|416:341|377:340,1,77.0000023498536,4|4,0:3|0:3,0:0:0:0:
284,269,146704,6,0,B|175:237|161:329|57:296,1,231.000007049561,12|0,3:2|3:0,0:0:0:0:
104,188,147304,1,8,0:0:0:0:
103,188,147604,2,0,L|111:103,1,77.0000023498536,8|0,0:0|3:0,0:0:0:0:
217,66,147904,2,0,L|223:142,1,77.0000023498536,8|0,0:0|0:0,0:0:0:0:
233,260,148204,5,6,3:2:0:0:
233,260,148354,1,0,0:0:0:0:
324,186,148504,2,0,P|371:170|426:170,1,77.0000023498536,8|0,0:0|0:0,0:0:0:0:
494,235,148804,2,0,P|510:282|510:337,1,77.0000023498536,0|0,3:0|3:0,0:0:0:0:
405,354,149104,1,8,0:0:0:0:
405,354,149254,6,0,P|342:367|247:362,1,154.000004699707,6|0,3:2|3:0,0:0:0:0:
142,320,149704,1,8,0:0:0:0:
142,320,150004,2,0,P|104:309|66:309,1,77.0000023498536,12|4,0:3|0:3,0:0:0:0:
234,246,150304,2,0,P|271:235|309:235,1,77.0000023498536,8|8,0:3|0:3,0:0:0:0:
142,172,150604,6,0,L|156:72,1,77.0000023498536,12|0,0:0|3:0,0:0:0:0:
242,23,150904,1,8,0:0:0:0:
242,23,151054,1,0,3:0:0:0:
300,123,151204,2,0,B|355:139|355:139|390:124|390:124|453:140,1,154.000004699707,8|8,0:0|0:0,0:0:0:0:
486,236,151654,1,12,0:0:0:0:
421,74,153004,5,2,0:0:0:0:
256,192,153079,12,4,157804,0:0:0:0:
436,308,160204,5,8,3:2:0:0:
152,43,161704,5,8,3:2:0:0:
341,134,162304,1,8,3:2:0:0:
203,229,162604,5,6,3:2:0:0:
355,302,162904,1,0,3:0:0:0:
493,207,163204,2,0,P|493:152|486:83,1,112,0|0,3:0|3:0,0:0:0:0:
424,19,163654,2,0,P|397:16|369:22,1,56,0|0,0:0|3:0,0:0:0:0:
306,83,163954,1,0,0:0:0:0:
306,83,164104,2,0,P|252:93|199:77,1,112,0|0,3:0|3:0,0:0:0:0:
41,20,164704,2,0,P|34:58|36:102,1,56,0|0,3:0|0:0,0:0:0:0:
91,141,165004,6,0,P|103:186|96:261,1,112,0|0,3:0|3:0,0:0:0:0:
229,362,165604,2,0,P|224:306|236:252,1,112,0|0,3:0|3:0,0:0:0:0:
304,198,166054,2,0,L|373:178,1,56,2|0,3:0|3:0,0:0:0:0:
412,113,166354,2,0,L|343:93,1,56,2|0,3:0|3:0,0:0:0:0:
309,26,166654,2,0,L|246:60,1,56,2|0,3:0|3:0,0:0:0:0:
176,37,166954,1,2,3:0:0:0:
176,37,167104,2,0,L|156:105,1,56,0|0,3:0|0:0,0:0:0:0:
135,170,167404,5,12,0:0:0:0:
34,36,167704,1,0,3:0:0:0:
0,201,168004,2,0,L|12:312,1,112,0|0,3:0|3:0,0:0:0:0:
87,368,168454,2,0,P|114:364|143:356,1,56,0|0,3:0|3:0,0:0:0:0:
207,294,168754,1,0,0:0:0:0:
207,294,168904,2,0,P|286:279|330:295,1,112,0|0,3:0|3:0,0:0:0:0:
482,324,169504,2,0,L|472:268,1,56,0|0,3:0|0:0,0:0:0:0:
405,214,169804,6,0,L|426:99,1,112,0|0,3:2|3:2,0:0:0:0:
370,40,170254,1,0,3:0:0:0:
370,40,170404,2,0,L|294:27,2,56,0|0|2,3:0|3:0|3:0,0:0:0:0:
327,115,170854,5,12,0:0:0:0:
178,32,171154,2,0,P|147:78|150:133,1,112,4|4,0:3|0:3,0:0:0:0:
193,209,171604,1,4,0:3:0:0:
193,209,171754,1,4,0:3:0:0:
110,233,171904,1,8,0:0:0:0:
110,233,172054,1,8,0:0:0:0:
171,294,172204,6,0,P|253:305|327:270,1,168,6|0,3:2|3:0,0:0:0:0:
399,217,172804,2,0,P|409:242|410:270,1,56,8|0,0:0|3:0,0:0:0:0:
316,181,173104,1,8,0:0:0:0:
316,181,173254,6,0,P|304:127|313:72,1,112,6|8,3:2|0:0,0:0:0:0:
385,20,173704,2,0,P|411:13|439:11,2,56,0|0|8,3:0|3:0|0:0,0:0:0:0:
312,71,174154,2,0,P|262:93|206:92,1,112,6|0,3:2|0:0,0:0:0:0:
121,80,174604,5,6,3:2:0:0:
121,80,174754,2,0,L|116:15,2,56,8|0|0,0:0|0:0|3:0,0:0:0:0:
150,161,175204,2,0,L|145:216,1,56,8|0,0:0|3:0,0:0:0:0:
88,281,175504,1,8,0:0:0:0:
88,281,175654,6,0,B|141:297|141:297|196:291,1,112,6|0,3:2|3:0,0:0:0:0:
269,245,176104,1,8,0:0:0:0:
321,311,176254,2,0,L|309:364,2,28,0|8|4,0:0|0:0|0:3,0:0:0:0:
384,254,176554,2,0,L|379:179,2,56,4|4|4,0:3|0:3|0:3,0:0:0:0:
438,321,177004,5,6,0:0:0:0:
256,192,177079,12,2,180304,3:0:0:0:
411,125,180604,6,0,P|418:151|414:179,1,56,8|0,3:2|3:0,0:0:0:0:
403,264,180904,2,0,P|376:256|354:239,1,56,8|0,3:2|3:0,0:0:0:0:
285,187,181204,2,0,P|281:167|282:156,3,28,8|8|8|8,0:0|0:0|0:0|0:0,0:0:0:0:
302,122,181504,2,0,P|301:108|298:94,3,28,8|0|4|4,0:0|0:0|0:3|0:3,0:0:0:0:
283,55,181804,6,0,P|215:39|153:69,1,140,6|8,3:2|0:0,0:0:0:0:
45,257,182404,2,0,P|79:258|113:248,1,70,0|0,3:0|3:0,0:0:0:0:
203,195,182704,1,8,0:0:0:0:
203,195,182854,6,0,P|270:179|332:209,1,140,6|0,3:2|3:0,0:0:0:0:
411,281,183304,2,0,L|399:350,1,70,8|0,0:0|0:0,0:0:0:0:
492,224,183604,2,0,L|480:154,1,70,0|0,3:0|3:0,0:0:0:0:
455,53,183904,1,8,0:0:0:0:
455,53,184054,1,0,0:0:0:0:
377,129,184204,6,0,P|328:140|301:137,1,70,6|0,3:2|0:0,0:0:0:0:
244,53,184504,2,0,P|209:52|175:62,1,70,8|0,0:0|0:0,0:0:0:0:
76,104,184804,1,2,3:0:0:0:
76,104,184954,1,2,3:0:0:0:
155,175,185104,1,8,3:2:0:0:
52,204,185254,6,0,B|48:263|48:263|97:327,1,140,6|0,3:2|3:0,0:0:0:0:
191,376,185704,2,0,L|199:306,1,70,8|0,0:0|0:0,0:0:0:0:
296,264,186004,2,0,L|304:333,1,70,0|0,3:0|3:0,0:0:0:0:
397,286,186304,1,12,0:0:0:0:
397,286,186454,1,0,0:0:0:0:
489,333,186604,6,0,L|498:232,1,70,6|0,3:2|0:0,0:0:0:0:
425,183,186904,2,0,P|390:177|356:184,1,70,8|0,0:0|0:0,0:0:0:0:
258,222,187204,2,0,P|251:187|256:153,1,70,2|0,3:2|3:0,0:0:0:0:
292,55,187504,1,8,0:0:0:0:
292,55,187654,6,0,P|257:49|223:56,1,70,6|0,3:2|0:0,0:0:0:0:
128,104,187954,1,0,3:0:0:0:
128,104,188104,2,0,L|116:30,1,70,8|0,0:0|0:0,0:0:0:0:
21,82,188404,2,0,L|9:151,1,70,0|0,3:0|3:0,0:0:0:0:
60,247,188704,2,0,P|125:273|154:244,1,105,8|0,0:0|0:0,0:0:0:0:
181,217,189004,6,0,B|238:191|238:191|327:217,1,140,6|8,3:2|0:0,0:0:0:0:
488,328,189604,2,0,B|431:354|431:354|342:328,1,140,0|8,3:0|0:0,0:0:0:0:
419,243,190054,6,0,P|426:173|405:107,1,140,6|0,3:2|3:0,0:0:0:0:
374,13,190504,1,8,0:0:0:0:
374,13,190654,1,6,3:2:0:0:
312,212,190954,1,0,3:0:0:0:
312,212,191104,2,0,L|245:195,1,70,8|0,0:0|0:0,0:0:0:0:
211,92,191404,6,0,P|176:95|143:109,1,70,6|8,3:2|0:3,0:0:0:0:
38,111,191704,2,0,P|41:145|55:178,1,70,8|4,0:0|0:3,0:0:0:0:
57,284,192004,2,0,P|91:280|124:266,1,70,8|8,0:3|0:3,0:0:0:0:
212,197,192304,1,8,0:0:0:0:
212,197,192454,6,0,P|278:183|294:186,1,70,6|0,3:2|0:0,0:0:0:0:
366,247,192754,2,0,L|359:330,2,70,0|8|0,3:0|0:0|0:0,0:0:0:0:
471,234,193204,2,0,L|465:164,1,70,0|0,3:0|3:0,0:0:0:0:
360,151,193504,2,0,L|365:81,1,70,8|0,0:0|0:0,0:0:0:0:
278,21,193804,5,6,3:2:0:0:
278,21,193954,1,0,0:0:0:0:
190,81,194104,2,0,L|196:151,1,70,8|0,0:0|0:0,0:0:0:0:
244,244,194404,2,0,P|211:255|176:254,1,70,0|0,3:0|3:0,0:0:0:0:
72,248,194704,1,8,0:0:0:0:
23,156,194854,1,4,3:2:0:0:
23,156,195004,6,0,L|28:86,1,70,8|8,0:3|0:3,0:0:0:0:
132,46,195304,2,0,L|137:115,1,70,8|4,0:0|0:3,0:0:0:0:
241,156,195604,2,0,L|246:86,1,70,8|8,0:0|0:3,0:0:0:0:
345,41,195904,2,0,P|390:35|401:36,3,35,8|8|8|8,0:0|0:0|0:0|0:0,0:0:0:0:
430,52,196204,6,0,L|444:211,1,140,6|8,3:2|0:0,0:0:0:0:
451,297,196654,1,0,3:0:0:0:
451,297,196729,1,0,3:0:0:0:
451,296,196804,2,0,P|417:306|382:304,1,70,0|0,3:0|3:0,0:0:0:0:
294,247,197104,1,8,0:0:0:0:
294,247,197254,6,0,P|239:229|154:256,1,140,6|0,3:2|3:0,0:0:0:0:
71,308,197704,2,0,P|58:275|57:240,1,70,8|0,0:0|0:0,0:0:0:0:
92,141,198004,1,0,3:0:0:0:
92,141,198154,1,0,3:0:0:0:
47,46,198304,2,0,P|80:37|115:41,1,70,8|0,0:0|0:0,0:0:0:0:
187,119,198604,6,0,P|221:123|255:114,1,70,12|0,3:2|3:0,0:0:0:0:
348,54,198904,2,0,P|389:53|438:76,1,70,8|0,0:0|3:0,0:0:0:0:
509,134,199204,1,8,0:0:0:0:
509,134,199354,1,0,3:0:0:0:
412,174,199504,1,8,0:0:0:0:
412,174,199654,1,4,3:2:0:0:
256,192,199729,12,4,203404,0:0:0:0:
38,42,206854,5,8,0:0:0:0:
202,82,207154,5,8,0:0:0:0:
366,122,207454,5,8,0:0:0:0:
85,203,208204,6,0,P|35:277|122:294,1,210,6|0,3:2|3:0,0:0:0:0:
189,211,208804,2,0,P|267:203|283:207,1,70,8|8,0:0|0:0,0:0:0:0:
319,288,209104,1,8,0:0:0:0:
319,288,209254,6,0,P|374:282|396:268,1,70,6|0,3:2|0:0,0:0:0:0:
489,284,209554,2,0,P|483:229|469:207,1,70,8|0,0:0|0:0,0:0:0:0:
397,148,209854,1,0,3:0:0:0:
397,148,210004,2,0,P|403:93|417:71,2,70,8|0|8,0:0|3:0|0:0,0:0:0:0:
301,188,210454,1,0,0:0:0:0:
301,188,210604,6,0,L|221:178,1,70,6|8,3:2|0:0,0:0:0:0:
128,161,210904,1,0,3:0:0:0:
193,80,211054,1,0,0:0:0:0:
193,80,211129,1,8,0:0:0:0:
193,80,211204,2,0,L|273:70,2,70,8|8|8,0:0|0:0|0:0,0:0:0:0:
92,33,211654,6,0,P|76:99|105:161,1,140,12|8,3:2|0:0,0:0:0:0:
167,248,212104,1,12,0:0:0:0:
167,248,212254,2,0,P|132:247|98:256,1,70,8|4,0:0|0:3,0:0:0:0:
146,349,212554,1,4,0:3:0:0:
146,349,212629,1,0,0:0:0:0:
146,349,212704,2,0,P|183:347|186:346,3,35,8|0|8|8,0:0|0:0|0:0|0:0,0:0:0:0:
227,320,213004,2,0,P|266:311|297:313,1,70,4|4,3:0|3:0,0:0:0:0:
436,342,213304,5,12,3:2:0:0:
486,251,213454,1,0,0:0:0:0:
486,251,213604,2,0,P|491:195|486:168,1,77.0000023498536,0|0,3:0|3:0,0:0:0:0:
429,73,213904,1,8,0:0:0:0:
383,174,214054,6,0,B|342:180|342:180|307:173,1,77.0000023498536,6|0,3:2|0:0,0:0:0:0:
264,67,214354,2,0,B|223:61|223:61|188:67,1,77.0000023498536,0|8,3:0|0:0,0:0:0:0:
77,111,214654,2,0,L|68:201,1,77.0000023498536,0|0,0:0|3:0,0:0:0:0:
142,273,214954,2,0,L|151:363,2,77.0000023498536,0|8|0,3:0|0:0|0:0,0:0:0:0:
220,187,215404,5,6,3:2:0:0:
220,187,215554,2,0,P|263:173|300:177,1,77.0000023498536,0|8,3:0|0:0,0:0:0:0:
374,259,215854,1,0,0:0:0:0:
463,187,216004,1,0,3:0:0:0:
463,187,216154,2,0,L|455:100,1,77.0000023498536,0|8,3:0|0:0,0:0:0:0:
371,29,216454,6,0,L|363:105,1,77.0000023498536,6|0,3:2|0:0,0:0:0:0:
279,187,216754,2,0,L|271:110,1,77.0000023498536,0|8,3:0|0:0,0:0:0:0:
187,29,217054,1,0,3:0:0:0:
187,28,217204,2,0,P|149:37|119:60,1,77.0000023498536,12|0,3:2|3:0,0:0:0:0:
5,82,217504,2,0,P|13:119|36:149,1,77.0000023498536,12|0,3:2|0:0,0:0:0:0:
142,191,217804,6,0,P|68:196|34:262,1,154.000004699707,6|8,3:2|0:0,0:0:0:0:
190,346,218404,2,0,P|228:349|264:335,1,77.0000023498536,0|0,3:0|3:0,0:0:0:0:
353,260,218704,1,8,0:0:0:0:
353,260,218854,6,0,L|359:183,1,77.0000023498536,6|0,3:2|0:0,0:0:0:0:
471,216,219154,2,0,L|465:140,1,77.0000023498536,0|8,3:0|0:0,0:0:0:0:
450,25,219454,1,0,0:0:0:0:
450,25,219604,2,0,P|411:22|376:36,1,77.0000023498536,0|0,3:0|3:0,0:0:0:0:
273,83,219904,1,8,0:0:0:0:
171,23,220054,1,0,0:0:0:0:
171,23,220204,6,0,P|147:94|180:161,1,154.000004699707,6|8,3:2|0:0,0:0:0:0:
269,237,220654,2,0,L|344:222,1,77.0000023498536,0|2,3:0|3:2,0:0:0:0:
325,336,220954,2,0,L|249:350,1,77.0000023498536,0|8,3:0|0:0,0:0:0:0:
131,354,221254,6,0,P|91:289|97:214,1,154.000004699707,4|0,3:2|3:0,0:0:0:0:
177,129,221704,1,8,0:0:0:0:
177,129,221854,2,0,P|216:193|210:268,1,154.000004699707,4|0,3:2|3:0,0:0:0:0:
131,354,222304,1,8,0:3:0:0:
130,354,222604,6,0,P|92:356|56:344,1,77.0000023498536,6|0,3:2|0:0,0:0:0:0:
210,268,222904,2,0,P|246:255|284:258,1,77.0000023498536,8|0,0:0|3:0,0:0:0:0:
405,272,223204,1,0,3:0:0:0:
405,272,223504,6,0,L|395:348,1,77.0000023498536,8|0,0:0|0:0,0:0:0:0:
492,194,223804,2,0,L|482:117,1,77.0000023498536,0|0,3:0|3:0,0:0:0:0:
426,12,224104,1,8,0:0:0:0:
243,149,224404,2,0,P|281:151|316:138,1,77.0000023498536,0|0,3:0|3:0,0:0:0:0:
267,32,224704,2,0,P|228:29|193:42,1,77.0000023498536,8|0,0:0|0:0,0:0:0:0:
97,106,225004,6,0,L|114:259,1,154.000004699707,0|8,3:0|0:0,0:0:0:0:
190,353,225454,1,0,3:0:0:0:
190,353,225604,2,0,P|227:357|263:344,1,77.0000023498536,4|4,0:3|0:3,0:0:0:0:
369,290,225904,6,0,P|397:192|294:174,1,231.000007049561,12|0,0:0|3:0,0:0:0:0:
216,262,226504,1,8,0:0:0:0:
216,262,226804,2,0,P|180:274|142:270,1,77.0000023498536,8|0,3:2|3:0,0:0:0:0:
48,199,227104,2,0,P|43:161|56:125,1,77.0000023498536,8|0,3:2|0:0,0:0:0:0:
113,28,227404,5,6,3:2:0:0:
113,28,227554,1,0,0:0:0:0:
180,122,227704,2,0,L|255:107,1,77.0000023498536,8|0,0:0|0:0,0:0:0:0:
345,34,228004,2,0,L|524:63,1,154.000004699707,0|8,3:0|0:0,0:0:0:0:
438,162,228454,6,0,P|400:228|405:303,1,154.000004699707,6|0,3:2|3:0,0:0:0:0:
301,353,228904,2,0,P|245:320|209:318,1,77.0000023498536,8|0,0:0|0:0,0:0:0:0:
120,296,229204,1,0,3:0:0:0:
191,207,229354,1,8,0:0:0:0:
191,207,229429,1,8,0:0:0:0:
191,207,229504,2,0,P|196:162|195:153,3,38.5000011749268,8|8|8|8,0:0|0:0|0:0|0:0,0:0:0:0:
180,111,229804,6,0,P|144:95|106:94,1,77.0000023498536,6|0,3:2|0:0,0:0:0:0:
274,46,230104,2,0,P|312:30|351:30,1,77.0000023498536,8|0,0:0|0:0,0:0:0:0:
451,89,230404,2,0,P|453:166|434:241,1,154.000004699707,6|8,3:2|0:0,0:0:0:0:
350,320,230854,6,0,B|275:301|281:357|197:339,1,154.000004699707,6|0,3:2|3:0,0:0:0:0:
88,306,231304,1,12,0:0:0:0:
164,219,231454,1,0,0:0:0:0:
164,219,231529,1,0,0:0:0:0:
164,218,231604,2,0,L|226:226,2,51.3333348999024,8|8|8,3:0|3:0|3:0,0:0:0:0:
136,173,231904,2,0,L|73:181,2,51.3333348999024,4|4|4,3:0|3:0|3:0,0:0:0:0:
158,129,232204,6,0,P|151:92|149:38,2,77.0000023498536,6|0|0,3:2|0:0|0:0,0:0:0:0:
251,65,232654,1,0,3:0:0:0:
251,65,232804,2,0,P|361:38|418:74,1,154.000004699707,12|0,0:0|3:0,0:0:0:0:
485,125,233254,6,0,L|475:209,1,77.0000023498536,4|0,3:2|0:0,0:0:0:0:
362,169,233554,2,0,L|371:245,1,77.0000023498536,8|0,0:0|3:0,0:0:0:0:
431,347,233854,1,0,3:0:0:0:
431,347,234004,2,0,P|395:360|357:359,1,77.0000023498536,8|0,0:0|3:0,0:0:0:0:
273,282,234304,2,0,P|234:280|199:294,1,77.0000023498536,12|0,0:0|3:0,0:0:0:0:
94,342,234604,5,12,0:0:0:0:
94,342,234754,1,0,3:0:0:0:
21,252,234904,2,0,L|29:164,1,77.0000023498536,8|0,0:0|3:0,0:0:0:0:
115,84,235204,2,0,B|174:57|174:57|237:92|283:80,1,154.000004699707,8|8,0:0|0:0,0:0:0:0:
371,37,235654,5,12,0:0:0:0:
256,192,237004,12,8,239104,0:0:0:0:
431,95,239404,6,0,P|371:60|303:69,1,140,6|8,3:2|0:0,0:0:0:0:
219,136,239854,1,0,0:0:0:0:
219,136,240004,2,0,L|227:218,2,70,0|8|0,3:0|0:0|0:0,0:0:0:0:
127,81,240454,6,0,L|113:230,1,140,4|0,3:2|3:0,0:0:0:0:
65,314,240904,2,0,P|98:324|132:320,1,70,8|0,0:0|0:0,0:0:0:0:
225,271,241204,1,0,3:0:0:0:
225,271,241354,2,0,P|291:257|365:278,1,140,8|0,0:0|0:0,0:0:0:0:
454,333,241804,6,0,P|452:263|444:193,1,140,6|8,3:2|0:0,0:0:0:0:
366,123,242254,1,0,0:0:0:0:
366,123,242404,2,0,P|360:62|361:54,2,70,0|8|0,3:0|0:0|0:0,0:0:0:0:
286,193,242854,6,0,P|251:212|151:202,1,140,4|0,3:2|3:0,0:0:0:0:
48,189,243304,2,0,L|55:119,1,70,8|0,0:0|0:0,0:0:0:0:
65,17,243604,1,0,3:0:0:0:
150,79,243754,2,0,P|217:93|281:68,1,140,8|0,0:0|0:0,0:0:0:0:
375,11,244204,6,0,P|361:79|360:149,1,140,6|8,3:2|0:0,0:0:0:0:
426,231,244654,1,0,0:0:0:0:
426,231,244804,2,0,L|506:223,2,70,0|8|0,3:0|0:0|0:0,0:0:0:0:
416,336,245254,6,0,L|272:324,1,140,4|0,3:2|3:0,0:0:0:0:
208,246,245704,2,0,P|173:242|139:251,1,70,8|0,0:0|0:0,0:0:0:0:
58,320,246004,1,0,3:0:0:0:
22,220,246154,2,0,P|9:152|34:87,1,140,8|0,0:0|0:0,0:0:0:0:
127,36,246604,6,0,B|204:29|190:73|264:63,1,140,6|8,3:2|0:0,0:0:0:0:
371,74,247054,1,0,0:0:0:0:
371,74,247204,2,0,P|443:55|464:56,2,70,0|8|0,3:0|0:0|0:0,0:0:0:0:
303,157,247654,5,4,0:0:0:0:
506,209,247954,1,4,0:0:0:0:
359,358,248254,1,4,0:0:0:0:
156,306,248554,1,4,0:0:0:0:
156,306,248704,2,0,P|124:291|89:288,1,70,12|0,0:0|0:0,0:0:0:0:
202,211,249004,6,0,P|266:184|335:184,1,140,6|8,3:2|0:0,0:0:0:0:
427,245,249454,1,0,0:0:0:0:
427,245,249604,2,0,L|416:332,2,70,0|8|0,3:0|0:0|0:0,0:0:0:0:
508,179,250054,6,0,L|496:28,1,140,6|0,3:2|3:0,0:0:0:0:
399,83,250504,2,0,P|365:92|330:89,1,70,8|0,0:0|0:0,0:0:0:0:
242,33,250804,1,0,3:0:0:0:
242,33,250954,2,0,P|166:20|95:55,1,140,8|0,0:0|0:0,0:0:0:0:
36,119,251404,6,0,L|47:258,1,140,6|8,3:2|0:0,0:0:0:0:
136,324,251854,1,0,0:0:0:0:
136,324,252004,2,0,P|189:329|221:318,2,70,0|8|0,3:0|0:0|0:0,0:0:0:0:
171,226,252454,6,0,P|244:226|298:275,1,140,4|0,3:2|3:0,0:0:0:0:
375,340,252904,2,0,L|385:270,1,70,8|0,0:0|0:0,0:0:0:0:
488,293,253204,2,0,L|477:223,1,70,0|8,3:0|0:0,0:0:0:0:
409,143,253504,2,0,L|419:88,3,35,8|8|8|8,0:0|0:0|0:0|0:0,0:0:0:0:
458,78,253804,6,0,P|407:51|312:68,1,140,6|8,3:2|0:0,0:0:0:0:
232,110,254254,1,0,0:0:0:0:
231,110,254404,2,0,P|199:123|164:123,2,70,0|8|0,3:0|0:0|0:0,0:0:0:0:
179,19,254854,6,0,P|83:48|63:96,1,140,6|0,3:2|3:0,0:0:0:0:
34,173,255304,2,0,P|46:205|50:240,1,70,8|0,0:0|0:0,0:0:0:0:
104,339,255604,1,0,3:0:0:0:
104,339,255754,2,0,P|124:273|184:241,1,140,8|0,0:0|0:0,0:0:0:0:
268,172,256204,6,0,L|281:336,1,140,6|8,3:2|0:0,0:0:0:0:
387,292,256654,1,4,0:3:0:0:
387,292,256729,1,12,0:3:0:0:
387,292,256804,2,0,L|380:366,2,70,0|8|8,3:0|0:0|0:0,0:0:0:0:
400,169,257254,5,4,0:0:0:0:
256,192,257329,12,0,265804,0:0:0:0:
