osu file format v14

[General]
AudioFilename: audio.mp3
AudioLeadIn: 0
PreviewTime: 56475
Countdown: 0
SampleSet: Soft
StackLeniency: 0.7
Mode: 0
LetterboxInBreaks: 0
WidescreenStoryboard: 0

[Editor]
Bookmarks: 33004,36454,36754,37054,37354,37504,37654,46654,95104,103654,105304,105604,105904,106204,106504,106804,107104,107404,107704,108004,108304,108604,108904,109054,118354,119254,120904,121504,133804,171604,184354,195004,207454,237004,247654,247954,248254,248554,248704,249004
DistanceSpacing: 1
BeatDivisor: 4
GridSize: 16
TimelineZoom: 2.7

[Metadata]
Title:My Days
TitleUnicode:My Days
Artist:Suzuki Konomi
ArtistUnicode:鈴木このみ
Creator:Meg
Version:Depths' Ascension
Source:永远的7日之都
Tags:永遠的7日之都 forever 7th capital GARNiDELiA iMage-- kuei Yuuma Yasaija 714 Yasaija714 Captain Yasaija Depths Naguri game japanese rock shake up! up eternal city
BeatmapID:2104765
BeatmapSetID:861113

[Difficulty]
HPDrainRate:6
CircleSize:4.2
OverallDifficulty:9
ApproachRate:9.5
SliderMultiplier:1.92
SliderTickRate:1

[Events]
//Background and Video events
0,0,"Depths BG.jpg",0,0
//Break Periods
2,87004,94579
2,115204,117679
2,154204,159004
2,203704,206104
//Storyboard Layer 0 (Background)
//Storyboard Layer 1 (Fail)
//Storyboard Layer 2 (Pass)
//Storyboard Layer 3 (Foreground)
//Storyboard Layer 4 (Overlay)
//Storyboard Sound Samples

[TimingPoints]
604,300,4,2,1,20,1,0
604,-100,4,2,1,20,0,0
904,-100,4,2,1,30,0,0
1504,-100,4,2,1,40,0,0
1804,-100,4,2,1,50,0,0
2104,-100,4,2,1,55,0,0
2704,-100,4,2,1,60,0,0
3004,-100,4,2,1,60,0,0
11329,-100,4,2,1,5,0,0
11554,-100,4,2,1,60,0,0
11629,-100,4,2,1,5,0,0
11854,-100,4,2,1,60,0,0
11929,-100,4,2,1,5,0,0
12004,-100,4,2,1,60,0,0
13504,-90.9090909090909,4,2,1,60,0,0
13804,-100,4,2,1,50,0,0
23704,-83.3333333333333,4,2,1,60,0,0
24004,-100,4,2,1,50,0,0
32404,-100,4,2,1,70,0,0
36454,-100,4,2,1,80,0,0
36529,-100,4,2,1,5,0,0
36754,-100,4,2,1,80,0,0
36829,-100,4,2,1,5,0,0
37054,-100,4,2,1,80,0,0
37129,-100,4,2,1,5,0,0
37354,-100,4,2,1,60,0,0
37804,-100,4,2,1,70,0,0
42604,-200,4,2,1,40,0,0
46804,-100,4,2,1,80,0,0
47404,-100,4,2,1,60,0,0
52204,-100,4,2,3,70,0,0
54304,-100,4,2,1,60,0,0
57004,-83.3333333333333,4,2,1,80,0,1
66154,-83.3333333333333,4,2,1,80,0,0
66604,-83.3333333333333,4,2,1,80,0,1
84454,-100,4,2,1,60,0,0
85504,-76.9230769230769,4,2,1,60,0,0
85804,-76.9230769230769,4,2,1,60,0,0
95104,-90.9090909090909,4,2,1,60,0,0
95404,-111.111111111111,4,2,1,60,0,0
105004,-111.111111111111,4,2,1,60,0,0
109054,-100,4,2,1,60,0,0
114604,-100,4,2,1,60,0,0
118354,-100,4,2,1,60,0,0
119254,-100,4,2,1,60,0,0
124204,-83.3333333333333,4,2,1,80,0,1
133354,-83.3333333333333,4,2,1,80,0,0
133804,-83.3333333333333,4,2,1,80,0,1
151654,-100,4,2,1,60,0,0
152854,-100,4,2,1,40,0,0
160054,-100,4,2,2,40,0,0
161704,-83.3333333333333,4,2,2,40,0,0
162604,-142.857142857143,4,2,1,60,0,0
167404,-142.857142857143,4,2,2,60,0,0
167704,-142.857142857143,4,2,1,60,0,0
170854,-100,4,2,1,60,0,0
171754,-100,4,2,1,65,0,0
171904,-100,4,2,1,70,0,0
172054,-100,4,2,1,75,0,0
172204,-100,4,2,1,80,0,0
177004,-100,4,2,1,60,0,0
180604,-100,4,2,1,60,0,0
180904,-100,4,2,1,65,0,0
181204,-100,4,2,1,70,0,0
181504,-100,4,2,1,75,0,0
181804,-83.3333333333333,4,2,1,80,0,1
199654,-83.3333333333333,4,2,1,60,0,0
206854,-83.3333333333333,4,2,1,80,0,1
206929,-83.3333333333333,4,2,1,5,0,0
207154,-83.3333333333333,4,2,1,80,0,1
207229,-83.3333333333333,4,2,1,5,0,0
207454,-83.3333333333333,4,2,1,80,0,1
207529,-83.3333333333333,4,2,1,5,0,0
208204,-100,4,2,1,80,0,1
210604,-100,4,2,1,80,0,1
213004,-250,4,2,1,80,0,0
213304,-83.3333333333333,4,2,1,80,0,1
235654,-125,4,2,1,80,0,0
237004,-100,4,2,1,50,0,0
239104,-100,4,2,1,60,0,0
247654,-83.3333333333333,4,2,1,80,0,1
247729,-83.3333333333333,4,2,1,5,0,0
247954,-83.3333333333333,4,2,1,80,0,1
248029,-83.3333333333333,4,2,1,5,0,0
248254,-83.3333333333333,4,2,1,80,0,1
248329,-83.3333333333333,4,2,1,5,0,0
248554,-83.3333333333333,4,2,1,80,0,1
248629,-83.3333333333333,4,2,1,5,0,0
248704,-83.3333333333333,4,2,1,60,0,0
249004,-100,4,2,1,60,0,0
257254,-200,4,2,1,60,0,0
258604,-100,4,2,1,50,0,0
259804,-100,4,2,1,40,0,0
261004,-100,4,2,1,30,0,0
262204,-100,4,2,1,20,0,0
264004,-100,4,2,1,10,0,0
265804,-100,4,2,1,5,0,0

[Colours]
Combo1 : 255,47,151
Combo2 : 255,0,0
Combo3 : 255,40,255
Combo4 : 242,159,34

[HitObjects]
266,1,604,5,2,0:3:0:0:
252,162,754,1,0,0:0:0:0:
248,17,904,6,0,L|258:126,1,96,2|0,0:3|0:0,0:0:0:0:
261,189,1129,1,0,0:0:0:0:
261,189,1204,1,2,0:3:0:0:
232,0,1354,1,0,0:0:0:0:
387,99,1504,1,2,0:3:0:0:
191,154,1654,1,0,0:0:0:0:
375,198,1804,5,2,0:3:0:0:
168,61,1954,1,0,0:0:0:0:
377,80,2104,2,0,B|472:90,1,96,2|0,0:3|0:0,0:0:0:0:
183,171,2404,2,0,B|88:181,1,96,2|0,0:3|0:0,0:0:0:0:
407,12,2704,5,8,0:0:0:0:
369,2,2779,1,8,0:0:0:0:
331,9,2854,1,8,0:0:0:0:
309,41,2929,1,8,0:0:0:0:
302,78,3004,6,0,L|320:230,1,144,4|0,3:2|0:0,0:0:0:0:
344,298,3304,2,0,P|380:269|395:206,1,96,8|0,0:0|0:0,0:0:0:0:
200,176,3604,1,0,3:0:0:0:
391,123,3754,2,0,L|484:100,1,96,8|0,0:0|0:0,0:0:0:0:
235,92,4054,6,0,B|150:65|140:166|31:130,1,192,4|0,3:2|3:0,0:0:0:0:
189,271,4504,2,0,L|201:164,1,96,8|0,0:0|0:0,0:0:0:0:
55,225,4804,5,0,3:0:0:0:
215,358,4954,2,0,B|256:311|256:311|272:167,1,192,8|0,0:0|0:0,0:0:0:0:
489,31,5404,6,0,L|347:56,1,144,6|0,3:2|0:0,0:0:0:0:
322,77,5704,2,0,P|326:122|352:172,1,96,8|0,0:0|0:0,0:0:0:0:
482,199,6004,1,0,3:0:0:0:
299,304,6154,2,0,L|413:321,1,96,8|0,0:0|0:0,0:0:0:0:
292,169,6454,6,0,B|501:201,1,192,4|0,3:2|3:0,0:0:0:0:
396,103,6904,1,8,0:0:0:0:
299,304,7054,1,0,0:0:0:0:
475,233,7204,1,0,3:0:0:0:
267,162,7354,1,8,0:0:0:0:
445,354,7504,2,0,L|459:257,1,96,0|0,3:0|0:0,0:0:0:0:
244,74,7804,6,0,P|315:91|360:163,1,144,4|0,3:2|0:0,0:0:0:0:
364,178,8104,2,0,L|378:81,1,96,8|0,0:0|0:0,0:0:0:0:
272,159,8404,1,0,3:0:0:0:
458,258,8554,2,0,L|472:161,1,96,8|0,0:0|0:0,0:0:0:0:
121,192,8854,6,0,B|217:170|184:272|317:242,1,192,4|0,3:2|3:0,0:0:0:0:
73,266,9304,2,0,P|39:221|37:174,1,96,8|0,0:0|0:0,0:0:0:0:
192,304,9604,1,0,3:0:0:0:
236,78,9754,2,0,B|260:25|260:25|273:175,1,192,8|0,0:0|0:0,0:0:0:0:
478,295,10204,6,0,B|420:271|420:271|340:315,1,144,4|0,3:2|0:0,0:0:0:0:
323,332,10504,2,0,P|293:275|307:215,1,96,8|0,0:0|0:0,0:0:0:0:
432,122,10804,5,0,3:0:0:0:
100,59,10954,1,8,0:0:0:0:
100,59,11254,6,0,L|90:10,1,48,4|0,3:2|0:0,0:0:0:0:
422,169,11554,6,0,L|432:121,1,48,4|0,3:2|0:0,0:0:0:0:
83,329,11854,6,0,L|73:280,1,48,4|0,3:2|0:0,0:0:0:0:
256,192,12004,12,0,13354,0:0:0:0:
32,51,13504,6,0,B|67:79|124:61|124:61|116:104|152:140,1,158.400004833985,8|0,0:3|0:0,0:0:0:0:
170,186,13804,2,0,P|203:146|205:88,1,96,6|0,3:2|0:0,0:0:0:0:
34,240,14104,2,0,L|46:336,1,96,8|0,0:0|0:0,0:0:0:0:
46,336,14329,1,0,0:0:0:0:
46,336,14404,1,0,3:0:0:0:
308,146,14554,2,0,L|152:190,1,144,8|0,0:0|0:0,0:0:0:0:
133,171,14854,6,0,L|238:141,1,96,2|0,3:2|0:0,0:0:0:0:
362,99,15154,1,2,3:2:0:0:
321,333,15304,2,0,L|304:224,1,96,8|0,0:0|0:0,0:0:0:0:
278,64,15604,1,0,3:0:0:0:
432,134,15754,2,0,B|370:123|338:160|338:160|284:141|234:182,1,192,8|2,0:0|0:0,0:0:0:0:
56,52,16204,6,0,L|51:151,1,96,2|0,3:2|0:0,0:0:0:0:
132,343,16504,2,0,P|144:278|130:242,1,96,8|0,0:0|3:0,0:0:0:0:
135,250,16729,1,0,3:0:0:0:
135,250,16804,1,0,3:0:0:0:
56,52,16954,1,8,0:0:0:0:
56,52,17254,6,0,B|93:67|136:43|136:43|172:67|172:67|216:58|249:75,1,192,2|2,3:2|3:2,0:0:0:0:
256,244,17704,2,0,L|151:261,1,96,8|0,0:0|0:0,0:0:0:0:
203,142,18004,1,0,3:0:0:0:
66,360,18154,2,0,L|264:326,1,192,8|0,0:0|0:0,0:0:0:0:
157,139,18604,5,2,3:2:0:0:
168,252,18754,1,0,0:0:0:0:
252,192,18904,1,8,0:0:0:0:
138,143,19054,1,0,0:0:0:0:
188,265,19204,1,0,3:0:0:0:
337,297,19354,2,0,P|351:235|285:159,1,144,8|0,0:0|0:0,0:0:0:0:
249,122,19654,6,0,L|143:140,1,96,2|0,3:2|0:0,0:0:0:0:
322,16,19954,1,2,3:2:0:0:
112,3,20104,2,0,L|211:16,1,96,8|0,0:0|0:0,0:0:0:0:
363,113,20404,1,0,3:0:0:0:
154,138,20554,1,8,0:0:0:0:
355,21,20704,2,0,P|370:70|357:128,1,96,0|2,0:0|0:0,0:0:0:0:
309,170,20929,1,0,0:0:0:0:
309,170,21004,6,0,L|406:209,1,96,2|0,3:2|0:0,0:0:0:0:
185,351,21304,2,0,B|147:370|147:370|109:312|144:225,1,192,8|0,0:0|3:0,0:0:0:0:
309,170,21754,1,8,3:2:0:0:
214,278,21904,1,0,3:0:0:0:
174,63,22054,6,0,B|205:14|205:14|225:161,1,192,4|0,3:2|0:0,0:0:0:0:
305,273,22504,6,0,L|416:289,1,96
204,16,22804,1,2,3:2:0:0:
204,16,22954,1,0,0:0:0:0:
283,167,23104,5,8,0:0:0:0:
326,193,23179,1,8,0:0:0:0:
376,179,23254,1,8,0:0:0:0:
400,133,23329,1,8,0:0:0:0:
384,85,23404,6,0,L|325:92,1,48
164,161,23554,2,0,L|211:166,1,48
397,43,23704,6,0,B|214:65,1,172.799994726563,12|0,0:0|0:0,0:0:0:0:
154,78,24004,5,0,3:0:0:0:
218,343,24154,2,0,B|211:306|236:266|236:266|212:240|212:240|229:195|203:147,1,192,8|0,0:0|3:0,0:0:0:0:
144,60,24604,5,0,0:0:0:0:
212,239,24754,1,0,3:0:0:0:
397,43,24904,2,0,L|297:58,1,96,8|0,0:0|0:0,0:0:0:0:
124,162,25204,1,0,3:0:0:0:
337,195,25354,1,8,0:0:0:0:
233,17,25504,1,0,0:0:0:0:
231,35,25579,1,0,0:0:0:0:
229,54,25654,1,0,0:0:0:0:
227,73,25729,1,0,0:0:0:0:
225,92,25804,6,0,B|241:255,1,144,2|0,3:2|0:0,0:0:0:0:
270,306,26104,2,0,P|307:264|310:217,1,96,8|0,0:0|0:0,0:0:0:0:
124,162,26404,1,0,3:0:0:0:
239,235,26554,2,0,L|227:126,1,96,8|0,0:0|0:0,0:0:0:0:
17,23,26854,6,0,B|63:28|80:61|80:94|80:94|39:124|49:187,1,192,2|0,3:2|3:0,0:0:0:0:
80,335,27304,2,0,L|175:347,1,96,8|0,0:0|0:0,0:0:0:0:
124,162,27604,1,0,3:0:0:0:
311,225,27754,2,0,B|272:217|235:241|235:241|188:222|188:222|166:245|127:251,1,192,8|0,0:0|0:0,0:0:0:0:
353,153,28204,6,0,P|389:204|390:252,1,96,2|0,3:2|0:0,0:0:0:0:
254,347,28504,1,8,0:0:0:0:
311,225,28654,1,0,0:0:0:0:
311,225,28729,1,0,0:0:0:0:
311,225,28804,1,0,3:0:0:0:
439,332,28954,2,0,P|391:343|338:369,1,96,8|0,0:0|0:0,0:0:0:0:
151,285,29254,6,0,P|197:295|241:315,1,96,2|0,3:2|0:0,0:0:0:0:
439,332,29554,1,0,3:0:0:0:
263,132,29704,2,0,B|287:86|287:86|312:236,1,192,8|0,0:0|3:0,0:0:0:0:
113,361,30154,2,0,P|69:313|129:209,1,192,8|0,0:0|0:0,0:0:0:0:
404,209,30604,6,0,L|298:226,1,96,2|0,3:2|0:0,0:0:0:0:
80,112,30904,2,0,P|154:118|204:54,1,144,8|0,0:0|0:0,0:0:0:0:
214,46,31204,1,0,3:0:0:0:
233,257,31354,1,8,0:0:0:0:
233,257,31654,6,0,B|278:281|328:251|328:251|333:302|379:337,1,192,2|0,3:2|3:0,0:0:0:0:
184,320,32104,2,0,P|158:269|167:216,1,96,8|0,0:0|0:0,0:0:0:0:
407,257,32404,1,4,3:0:0:0:
267,348,32554,1,4,3:0:0:0:
346,70,32704,2,0,P|358:99|368:149,2,64,8|0|0,0:0|0:0|0:0,0:0:0:0:
287,127,33004,6,0,L|136:143,1,144,6|0,3:2|0:0,0:0:0:0:
105,163,33304,1,0,3:0:0:0:
314,107,33454,1,0,3:0:0:0:
91,50,33604,1,8,0:0:0:0:
256,217,33754,1,0,0:0:0:0:
210,16,33904,1,0,3:0:0:0:
210,16,34054,6,0,B|223:67|223:67|206:112,1,96,0|0,3:0|0:0,0:0:0:0:
340,37,34354,1,8,0:0:0:0:
105,163,34504,1,0,3:0:0:0:
336,191,34654,1,0,3:0:0:0:
156,28,34804,1,12,0:0:0:0:
469,47,34954,5,2,0:1:0:0:
338,77,35104,1,2,0:1:0:0:
207,107,35254,1,2,0:1:0:0:
479,27,35404,6,0,L|469:178,1,144,6|0,3:2|0:0,0:0:0:0:
475,203,35704,1,0,0:0:0:0:
321,91,35854,1,0,3:0:0:0:
503,47,36004,1,8,0:0:0:0:
289,82,36154,1,0,3:0:0:0:
489,221,36304,1,10,0:0:0:0:
177,320,36454,6,0,L|169:271,1,48,12|0,0:0|0:0,0:0:0:0:
383,195,36754,6,0,L|391:147,1,48,12|0,0:0|0:0,0:0:0:0:
143,64,37054,6,0,L|136:16,1,48,12|0,0:0|0:0,0:0:0:0:
467,70,37354,5,8,0:0:0:0:
227,192,37504,1,8,0:0:0:0:
469,308,37654,1,8,0:0:0:0:
352,32,37804,6,0,B|274:40|274:40|244:77|244:77|159:90,1,192,6|0,3:2|0:0,0:0:0:0:
400,193,38254,1,0,3:0:0:0:
194,242,38404,1,8,0:0:0:0:
375,118,38554,2,0,P|425:122|466:150,1,96,0|0,0:0|3:0,0:0:0:0:
337,322,38854,6,0,L|184:337,1,144,0|0,3:0|0:0,0:0:0:0:
162,348,39154,1,8,0:0:0:0:
212,135,39304,1,0,3:0:0:0:
115,231,39454,1,0,3:0:0:0:
304,202,39604,2,0,L|496:180,1,192,12|0,0:0|0:0,0:0:0:0:
394,20,40054,1,0,0:0:0:0:
373,296,40204,5,6,3:2:0:0:
386,116,40354,2,0,L|396:7,1,96,8|0,0:0|0:0,0:0:0:0:
142,294,40654,5,0,3:0:0:0:
129,114,40804,2,0,L|119:5,1,96,8|0,0:0|0:0,0:0:0:0:
296,104,41104,1,0,3:0:0:0:
136,203,41254,1,8,0:0:0:0:
348,286,41404,5,0,3:0:0:0:
110,221,41554,1,8,0:0:0:0:
301,8,41704,6,0,L|295:107,1,96,0|0,3:0|0:0,0:0:0:0:
291,180,41929,1,8,0:0:0:0:
291,180,42004,1,8,0:0:0:0:
277,8,42154,1,0,3:0:0:0:
437,83,42304,1,8,3:0:0:0:
259,0,42454,1,0,3:0:0:0:
291,180,42604,6,0,L|83:194,1,192,6|0,0:0|0:0,0:0:0:0:
291,180,43504,1,2,0:0:0:0:
354,136,43654,1,2,0:0:0:0:
320,66,43804,2,0,L|220:80,1,96,2|0,0:0|0:0,0:0:0:0:
37,103,44254,2,0,L|145:116,1,96,2|0,0:0|0:0,0:0:0:0:
320,66,44704,5,2,0:0:0:0:
276,3,44854,1,0,0:0:0:0:
206,37,45004,2,0,L|220:137,1,96,2|0,0:0|0:0,0:0:0:0:
271,200,45454,2,0,L|257:295,1,96,2|0,0:0|0:0,0:0:0:0:
78,314,45904,1,0,0:0:0:0:
78,314,46054,6,0,P|145:318|208:382,1,144,2|0,0:0|0:0,0:0:0:0:
261,136,46654,1,0,0:0:0:0:
261,136,46729,1,0,0:0:0:0:
261,136,46804,6,0,L|271:200,2,64,8|8|8,3:0|3:0|3:0,0:0:0:0:
221,41,47104,5,4,3:0:0:0:
172,9,47204,1,4,3:0:0:0:
114,14,47304,1,4,3:0:0:0:
84,61,47404,6,0,B|112:135|102:193|102:193|85:168|42:160,1,192,6|0,3:2|0:0,0:0:0:0:
261,136,47854,1,0,3:0:0:0:
46,235,48004,1,8,0:0:0:0:
46,235,48304,6,0,L|186:271,1,144,0|0,3:0|0:0,0:0:0:0:
202,299,48604,1,0,3:0:0:0:
122,113,48754,1,8,0:0:0:0:
40,336,48904,2,0,L|144:363,1,96,0|0,3:0|0:0,0:0:0:0:
369,274,49204,1,8,0:0:0:0:
125,139,49354,1,0,3:0:0:0:
245,371,49504,2,0,P|256:330|247:268,1,96,8|0,0:0|0:0,0:0:0:0:
299,64,49804,6,0,B|366:28|436:42|436:42|399:105,1,192,6|0,3:2|0:0,0:0:0:0:
303,231,50254,1,2,3:2:0:0:
122,64,50404,2,0,B|162:87|224:66|224:66|228:116|272:135,1,192,8|0,0:0|3:0,0:0:0:0:
80,194,50854,1,0,3:0:0:0:
306,305,51004,5,0,0:0:0:0:
58,173,51154,1,8,0:0:0:0:
299,64,51304,1,0,3:0:0:0:
299,64,51454,1,0,3:0:0:0:
47,48,51604,5,8,0:0:0:0:
341,192,51754,1,0,3:0:0:0:
80,274,51904,5,12,0:0:0:0:
357,175,52054,1,0,0:0:0:0:
255,339,52204,5,2,0:0:0:0:
384,195,54304,5,0,3:0:0:0:
430,183,54379,1,0,3:0:0:0:
466,151,54454,1,0,3:0:0:0:
466,103,54529,1,0,3:0:0:0:
439,62,54604,2,0,L|321:84,1,96,12|0,0:0|3:0,0:0:0:0:
120,139,54904,1,0,3:0:0:0:
317,239,55054,1,12,0:0:0:0:
223,18,55204,1,0,3:0:0:0:
223,18,55354,1,0,3:0:0:0:
118,254,55504,5,8,0:0:0:0:
466,151,55654,2,0,L|451:306,1,144,4|0,3:2|0:0,0:0:0:0:
458,327,55954,1,12,0:0:0:0:
151,191,56104,1,8,0:0:0:0:
466,151,56404,5,8,0:0:0:0:
63,33,57004,6,0,L|246:61,1,172.799994726563,6|0,3:2|0:0,0:0:0:0:
256,85,57304,2,0,P|263:144|247:198,1,115.199996484375,8|0,0:0|0:0,0:0:0:0:
37,186,57604,1,0,3:0:0:0:
184,134,57754,1,0,3:0:0:0:
136,283,57904,1,8,0:0:0:0:
335,315,58054,6,0,L|470:335,1,115.199996484375,6|0,3:2|0:0,0:0:0:0:
160,210,58354,2,0,L|21:230,1,115.199996484375,0|8,3:0|0:0,0:0:0:0:
280,29,58654,2,0,P|296:90|272:160,1,115.199996484375,0|0,0:0|3:0,0:0:0:0:
159,370,58954,5,0,3:0:0:0:
321,261,59104,1,8,0:0:0:0:
160,173,59254,1,0,0:0:0:0:
321,333,59404,6,0,P|385:293|355:201,1,172.799994726563,6|0,3:2|0:0,0:0:0:0:
297,184,59704,2,0,L|171:206,1,115.199996484375,8|0,0:0|0:0,0:0:0:0:
47,226,60004,1,0,3:0:0:0:
276,158,60154,1,0,3:0:0:0:
96,78,60304,1,8,0:0:0:0:
428,35,60454,6,0,L|413:208,1,172.799994726563,6|0,3:2|0:0,0:0:0:0:
410,236,60754,1,0,3:0:0:0:
398,15,60904,5,8,0:0:0:0:
413,207,61054,1,0,3:0:0:0:
170,187,61204,5,12,3:2:0:0:
410,229,61354,1,0,3:0:0:0:
247,350,61504,5,12,3:2:0:0:
407,249,61654,1,0,0:0:0:0:
336,50,61804,6,0,B|284:46|246:90|246:90|204:79|204:79|173:121|112:115,1,230.39999296875,6|8,3:2|0:0,0:0:0:0:
346,27,62254,1,0,0:0:0:0:
141,39,62404,1,0,3:0:0:0:
288,195,62554,1,0,3:0:0:0:
115,30,62704,1,8,0:0:0:0:
361,15,62854,6,0,L|356:131,1,115.199996484375,6|0,3:2|0:0,0:0:0:0:
152,348,63154,2,0,P|125:296|135:232,1,115.199996484375,0|8,3:0|0:0,0:0:0:0:
278,106,63454,1,0,0:0:0:0:
291,346,63604,2,0,B|257:294|200:282|200:282|199:219|260:172,1,230.39999296875,0|8,3:0|0:0,0:0:0:0:
431,25,64054,1,0,0:0:0:0:
490,175,64204,6,0,L|369:160,1,115.199996484375,6|0,3:2|0:0,0:0:0:0:
144,131,64504,1,8,0:0:0:0:
348,91,64654,1,0,3:0:0:0:
348,91,64729,1,0,3:0:0:0:
348,91,64804,1,0,3:0:0:0:
251,251,64954,1,0,3:0:0:0:
174,33,65104,1,8,0:0:0:0:
16,143,65254,6,0,L|137:155,1,115.199996484375,6|0,3:2|0:0,0:0:0:0:
368,239,65554,1,0,3:0:0:0:
158,315,65704,1,8,0:0:0:0:
258,125,65854,1,0,3:0:0:0:
183,318,66004,1,8,3:2:0:0:
380,93,66154,5,8,0:0:0:0:
417,66,66229,1,8,0:0:0:0:
462,70,66304,1,8,0:0:0:0:
498,97,66379,1,8,0:0:0:0:
507,142,66454,1,8,0:0:0:0:
493,186,66529,1,8,0:0:0:0:
459,217,66604,6,0,L|342:204,1,115.199996484375,6|0,3:2|0:0,0:0:0:0:
146,181,66904,1,8,0:0:0:0:
337,335,67054,1,0,0:0:0:0:
153,162,67204,1,0,3:0:0:0:
373,111,67354,1,0,3:0:0:0:
239,255,67504,1,8,0:0:0:0:
94,35,67654,6,0,B|142:49|183:16|183:16|215:53|215:53|253:40|306:71,1,230.39999296875,6|0,3:2|3:0,0:0:0:0:
473,147,68104,1,8,0:0:0:0:
254,222,68254,1,2,0:0:0:0:
254,222,68329,1,2,0:0:0:0:
254,222,68404,1,2,3:2:0:0:
453,249,68554,5,0,3:0:0:0:
248,126,68704,1,8,0:0:0:0:
429,46,68854,1,0,0:0:0:0:
326,247,69004,5,6,3:2:0:0:
298,26,69154,1,0,0:0:0:0:
222,144,69304,1,8,0:0:0:0:
394,120,69454,1,0,0:0:0:0:
184,61,69604,1,0,3:0:0:0:
322,228,69754,1,0,3:0:0:0:
409,32,69904,1,8,0:0:0:0:
222,144,70054,6,0,L|86:157,1,115.199996484375,6|0,3:2|0:0,0:0:0:0:
384,44,70354,2,0,L|498:54,1,115.199996484375,0|8,3:0|0:0,0:0:0:0:
199,5,70654,1,0,0:0:0:0:
381,237,70804,5,12,3:2:0:0:
107,154,70954,1,0,3:0:0:0:
498,54,71104,5,12,3:2:0:0:
228,189,71254,1,0,0:0:0:0:
375,318,71404,6,0,P|453:260|426:175,1,172.799994726563,6|0,3:2|0:0,0:0:0:0:
411,125,71704,2,0,L|284:146,1,115.199996484375,8|0,0:0|0:0,0:0:0:0:
100,196,72004,1,0,3:0:0:0:
283,121,72154,1,0,3:0:0:0:
249,325,72304,1,8,0:0:0:0:
59,64,72454,6,0,L|192:95,1,115.199996484375,6|0,3:2|0:0,0:0:0:0:
356,306,72754,2,0,P|299:332|238:319,1,115.199996484375,0|8,3:0|0:0,0:0:0:0:
85,192,73054,1,2,0:0:0:0:
85,192,73129,1,2,0:0:0:0:
85,192,73204,1,2,3:2:0:0:
303,133,73354,1,0,3:0:0:0:
168,267,73504,1,8,0:0:0:0:
71,39,73654,1,2,0:0:0:0:
71,39,73729,1,2,0:0:0:0:
71,39,73804,6,0,B|168:24|117:105|241:84,1,172.799994726563,6|0,3:2|0:0,0:0:0:0:
268,82,74104,1,8,0:0:0:0:
64,198,74254,1,2,0:0:0:0:
64,198,74329,1,2,0:0:0:0:
64,198,74404,1,2,3:2:0:0:
211,268,74554,1,0,3:0:0:0:
90,113,74704,1,8,0:0:0:0:
418,165,74854,6,0,L|287:175,1,115.199996484375,6|0,3:2|0:0,0:0:0:0:
50,306,75154,2,0,L|179:308,1,115.199996484375,0|8,3:0|0:0,0:0:0:0:
254,60,75454,1,4,3:0:0:0:
254,60,75529,1,0,3:0:0:0:
254,60,75604,1,0,3:0:0:0:
418,165,75754,1,0,3:0:0:0:
220,284,75904,2,0,P|287:294|401:341,1,172.799994726563,8|0,0:3|0:0,0:0:0:0:
420,350,76204,6,0,P|435:301|422:234,1,115.199996484375,6|0,3:2|0:0,0:0:0:0:
306,61,76504,5,8,0:0:0:0:
362,290,76654,1,0,3:0:0:0:
139,118,76804,2,0,B|180:129|225:90|225:90|242:137|302:153,1,172.799994726563,0|0,3:0|0:0,0:0:0:0:
308,171,77104,2,0,L|190:198,1,115.199996484375,8|0,0:0|0:0,0:0:0:0:
41,281,77404,5,2,3:2:0:0:
262,349,77554,1,0,3:0:0:0:
99,36,77704,2,0,L|113:225,1,172.799994726563,8|0,0:0|0:0,0:0:0:0:
116,248,78004,1,0,3:0:0:0:
75,17,78154,1,0,3:0:0:0:
256,148,78304,1,8,0:0:0:0:
16,191,78454,1,0,0:0:0:0:
243,69,78604,6,0,P|301:83|322:198,1,172.799994726563,2|0,3:2|0:0,0:0:0:0:
313,219,78904,1,8,0:0:0:0:
110,268,79054,1,0,3:0:0:0:
225,357,79204,2,0,P|241:302|224:245,1,115.199996484375,4|4,3:0|3:0,0:0:0:0:
28,45,79504,6,0,B|69:68|103:51|103:51|131:73|131:73|178:61|178:61|199:84|248:86,1,230.39999296875,12|0,0:0|0:0,0:0:0:0:
454,151,79954,1,0,3:0:0:0:
314,29,80104,6,0,B|340:91|340:91|314:145,1,115.199996484375,8|0,0:0|3:0,0:0:0:0:
73,286,80404,5,8,0:0:0:0:
303,166,80554,1,0,3:0:0:0:
72,111,80704,5,8,0:0:0:0:
285,197,80854,1,0,0:0:0:0:
73,286,81004,6,0,L|206:302,1,115.199996484375,6|0,3:2|0:0,0:0:0:0:
435,120,81304,2,0,L|302:136,1,115.199996484375,8|0,0:0|0:0,0:0:0:0:
149,115,81604,1,0,3:0:0:0:
314,29,81754,1,0,3:0:0:0:
257,250,81904,1,8,0:0:0:0:
149,115,82054,6,0,L|329:135,1,172.799994726563,6|0,3:2|0:0,0:0:0:0:
354,157,82354,1,0,3:0:0:0:
211,318,82504,2,0,P|182:263|191:210,1,115.199996484375,8|0,0:0|0:0,0:0:0:0:
314,29,82804,2,0,L|433:45,1,115.199996484375,8|0,0:0|3:0,0:0:0:0:
453,207,83104,2,0,L|338:192,1,115.199996484375,12|0,0:0|3:0,0:0:0:0:
51,45,83404,5,12,0:0:0:0:
86,301,83554,1,0,3:0:0:0:
187,28,83704,5,8,0:0:0:0:
162,245,83854,1,0,3:0:0:0:
305,19,84004,5,8,0:0:0:0:
268,286,84154,1,0,3:0:0:0:
406,32,84304,5,8,0:0:0:0:
444,316,84454,1,12,0:0:0:0:
433,71,85504,6,0,B|357:46|303:76|303:76|334:132,1,187.199991430664,8|0,0:0|0:0,0:0:0:0:
356,192,85804,1,6,3:2:0:0:
467,58,95104,6,0,P|387:64|343:144,1,158.400004833985,0|0,3:0|0:0,0:0:0:0:
329,164,95404,2,0,L|305:61,1,86.3999973632813,6|0,3:2|0:0,0:0:0:0:
201,192,95704,1,8,0:0:0:0:
355,240,95854,1,0,0:0:0:0:
201,103,96004,2,0,P|155:117|122:152,1,86.3999973632813,0|8,3:0|0:0,0:0:0:0:
66,241,96304,1,0,0:0:0:0:
149,41,96454,6,0,P|213:32|284:109,1,172.799994726563,2|0,3:0|3:2,0:0:0:0:
433,184,96904,2,0,B|399:173|357:188|357:188|326:164|326:164|292:185|242:167,1,172.799994726563,8|0,0:0|3:0,0:0:0:0:
176,328,97354,2,0,L|160:225,1,86.3999973632813,8|0,0:0|0:0,0:0:0:0:
298,272,97654,1,0,3:0:0:0:
284,100,97804,6,0,L|299:273,1,172.799994726563,2|8,3:2|0:0,0:0:0:0:
153,182,98254,1,0,0:0:0:0:
284,100,98404,1,0,3:0:0:0:
200,345,98554,2,0,P|176:299|178:255,1,86.3999973632813,8|0,0:0|0:0,0:0:0:0:
339,71,98854,6,0,B|312:121|312:121|327:260,1,172.799994726563,2|2,3:0|0:0,0:0:0:0:
440,374,99304,2,0,L|449:289,1,86.3999973632813,8|0,0:0|0:0,0:0:0:0:
245,284,99604,1,0,3:0:0:0:
408,222,99754,2,0,B|450:205|489:223|489:223|510:186|478:135,1,172.799994726563,8|0,0:0|3:0,0:0:0:0:
288,13,100204,6,0,P|279:62|285:97,1,86.3999973632813,0|0,3:0|0:0,0:0:0:0:
403,141,100504,2,0,L|415:39,1,86.3999973632813,8|0,0:0|0:0,0:0:0:0:
215,167,100804,1,0,3:0:0:0:
205,82,100954,2,0,L|215:167,1,86.3999973632813,8|0,0:0|0:0,0:0:0:0:
348,208,101254,6,0,B|248:195|295:276|167:245,1,172.799994726563,2|0,3:0|3:2,0:0:0:0:
18,106,101704,2,0,L|115:121,1,86.3999973632813,8|0,0:0|0:0,0:0:0:0:
212,174,102004,5,0,3:0:0:0:
87,315,102154,2,0,L|64:209,1,86.3999973632813,8|0,0:0|0:0,0:0:0:0:
247,343,102454,1,0,3:0:0:0:
247,343,102529,1,0,0:0:0:0:
247,343,102604,6,0,L|211:173,1,172.799994726563,2|8,3:2|0:0,0:0:0:0:
154,27,103054,1,0,0:0:0:0:
18,106,103204,1,0,3:0:0:0:
247,88,103354,2,0,P|203:105|158:107,1,86.3999973632813,8|0,0:0|0:0,0:0:0:0:
271,208,103654,6,0,B|332:189|375:208|400:281|437:360|549:326|575:229|515:117|409:135|346:271|350:324,1,518.399984179688,4|0,3:2|0:0,0:0:0:0:
507,241,104704,1,4,0:3:0:0:
305,127,104854,1,4,0:3:0:0:
413,347,105004,5,6,0:0:0:0:
142,128,105304,5,2,0:0:0:0:
376,80,105604,5,2,0:0:0:0:
256,313,105904,5,2,0:0:0:0:
391,64,106204,5,2,0:0:0:0:
121,117,106504,5,2,0:0:0:0:
360,256,106804,5,2,0:0:0:0:
26,98,107104,5,2,0:0:0:0:
263,43,107404,5,2,0:0:0:0:
19,360,107704,5,2,0:0:0:0:
282,31,108004,5,2,0:0:0:0:
17,119,108304,5,2,0:0:0:0:
257,195,108604,5,2,0:0:0:0:
26,282,108904,5,2,0:0:0:0:
148,38,109054,1,4,0:0:0:0:
148,38,109129,1,0,0:0:0:0:
148,38,109204,2,0,L|155:115,2,64,8|8|8,3:0|3:0|3:0,0:0:0:0:
248,18,109504,5,4,3:0:0:0:
285,61,109604,1,4,3:0:0:0:
271,117,109704,1,4,3:0:0:0:
230,158,109804,6,0,B|337:151|267:236|405:224,1,192,6|0,3:2|0:0,0:0:0:0:
248,18,110254,1,0,3:0:0:0:
152,220,110404,6,0,L|256:239,1,96,8|0,0:0|0:0,0:0:0:0:
461,133,110704,2,0,L|366:150,1,96,0|0,3:0|0:0,0:0:0:0:
176,115,111004,1,0,3:0:0:0:
303,284,111154,1,8,0:0:0:0:
337,78,111304,1,0,3:0:0:0:
337,78,111454,1,0,3:0:0:0:
295,304,111604,6,0,P|249:311|187:288,1,96,8|0,0:0|3:0,0:0:0:0:
67,95,111904,2,0,L|173:117,1,96,8|0,0:0|0:0,0:0:0:0:
344,173,112204,6,0,B|288:193|250:148|250:148|226:193|179:207,1,192,6|0,3:2|0:0,0:0:0:0:
295,304,112654,1,0,3:0:0:0:
405,73,112804,2,0,L|313:100,1,96,8|0,0:0|0:0,0:0:0:0:
108,166,113104,5,0,3:0:0:0:
172,249,113254,1,0,3:0:0:0:
76,292,113404,5,0,3:0:0:0:
312,100,113554,1,8,0:0:0:0:
65,34,113704,1,0,3:0:0:0:
65,34,113854,1,0,3:0:0:0:
271,8,114004,5,8,0:0:0:0:
96,184,114154,1,0,3:0:0:0:
368,205,114304,5,12,0:0:0:0:
101,157,114454,1,0,0:0:0:0:
254,333,114604,5,0,0:0:0:0:
202,139,118354,5,2,0:0:0:0:
308,196,118504,1,2,0:0:0:0:
202,240,118654,1,2,0:0:0:0:
319,311,118804,1,2,0:0:0:0:
130,271,118954,1,2,0:0:0:0:
225,133,119104,1,2,0:0:0:0:
221,285,119254,5,4,0:3:0:0:
221,285,119329,1,4,0:3:0:0:
221,285,119404,6,0,L|197:226,3,48,0|0|0|0,3:0|0:0|0:0|0:0,0:0:0:0:
246,90,119704,2,0,L|220:141,3,48,0|0|0|0,3:0|0:0|0:0|0:0,0:0:0:0:
92,272,120004,6,0,L|68:334,3,48,0|0|0|0,3:0|0:0|0:0|0:0,0:0:0:0:
41,94,120304,2,0,L|20:45,3,48,8|0|0|0,0:0|0:0|0:0|0:0,0:0:0:0:
33,221,120604,5,0,1:0:0:0:
61,194,120679,1,0,1:0:0:0:
99,190,120754,1,0,1:0:0:0:
133,206,120829,1,0,1:0:0:0:
159,233,120904,5,0,1:0:0:0:
180,275,120979,1,0,1:0:0:0:
215,307,121054,1,0,1:0:0:0:
262,315,121129,1,0,1:0:0:0:
307,300,121204,1,0,1:0:0:0:
334,260,121279,1,0,1:0:0:0:
375,236,121354,1,0,1:0:0:0:
422,245,121429,1,0,1:0:0:0:
457,277,121504,5,0,1:0:0:0:
411,262,121579,1,0,1:0:0:0:
396,216,121654,1,0,1:0:0:0:
409,169,121729,1,0,1:0:0:0:
451,146,121804,5,12,0:0:0:0:
142,243,121954,1,0,3:0:0:0:
142,243,122104,1,0,3:0:0:0:
411,262,122254,5,12,0:0:0:0:
114,95,122404,1,0,3:0:0:0:
114,95,122554,1,0,3:0:0:0:
259,287,122704,5,8,0:0:0:0:
396,25,122854,2,0,L|248:70,1,144,12|0,0:0|0:0,0:0:0:0:
236,92,123154,1,12,0:0:0:0:
454,192,123304,1,8,0:0:0:0:
41,268,123604,5,8,0:0:0:0:
23,97,124204,6,0,L|43:287,1,172.799994726563,6|0,3:2|0:0,0:0:0:0:
37,303,124504,2,0,P|95:306|144:336,1,115.199996484375,8|0,0:0|0:0,0:0:0:0:
270,252,124804,1,0,3:0:0:0:
111,198,124954,1,0,3:0:0:0:
225,336,125104,1,8,0:0:0:0:
374,124,125254,6,0,P|311:120|256:144,1,115.199996484375,6|0,3:2|0:0,0:0:0:0:
110,325,125554,2,0,L|237:337,1,115.199996484375,0|8,3:0|0:0,0:0:0:0:
443,190,125854,2,0,L|316:202,1,115.199996484375,0|0,0:0|3:0,0:0:0:0:
131,204,126154,1,0,3:0:0:0:
259,72,126304,1,8,0:0:0:0:
279,255,126454,1,0,0:0:0:0:
76,44,126604,6,0,B|116:64|175:57|175:57|160:106|196:152,1,172.799994726563,6|0,3:2|0:0,0:0:0:0:
205,197,126904,2,0,P|261:209|326:187,1,115.199996484375,8|0,0:0|0:0,0:0:0:0:
461,112,127204,1,0,3:0:0:0:
259,72,127354,1,0,3:0:0:0:
390,244,127504,1,8,0:0:0:0:
346,0,127654,6,0,B|397:25|397:25|382:169,1,172.799994726563,6|0,3:2|0:0,0:0:0:0:
382,169,127954,1,0,3:0:0:0:
154,261,128104,2,0,P|129:209|142:150,1,115.199996484375,8|0,0:0|3:0,0:0:0:0:
468,113,128404,5,12,3:2:0:0:
162,287,128554,1,0,3:0:0:0:
78,18,128704,5,12,3:2:0:0:
166,320,128854,1,0,0:0:0:0:
499,290,129004,6,0,B|456:277|415:303|415:303|377:263|377:263|337:285|283:264,1,230.39999296875,6|8,3:2|0:0,0:0:0:0:
468,149,129454,1,0,0:0:0:0:
255,64,129604,1,0,3:0:0:0:
331,203,129754,1,0,3:0:0:0:
384,4,129904,1,8,0:0:0:0:
497,136,130054,6,0,L|375:151,1,115.199996484375,6|0,3:2|0:0,0:0:0:0:
49,193,130354,2,0,L|163:207,1,115.199996484375,0|8,3:0|0:0,0:0:0:0:
368,173,130654,1,0,0:0:0:0:
176,230,130804,1,0,3:0:0:0:
342,316,130954,1,0,3:0:0:0:
250,87,131104,1,8,0:0:0:0:
129,323,131254,1,0,0:0:0:0:
126,103,131404,6,0,B|145:26|216:19|274:49|274:49|238:103,1,230.39999296875,6|8,3:2|0:0,0:0:0:0:
129,237,131854,1,2,0:0:0:0:
129,237,131929,1,2,0:0:0:0:
129,237,132004,1,2,3:2:0:0:
330,192,132154,1,0,3:0:0:0:
255,365,132304,1,8,0:0:0:0:
278,54,132454,6,0,B|226:95|226:95|251:210,1,172.799994726563,6|0,3:2|0:0,0:0:0:0:
260,238,132754,1,0,3:0:0:0:
79,145,132904,5,8,3:0:0:0:
266,268,133054,1,0,3:0:0:0:
287,22,133204,1,4,3:0:0:0:
359,234,133354,5,8,0:0:0:0:
386,271,133429,1,8,0:0:0:0:
382,316,133504,1,8,0:0:0:0:
355,352,133579,1,8,0:0:0:0:
310,361,133654,1,8,0:0:0:0:
266,347,133729,1,8,0:0:0:0:
235,313,133804,6,0,L|248:196,1,115.199996484375,6|0,3:2|0:0,0:0:0:0:
262,7,134104,1,8,0:0:0:0:
381,141,134254,1,0,0:0:0:0:
166,194,134404,1,0,3:0:0:0:
393,161,134554,1,0,3:0:0:0:
238,5,134704,1,8,0:0:0:0:
240,302,134854,6,0,B|276:285|310:300|310:300|307:266|342:231|342:231|307:208|307:143,1,230.39999296875,6|0,3:2|3:0,0:0:0:0:
99,82,135304,1,8,0:0:0:0:
205,225,135454,1,2,0:0:0:0:
205,225,135529,1,2,0:0:0:0:
205,225,135604,1,2,3:2:0:0:
258,31,135754,5,0,3:0:0:0:
202,249,135904,1,8,0:0:0:0:
82,67,136054,1,0,0:0:0:0:
349,130,136204,6,0,L|229:144,1,115.199996484375,6|0,3:2|0:0,0:0:0:0:
24,166,136504,1,8,0:0:0:0:
230,283,136654,1,0,0:0:0:0:
127,154,136804,1,0,3:0:0:0:
127,154,136954,1,0,3:0:0:0:
66,337,137104,1,8,0:0:0:0:
320,104,137254,6,0,B|153:85|153:85|186:99|197:134,1,230.39999296875,6|0,3:2|3:0,0:0:0:0:
288,344,137704,2,0,P|312:280|291:227,1,115.199996484375,8|0,0:0|0:0,0:0:0:0:
80,305,138004,5,12,3:2:0:0:
363,208,138154,1,0,3:0:0:0:
95,34,138304,5,12,3:2:0:0:
241,287,138454,1,0,0:0:0:0:
15,249,138604,6,0,B|53:258|92:236|92:236|118:284|170:279|170:279|167:312|191:345,1,230.39999296875,6|8,3:2|0:0,0:0:0:0:
41,179,139054,1,0,0:0:0:0:
242,286,139204,1,0,3:0:0:0:
63,342,139354,1,0,3:0:0:0:
163,93,139504,1,8,0:0:0:0:
158,208,139654,6,0,L|163:93,1,115.199996484375,6|0,3:2|0:0,0:0:0:0:
362,21,139954,2,0,P|385:81|369:129,1,115.199996484375,0|8,3:0|0:0,0:0:0:0:
158,208,140254,1,2,0:0:0:0:
158,208,140329,1,2,0:0:0:0:
158,208,140404,1,2,3:2:0:0:
313,76,140554,1,0,3:0:0:0:
258,270,140704,1,8,0:0:0:0:
99,89,140854,1,2,0:0:0:0:
99,89,140929,1,2,0:0:0:0:
99,89,141004,6,0,B|144:91|144:91|191:132|191:132|276:132,1,172.799994726563,6|0,3:2|0:0,0:0:0:0:
293,148,141304,1,8,0:0:0:0:
97,3,141454,1,2,0:0:0:0:
97,3,141529,1,2,0:0:0:0:
97,3,141604,1,2,3:2:0:0:
269,37,141754,1,0,3:0:0:0:
106,180,141904,1,8,0:0:0:0:
204,0,142054,6,0,B|167:46|167:46|203:178,1,172.799994726563,6|0,3:2|0:0,0:0:0:0:
209,193,142354,1,0,3:0:0:0:
228,0,142504,1,8,0:0:0:0:
466,135,142654,6,0,P|407:157|344:152,1,115.199996484375,6|0,3:2|0:0,0:0:0:0:
191,278,142954,1,2,3:2:0:0:
191,278,143104,2,0,P|258:288|362:345,1,172.799994726563,8|0,0:0|0:0,0:0:0:0:
376,366,143404,6,0,P|320:383|260:368,1,115.199996484375,6|0,3:2|0:0,0:0:0:0:
99,264,143704,5,8,0:0:0:0:
363,155,143854,1,0,3:0:0:0:
236,18,144004,2,0,B|194:49|194:49|229:180,1,172.799994726563,0|0,3:0|0:0,0:0:0:0:
207,201,144304,2,0,L|174:85,1,115.199996484375,8|0,0:0|0:0,0:0:0:0:
393,4,144604,5,0,3:0:0:0:
128,17,144754,1,0,3:0:0:0:
443,39,144904,2,0,B|399:50|357:38|357:38|339:81|280:87,1,172.799994726563,8|0,0:0|0:0,0:0:0:0:
253,103,145204,1,0,3:0:0:0:
470,138,145354,1,0,3:0:0:0:
289,10,145504,1,8,0:0:0:0:
335,230,145654,1,0,0:0:0:0:
65,162,145804,6,0,P|79:104|193:86,1,172.799994726563,0|0,3:0|0:0,0:0:0:0:
214,95,146104,1,8,0:0:0:0:
46,195,146254,1,0,3:0:0:0:
241,290,146404,2,0,L|256:168,1,115.199996484375,4|4,0:3|0:3,0:0:0:0:
456,58,146704,6,0,B|415:61|384:34|384:34|342:49|301:29|301:29|338:54|339:96,1,230.39999296875,12|0,3:2|0:0,0:0:0:0:
384,306,147154,1,0,3:0:0:0:
219,177,147304,2,0,L|348:192,1,115.199996484375,8|0,0:0|3:0,0:0:0:0:
456,58,147604,5,8,0:0:0:0:
198,159,147754,1,0,3:0:0:0:
464,234,147904,5,8,0:0:0:0:
172,159,148054,1,0,0:0:0:0:
322,7,148204,6,0,B|296:64|296:64|317:121,1,115.199996484375,6|0,3:2|0:0,0:0:0:0:
387,358,148504,2,0,B|405:308|405:308|379:251,1,115.199996484375,8|0,0:0|0:0,0:0:0:0:
149,199,148804,1,0,3:0:0:0:
314,113,148954,1,0,3:0:0:0:
257,334,149104,1,8,0:0:0:0:
298,41,149254,6,0,P|250:77|288:187,1,172.799994726563,6|0,3:2|0:0,0:0:0:0:
299,206,149554,1,0,3:0:0:0:
110,119,149704,1,8,0:0:0:0:
315,25,149854,1,0,3:0:0:0:
193,312,150004,2,0,L|177:193,1,115.199996484375,12|4,0:3|0:3,0:0:0:0:
15,173,150304,2,0,L|30:288,1,115.199996484375,8|8,0:3|0:3,0:0:0:0:
322,345,150604,5,12,0:0:0:0:
29,287,150754,1,0,3:0:0:0:
334,212,150904,5,8,0:0:0:0:
99,236,151054,1,0,3:0:0:0:
267,74,151204,5,8,0:0:0:0:
246,337,151354,1,0,3:0:0:0:
102,136,151504,5,8,0:0:0:0:
350,229,151654,1,12,0:0:0:0:
119,278,152854,5,0,0:0:0:0:
119,278,152929,1,0,0:0:0:0:
119,278,153004,1,2,0:0:0:0:
444,147,160054,6,0,L|437:197,2,48,0|0|8,0:0|0:0|3:2,0:0:0:0:
74,74,161704,5,8,3:2:0:0:
77,77,162304,1,8,3:2:0:0:
80,81,162604,6,0,L|231:106,1,134.399995898438,6|0,3:2|3:0,0:0:0:0:
441,185,163204,2,0,P|373:194|327:246,1,134.399995898438,0|0,3:0|3:0,0:0:0:0:
251,354,163654,2,0,L|236:271,1,67.1999979492188,0|0,0:0|3:0,0:0:0:0:
153,211,163954,5,0,0:0:0:0:
153,211,164104,2,0,L|141:277,1,67.1999979492188,0|0,3:0|0:0,0:0:0:0:
56,355,164404,2,0,L|44:288,1,67.1999979492188,0|0,3:0|0:0,0:0:0:0:
83,172,164704,5,0,3:0:0:0:
146,122,164854,1,0,0:0:0:0:
217,159,165004,2,0,P|273:194|363:183,1,134.399995898438,0|0,3:0|3:0,0:0:0:0:
482,43,165604,6,0,L|336:64,1,134.399995898438,0|0,3:0|3:0,0:0:0:0:
256,5,166054,2,0,L|244:80,1,67.1999979492188,2|0,3:0|3:0,0:0:0:0:
180,157,166354,2,0,L|169:90,1,67.1999979492188,2|0,3:0|3:0,0:0:0:0:
104,3,166654,2,0,L|92:78,1,67.1999979492188,2|0,3:0|3:0,0:0:0:0:
23,150,166954,2,0,L|11:75,2,67.1999979492188,2|0|0,3:0|3:0|0:0,0:0:0:0:
73,245,167404,6,0,P|112:196|107:106,1,134.399995898438,12|0,0:0|3:0,0:0:0:0:
256,5,168004,2,0,L|394:20,1,134.399995898438,0|0,3:0|3:0,0:0:0:0:
490,57,168454,6,0,P|496:97|488:137,1,67.1999979492188,0|0,0:0|3:0,0:0:0:0:
384,191,168754,1,0,0:0:0:0:
384,191,168904,2,0,L|373:114,1,67.1999979492188,0|0,3:0|0:0,0:0:0:0:
288,38,169204,2,0,L|278:104,1,67.1999979492188,0|0,3:0|0:0,0:0:0:0:
252,318,169504,5,0,3:0:0:0:
200,256,169654,1,0,0:0:0:0:
257,199,169804,2,0,P|291:181|398:200,1,134.399995898438,0|0,3:2|3:2,0:0:0:0:
458,268,170254,6,0,L|447:344,1,67.1999979492188,0|0,3:0|3:0,0:0:0:0:
345,367,170554,2,0,L|335:300,1,67.1999979492188,0|2,3:0|3:0,0:0:0:0:
320,79,170854,6,0,B|267:94|267:94|206:68,1,96,12|0,0:0|0:0,0:0:0:0:
17,191,171154,2,0,B|78:166|78:166|208:209,1,192,4|4,0:3|0:3,0:0:0:0:
417,327,171604,5,4,0:3:0:0:
206,220,171754,1,4,0:3:0:0:
416,164,171904,1,8,0:0:0:0:
242,348,172054,1,8,0:0:0:0:
256,100,172204,6,0,B|284:55|284:55|310:209,1,192,6|0,3:2|0:0,0:0:0:0:
346,337,172654,1,0,3:0:0:0:
234,123,172804,1,8,0:0:0:0:
406,192,172954,1,0,3:0:0:0:
246,281,173104,1,8,0:0:0:0:
476,232,173254,6,0,P|485:180|366:121,1,192,6|8,3:2|0:0,0:0:0:0:
225,144,173704,1,0,3:0:0:0:
409,194,173854,1,0,3:0:0:0:
246,281,174004,1,8,0:0:0:0:
304,75,174154,2,0,B|278:193|376:151|319:271,1,192,6|0,3:2|0:0,0:0:0:0:
119,314,174604,5,6,3:2:0:0:
264,212,174754,1,8,0:0:0:0:
80,180,174904,1,0,0:0:0:0:
254,241,175054,1,0,3:0:0:0:
249,42,175204,5,8,0:0:0:0:
168,207,175354,1,0,3:0:0:0:
226,23,175504,1,8,0:0:0:0:
74,70,175654,6,0,B|189:58|126:148|268:128,1,192,6|0,3:2|3:0,0:0:0:0:
498,202,176104,2,0,L|387:220,1,96,8|0,0:0|0:0,0:0:0:0:
334,237,176329,1,8,0:0:0:0:
334,237,176404,1,4,0:3:0:0:
501,177,176554,1,4,0:3:0:0:
246,130,176704,1,4,0:3:0:0:
430,306,176854,1,4,0:3:0:0:
320,92,177004,6,0,P|266:49|197:60,2,144,6|0|0,0:0|0:0|0:0,0:0:0:0:
350,184,177604,6,0,P|347:254|299:306,2,144,2|0|0,0:0|0:0|0:0,0:0:0:0:
398,118,178204,6,0,P|448:71|442:2,2,144,2|0|0,0:0|0:0|0:0,0:0:0:0:
192,190,178804,5,2,0:0:0:0:
440,302,179104,1,2,0:0:0:0:
363,41,179404,5,2,0:0:0:0:
363,41,180004,5,2,0:0:0:0:
368,269,180604,6,0,L|379:320,3,48,8|0|0|0,3:2|3:0|3:0|3:0,0:0:0:0:
318,188,180904,2,0,L|307:141,3,48,8|0|0|0,3:2|3:0|3:0|3:0,0:0:0:0:
395,194,181204,5,8,0:0:0:0:
427,174,181279,1,8,0:0:0:0:
444,139,181354,1,8,0:0:0:0:
438,101,181429,1,8,0:0:0:0:
411,73,181504,1,8,0:0:0:0:
374,59,181579,1,0,0:0:0:0:
336,64,181654,2,0,L|271:78,1,48,4|4,0:3|0:3,0:0:0:0:
68,40,181804,6,0,B|105:63|151:40|151:40|168:70|212:66|212:66|207:109|252:146,1,230.39999296875,6|8,3:2|0:0,0:0:0:0:
48,208,182254,1,0,0:0:0:0:
48,208,182329,1,0,0:0:0:0:
48,208,182404,1,0,3:0:0:0:
258,291,182554,1,0,3:0:0:0:
131,127,182704,1,8,0:0:0:0:
37,328,182854,6,0,B|82:334|111:298|111:298|134:351|186:361,1,172.799994726563,6|0,3:2|0:0,0:0:0:0:
210,373,183154,1,0,3:0:0:0:
39,81,183304,2,0,P|11:135|26:201,1,115.199996484375,8|0,0:0|0:0,0:0:0:0:
48,255,183529,1,0,0:0:0:0:
48,255,183604,1,0,3:0:0:0:
245,137,183754,1,0,3:0:0:0:
69,30,183904,6,0,L|81:144,1,115.199996484375,8|0,0:0|0:0,0:0:0:0:
392,365,184204,6,0,L|404:250,1,115.199996484375,6|0,3:2|0:0,0:0:0:0:
404,250,184429,1,0,0:0:0:0:
404,250,184504,1,8,0:0:0:0:
164,291,184654,1,0,0:0:0:0:
339,34,184804,6,0,L|331:98,1,57.5999982421876,10|0,3:2|0:0,0:0:0:0:
154,211,184954,2,0,L|161:268,1,57.5999982421876,10|0,3:2|0:0,0:0:0:0:
379,184,185104,1,8,3:2:0:0:
198,105,185254,6,0,B|156:120|117:104|117:104|109:145|109:145|73:173|66:216|89:254,1,230.39999296875,6|0,3:2|3:0,0:0:0:0:
255,362,185704,2,0,P|269:298|248:242,1,115.199996484375,8|0,0:0|0:0,0:0:0:0:
31,294,186004,1,0,3:0:0:0:
173,370,186154,1,0,3:0:0:0:
204,74,186304,2,0,P|172:121|169:178,1,115.199996484375,12|0,0:0|0:0,0:0:0:0:
414,189,186604,5,6,3:2:0:0:
240,144,186754,1,0,0:0:0:0:
371,53,186904,1,8,0:0:0:0:
254,251,187054,1,0,0:0:0:0:
466,312,187204,5,2,3:2:0:0:
237,259,187354,1,0,3:0:0:0:
462,187,187504,1,8,0:0:0:0:
336,353,187654,1,6,3:2:0:0:
243,108,187804,5,0,0:0:0:0:
459,236,187954,1,0,3:0:0:0:
257,339,188104,1,8,0:0:0:0:
468,212,188254,1,0,0:0:0:0:
288,31,188404,5,8,3:2:0:0:
357,284,188554,1,0,3:0:0:0:
150,150,188704,1,8,0:0:0:0:
417,99,188854,1,0,0:0:0:0:
142,230,189004,6,0,P|211:200|217:106,1,172.799994726563,6|0,3:2|0:0,0:0:0:0:
164,60,189304,2,0,L|40:82,1,115.199996484375,8|0,0:0|0:0,0:0:0:0:
264,19,189604,1,0,3:0:0:0:
110,220,189754,1,0,3:0:0:0:
43,6,189904,1,8,0:0:0:0:
325,144,190054,6,0,P|335:234|224:225,1,230.39999296875,6|0,3:2|3:0,0:0:0:0:
433,142,190504,1,8,0:0:0:0:
251,26,190654,1,6,3:2:0:0:
251,26,190729,1,0,0:0:0:0:
251,26,190804,1,0,0:0:0:0:
462,3,190954,1,0,3:0:0:0:
338,258,191104,2,0,L|323:129,1,115.199996484375,8|0,0:0|0:0,0:0:0:0:
324,144,191329,1,0,0:0:0:0:
324,144,191404,1,6,3:2:0:0:
39,86,191554,5,8,0:3:0:0:
84,53,191629,1,8,0:3:0:0:
139,65,191704,1,8,0:0:0:0:
167,114,191779,1,4,0:3:0:0:
151,167,191854,1,4,0:3:0:0:
112,209,191929,1,4,0:3:0:0:
93,262,192004,1,8,0:3:0:0:
117,313,192079,1,8,0:3:0:0:
169,333,192154,1,8,0:3:0:0:
221,311,192229,1,8,0:3:0:0:
243,258,192304,2,0,L|304:272,1,57.5999982421876,8|8,0:0|0:3,0:0:0:0:
497,215,192454,6,0,B|449:220|413:199|413:199|378:241|378:241|391:305|346:342,1,230.39999296875,6|0,3:2|3:0,0:0:0:0:
200,169,192904,2,0,L|332:196,1,115.199996484375,8|0,0:0|0:0,0:0:0:0:
508,246,193204,1,0,3:0:0:0:
448,24,193354,1,0,3:0:0:0:
444,64,193429,1,0,3:0:0:0:
440,104,193504,2,0,P|382:114|321:95,1,115.199996484375,8|0,0:0|0:0,0:0:0:0:
140,13,193804,6,0,L|208:3,1,57.5999982421876,6|0,3:2|0:0,0:0:0:0:
386,38,193954,2,0,L|329:29,1,57.5999982421876
84,99,194104,6,0,L|152:89,1,57.5999982421876,8|0,0:0|0:0,0:0:0:0:
328,99,194254,2,0,L|271:90,1,57.5999982421876
155,357,194404,6,0,L|137:282,1,57.5999982421876,0|0,3:0|0:0,0:0:0:0:
295,250,194554,2,0,L|308:193,1,57.5999982421876,0|0,3:0|0:0,0:0:0:0:
154,146,194704,2,0,L|140:89,1,57.5999982421876,8|0,0:0|0:0,0:0:0:0:
384,220,194854,6,0,L|438:28,1,172.799994726563,4|8,3:2|0:3,0:0:0:0:
440,25,195154,1,8,0:3:0:0:
267,206,195304,1,8,0:0:0:0:
472,313,195454,1,4,0:3:0:0:
289,50,195604,5,8,0:0:0:0:
341,74,195679,1,8,0:3:0:0:
353,130,195754,1,8,0:3:0:0:
311,169,195829,1,8,0:3:0:0:
267,206,195904,1,8,0:0:0:0:
260,263,195979,1,8,0:0:0:0:
307,295,196054,1,8,0:0:0:0:
357,266,196129,1,8,0:0:0:0:
379,212,196204,6,0,L|184:232,1,172.799994726563,6|0,3:2|0:0,0:0:0:0:
145,274,196504,1,8,0:0:0:0:
251,119,196654,1,0,3:0:0:0:
251,119,196729,1,0,3:0:0:0:
251,119,196804,1,0,3:0:0:0:
334,301,196954,1,0,3:0:0:0:
447,107,197104,1,8,0:0:0:0:
456,312,197254,6,0,L|327:322,1,115.199996484375,6|0,3:2|0:0,0:0:0:0:
103,193,197554,1,0,3:0:0:0:
103,193,197629,1,0,3:0:0:0:
103,193,197704,1,8,0:0:0:0:
321,130,197854,1,0,0:0:0:0:
170,298,198004,1,0,3:0:0:0:
170,298,198154,1,0,3:0:0:0:
231,16,198304,2,0,P|189:67|196:136,1,115.199996484375,8|0,0:0|0:0,0:0:0:0:
336,191,198604,6,0,L|453:207,1,115.199996484375,12|0,3:2|3:0,0:0:0:0:
505,43,198904,2,0,L|388:59,1,115.199996484375,8|0,0:0|3:0,0:0:0:0:
48,107,199204,5,8,0:0:0:0:
336,191,199354,1,0,3:0:0:0:
43,240,199504,5,8,0:0:0:0:
390,58,199654,1,4,3:2:0:0:
256,192,199804,12,4,203404,0:0:0:0:
374,139,206854,6,0,L|447:129,1,57.5999982421876,12|0,0:0|0:0,0:0:0:0:
198,273,207154,6,0,L|271:283,1,57.5999982421876,12|0,0:0|0:0,0:0:0:0:
53,52,207454,6,0,L|126:42,1,57.5999982421876,12|0,0:0|0:0,0:0:0:0:
495,91,208204,6,0,B|457:80|412:106|412:106|384:81|384:81|354:116|301:108,1,192,6|0,3:2|0:0,0:0:0:0:
145,195,208654,1,0,3:0:0:0:
289,320,208804,2,0,P|298:260|288:209,1,96,8|8,0:0|0:0,0:0:0:0:
293,225,209029,1,8,0:0:0:0:
293,225,209104,1,8,0:0:0:0:
477,48,209254,6,0,B|438:66|438:66|368:48,1,96,6|0,3:2|0:0,0:0:0:0:
55,21,209554,2,0,B|94:3|94:3|164:21,1,96,8|0,0:0|0:0,0:0:0:0:
321,7,209854,1,0,3:0:0:0:
172,192,210004,5,8,0:0:0:0:
310,41,210154,1,0,3:0:0:0:
382,193,210304,2,0,L|271:210,1,96,8|0,0:0|0:0,0:0:0:0:
35,274,210604,6,0,L|129:288,1,96,6|8,3:2|0:0,0:0:0:0:
309,320,210904,1,0,3:0:0:0:
254,81,211054,1,0,3:0:0:0:
254,81,211129,1,8,3:0:0:0:
254,81,211204,1,8,3:0:0:0:
145,195,211354,1,8,0:0:0:0:
368,143,211504,1,8,0:0:0:0:
62,30,211654,6,0,B|100:52|140:36|140:36|150:70|178:70|178:70|172:110|201:136,1,192,12|8,3:2|0:0,0:0:0:0:
414,167,212104,1,12,0:0:0:0:
254,81,212254,1,8,0:0:0:0:
335,270,212404,1,4,0:3:0:0:
451,58,212554,2,0,L|392:67,1,48,4|0,0:3|0:0,0:0:0:0:
202,197,212704,1,8,0:0:0:0:
169,176,212779,1,8,0:0:0:0:
160,138,212854,1,8,0:0:0:0:
174,102,212929,1,8,0:0:0:0:
196,87,213004,6,0,L|259:80,1,57.6,4|0,3:0|0:0,0:0:0:0:
319,113,213304,6,0,B|299:153|251:153|251:153|280:182|267:216|267:216|240:252|275:310,1,230.39999296875,12|0,3:2|3:0,0:0:0:0:
433,196,213754,1,0,3:0:0:0:
253,80,213904,1,8,0:0:0:0:
322,356,214054,2,0,P|347:303|335:236,1,115.199996484375,6|0,3:2|0:0,0:0:0:0:
180,129,214354,2,0,L|63:144,1,115.199996484375,0|8,3:0|0:0,0:0:0:0:
46,272,214654,2,0,L|160:257,1,115.199996484375,0|0,0:0|3:0,0:0:0:0:
373,159,214954,1,0,3:0:0:0:
191,276,215104,1,8,0:0:0:0:
322,356,215254,1,0,0:0:0:0:
247,89,215404,6,0,B|274:142|274:142|244:207,1,115.199996484375,6|0,3:2|3:0,0:0:0:0:
45,163,215704,1,8,0:0:0:0:
256,53,215854,1,0,0:0:0:0:
20,152,216004,1,0,3:0:0:0:
218,254,216154,1,0,3:0:0:0:
120,37,216304,1,8,0:0:0:0:
133,244,216454,6,0,P|141:299|294:295,1,230.39999296875,6|0,3:2|3:0,0:0:0:0:
422,140,216904,1,8,0:0:0:0:
218,254,217054,1,0,3:0:0:0:
256,26,217204,5,12,3:2:0:0:
285,309,217354,1,0,3:0:0:0:
464,335,217504,5,12,3:2:0:0:
133,244,217654,1,0,0:0:0:0:
324,384,217804,6,0,P|363:312|315:224,1,172.799994726563,6|0,3:2|0:0,0:0:0:0:
293,214,218104,2,0,P|267:270|276:327,1,115.199996484375,8|0,0:0|0:0,0:0:0:0:
484,243,218404,1,0,3:0:0:0:
295,195,218554,1,0,3:0:0:0:
429,353,218704,1,8,0:0:0:0:
337,104,218854,6,0,B|368:51|368:51|389:229,1,230.39999296875,6|0,3:2|3:0,0:0:0:0:
212,143,219304,1,8,0:0:0:0:
452,43,219454,1,2,0:0:0:0:
452,43,219529,1,2,0:0:0:0:
452,43,219604,1,2,3:2:0:0:
297,184,219754,1,0,3:0:0:0:
255,13,219904,1,8,0:0:0:0:
449,63,220054,2,0,L|391:73,1,57.5999982421876
163,69,220204,6,0,B|209:78|237:50|237:50|271:90|319:74|319:74|315:106|347:136,1,230.39999296875,6|8,3:2|0:0,0:0:0:0:
154,241,220654,1,0,3:0:0:0:
154,241,220729,1,0,3:0:0:0:
154,241,220804,1,2,3:2:0:0:
359,281,220954,1,0,3:0:0:0:
231,137,221104,1,8,0:0:0:0:
260,362,221254,5,4,3:2:0:0:
260,362,221329,1,0,3:0:0:0:
260,362,221404,1,0,3:0:0:0:
338,127,221554,1,0,3:0:0:0:
102,192,221704,1,8,0:0:0:0:
367,273,221854,5,4,3:2:0:0:
367,273,221929,1,0,3:0:0:0:
367,273,222004,1,0,3:0:0:0:
180,85,222154,1,0,3:0:0:0:
488,70,222304,6,0,P|415:38|320:76,1,172.799994726563,8|0,0:3|0:0,0:0:0:0:
315,104,222604,2,0,L|441:126,1,115.199996484375,6|0,3:2|0:0,0:0:0:0:
257,22,222904,5,8,0:0:0:0:
445,159,223054,1,0,3:0:0:0:
268,262,223204,2,0,B|257:221|296:176|296:176|249:159|233:99,1,172.799994726563,0|0,3:0|0:0,0:0:0:0:
215,93,223504,2,0,P|186:141|192:212,1,115.199996484375,8|0,0:0|0:0,0:0:0:0:
344,241,223804,5,0,3:0:0:0:
145,319,223954,1,0,3:0:0:0:
403,381,224104,2,0,B|402:336|362:311|362:311|420:290|413:227,1,172.799994726563,8|0,0:0|0:0,0:0:0:0:
431,210,224404,1,0,3:0:0:0:
330,376,224554,1,0,3:0:0:0:
258,219,224704,1,8,0:0:0:0:
463,321,224854,1,0,0:0:0:0:
227,292,225004,6,0,P|185:248|231:140,1,172.799994726563,0|0,3:0|0:0,0:0:0:0:
250,131,225304,1,8,0:0:0:0:
37,180,225454,1,0,3:0:0:0:
130,4,225604,2,0,P|147:62|112:126,1,115.199996484375,4|4,0:3|0:3,0:0:0:0:
15,309,225904,6,0,B|56:332|98:296|98:296|119:338|162:332|162:332|175:372|219:376,1,230.39999296875,12|0,0:0|0:0,0:0:0:0:
478,192,226354,1,0,3:0:0:0:
478,192,226429,1,2,0:0:0:0:
478,192,226504,2,0,L|353:210,1,115.199996484375,8|0,0:0|0:0,0:0:0:0:
163,192,226804,1,8,3:2:0:0:
337,353,226954,1,0,3:0:0:0:
266,83,227104,2,0,P|248:141|268:209,1,115.199996484375,8|0,3:2|0:0,0:0:0:0:
478,192,227404,5,6,3:2:0:0:
321,142,227554,1,0,0:0:0:0:
384,338,227704,2,0,B|365:281|365:281|393:217,1,115.199996484375,8|0,0:0|0:0,0:0:0:0:
497,99,228004,6,0,P|408:113|354:49,1,172.799994726563,0|0,3:0|0:0,0:0:0:0:
351,17,228304,1,8,0:0:0:0:
184,184,228454,2,0,B|227:191|254:163|254:163|285:195|326:194|326:194|347:228|397:231,1,230.39999296875,6|0,3:2|3:0,0:0:0:0:
198,106,228904,2,0,P|136:126|100:182,1,115.199996484375,8|0,0:0|0:0,0:0:0:0:
60,351,229204,6,0,L|43:272,1,57.5999982421876,0|0,3:0|0:0,0:0:0:0:
49,44,229354,1,8,0:0:0:0:
93,7,229429,1,8,0:0:0:0:
150,3,229504,1,8,0:0:0:0:
194,39,229579,1,8,0:0:0:0:
200,96,229654,1,8,0:0:0:0:
156,134,229729,1,8,0:0:0:0:
106,163,229804,6,0,L|220:191,1,115.199996484375,6|0,3:2|0:0,0:0:0:0:
432,252,230104,1,8,0:0:0:0:
255,307,230254,1,0,0:0:0:0:
433,117,230404,2,0,L|321:144,1,115.199996484375,6|0,3:2|3:0,0:0:0:0:
106,163,230704,1,8,0:0:0:0:
170,321,230854,6,0,B|209:369|209:369|227:181,1,230.39999296875,6|0,3:2|3:0,0:0:0:0:
110,31,231304,1,12,0:0:0:0:
78,223,231454,1,0,0:0:0:0:
78,223,231529,1,0,0:0:0:0:
78,223,231604,6,0,L|-6:237,2,76.7999976562501,8|8|8,3:0|3:0|3:0,0:0:0:0:
126,163,231904,5,4,3:0:0:0:
189,119,232004,1,4,3:0:0:0:
264,135,232104,1,4,3:0:0:0:
316,191,232204,6,0,P|369:220|436:208,1,115.199996484375,6|0,3:2|0:0,0:0:0:0:
496,89,232504,2,0,L|366:113,1,115.199996484375,0|0,0:0|3:0,0:0:0:0:
111,144,232804,2,0,L|286:170,1,172.799994726563,12|0,0:0|0:0,0:0:0:0:
316,191,233104,1,0,3:0:0:0:
95,304,233254,1,4,3:2:0:0:
204,43,233404,5,0,0:0:0:0:
315,284,233554,1,8,0:0:0:0:
33,221,233704,1,0,3:0:0:0:
33,221,233854,1,0,3:0:0:0:
417,175,234004,6,0,L|429:31,1,115.199996484375,8|0,0:0|3:0,0:0:0:0:
279,13,234304,2,0,L|288:127,1,115.199996484375,12|0,0:0|3:0,0:0:0:0:
487,40,234604,5,12,0:0:0:0:
122,199,234754,1,0,3:0:0:0:
388,355,234904,5,8,0:0:0:0:
279,13,235054,1,0,3:0:0:0:
114,307,235204,5,8,0:0:0:0:
382,164,235354,1,0,3:0:0:0:
143,43,235504,5,8,0:0:0:0:
445,208,235654,1,12,0:0:0:0:
415,128,237004,6,0,L|431:27,2,96,2|2|2,0:0|0:0|0:0,0:0:0:0:
453,209,237454,2,0,B|394:227|356:194|356:194|337:246|273:260,1,192,2|0,0:0|0:0,0:0:0:0:
182,157,237904,2,0,L|284:179,1,96,2|0,0:0|0:0,0:0:0:0:
205,63,238204,6,0,P|114:97|104:203,1,192,2|0,0:0|0:0,0:0:0:0:
170,255,238654,1,2,0:0:0:0:
182,157,238804,1,2,0:0:0:0:
440,338,239104,5,8,0:0:0:0:
402,348,239179,1,8,0:0:0:0:
364,341,239254,1,8,0:0:0:0:
342,309,239329,1,8,0:0:0:0:
335,272,239404,6,0,L|353:120,1,144,6|0,3:2|0:0,0:0:0:0:
377,52,239704,2,0,P|413:81|428:144,1,96,8|0,0:0|0:0,0:0:0:0:
199,173,240004,1,0,3:0:0:0:
447,299,240154,2,0,L|473:186,1,96,8|0,0:0|0:0,0:0:0:0:
160,335,240454,6,0,L|136:142,1,192,4|0,3:2|3:0,0:0:0:0:
293,33,240904,2,0,P|316:70|305:140,1,96,8|0,0:0|0:0,0:0:0:0:
49,64,241204,5,0,3:0:0:0:
353,219,241354,2,0,P|410:157|375:43,1,192,8|0,0:0|0:0,0:0:0:0:
16,110,241804,6,0,B|170:89,1,144,6|0,3:2|0:0,0:0:0:0:
206,82,242104,2,0,P|219:128|209:195,1,96,8|0,0:0|0:0,0:0:0:0:
27,224,242404,1,0,3:0:0:0:
197,357,242554,2,0,L|219:254,1,96,8|0,0:0|0:0,0:0:0:0:
353,33,242854,6,0,P|420:81|371:188,1,192,4|0,3:2|3:0,0:0:0:0:
208,145,243304,2,0,L|191:42,1,96,8|0,0:0|0:0,0:0:0:0:
289,227,243604,1,0,3:0:0:0:
353,33,243754,1,8,0:0:0:0:
495,225,243904,2,0,L|374:238,1,96
63,243,244204,6,0,P|134:260|179:332,1,144,6|0,3:2|0:0,0:0:0:0:
183,347,244504,2,0,L|197:250,1,96,8|0,0:0|0:0,0:0:0:0:
193,48,244804,1,0,3:0:0:0:
367,133,244954,2,0,L|256:158,1,96,8|0,0:0|0:0,0:0:0:0:
121,192,245254,6,0,B|217:170|184:272|317:242,1,192,4|0,3:2|3:0,0:0:0:0:
80,259,245704,2,0,P|46:214|44:167,1,96,8|0,0:0|0:0,0:0:0:0:
272,159,246004,1,0,3:0:0:0:
92,29,246154,2,0,B|141:59|141:59|120:192,1,192,8|0,0:0|0:0,0:0:0:0:
478,295,246604,6,0,P|399:280|340:315,1,144,6|0,3:2|0:0,0:0:0:0:
323,341,246904,2,0,L|307:224,1,96,8|0,0:0|0:0,0:0:0:0:
432,122,247204,5,0,3:0:0:0:
100,59,247354,1,8,0:0:0:0:
432,122,247654,6,0,L|367:113,1,57.5999982421876,12|0,0:0|0:0,0:0:0:0:
107,116,247954,6,0,L|98:51,1,57.5999982421876,12|0,0:0|0:0,0:0:0:0:
464,98,248254,6,0,L|399:89,1,57.5999982421876,12|0,0:0|0:0,0:0:0:0:
75,96,248554,6,0,L|66:31,1,57.5999982421876,12|0,0:0|0:0,0:0:0:0:
236,18,248704,6,0,P|280:97|222:157,1,172.799994726563,12|0,0:0|0:0,0:0:0:0:
201,172,249004,2,0,P|181:131|200:63,1,96,6|0,3:2|0:0,0:0:0:0:
353,47,249304,2,0,L|456:60,1,96,8|0,0:0|0:0,0:0:0:0:
448,59,249529,1,0,0:0:0:0:
448,59,249604,1,0,3:0:0:0:
236,18,249754,1,8,0:0:0:0:
509,111,249904,1,0,0:0:0:0:
358,226,250054,6,0,B|325:177|325:177|356:30,1,192,6|0,3:2|3:0,0:0:0:0:
501,16,250504,2,0,L|509:111,1,96,8|0,0:0|0:0,0:0:0:0:
510,111,250728,1,0,0:0:0:0:
510,111,250803,1,0,3:0:0:0:
326,176,250954,1,8,0:0:0:0:
310,81,251104,2,0,L|329:196,1,96
437,341,251404,6,0,P|471:308|470:217,1,144,6|0,3:2|0:0,0:0:0:0:
420,162,251704,2,0,L|308:178,1,96,8|0,0:0|0:0,0:0:0:0:
134,208,252004,1,0,3:0:0:0:
268,290,252154,1,8,0:0:0:0:
194,116,252304,1,0,0:0:0:0:
57,195,252454,6,0,P|102:281|196:260,1,192,4|0,3:2|3:0,0:0:0:0:
289,101,252904,2,0,L|177:119,1,96,8|0,0:0|0:0,0:0:0:0:
194,116,253129,1,0,0:0:0:0:
194,116,253204,1,0,3:0:0:0:
259,287,253354,1,8,0:0:0:0:
194,45,253504,5,8,0:0:0:0:
160,12,253579,1,8,0:0:0:0:
112,8,253654,1,8,0:0:0:0:
68,29,253729,1,8,0:0:0:0:
53,75,253804,6,0,L|82:249,1,144,6|0,3:2|0:0,0:0:0:0:
105,282,254104,2,0,P|144:240|142:182,1,96,8|0,0:0|0:0,0:0:0:0:
339,138,254404,1,0,3:0:0:0:
160,12,254554,2,0,P|150:61|159:109,1,96,8|0,0:0|0:0,0:0:0:0:
375,147,254854,6,0,L|361:36,1,96,6|0,3:2|0:0,0:0:0:0:
245,158,255154,1,0,3:0:0:0:
232,62,255304,2,0,L|244:157,1,96,8|0,0:0|0:0,0:0:0:0:
27,224,255604,1,0,3:0:0:0:
123,360,255754,2,0,B|148:311|148:311|115:158,1,192,8|0,0:0|0:0,0:0:0:0:
337,26,256204,6,0,P|271:26|189:72,1,144,6|0,3:2|0:0,0:0:0:0:
164,99,256504,1,8,0:0:0:0:
399,233,256654,1,4,0:3:0:0:
399,233,256729,1,12,0:3:0:0:
399,233,256804,1,0,3:0:0:0:
140,293,256954,1,8,0:0:0:0:
359,118,257104,1,8,0:0:0:0:
259,356,257254,1,4,0:0:0:0:
256,192,257329,12,0,265804,0:0:0:0:
