osu file format v14

[General]
AudioFilename: audio.mp3
AudioLeadIn: 0
PreviewTime: 56703
Countdown: 0
SampleSet: Drum
StackLeniency: 0.7
Mode: 3
LetterboxInBreaks: 0
SpecialStyle: 0
WidescreenStoryboard: 1

[Editor]
DistanceSpacing: 0.8
BeatDivisor: 4
GridSize: 4
TimelineZoom: 1.7

[Metadata]
Title:My Days
TitleUnicode:My Days
Artist:Suzuki Konomi
ArtistUnicode:鈴木このみ
Creator:FerdiXIA-
Version:Easy
Source:永远的7日之都
Tags:Forever 7th Capital eternal city 영원한 7일의 도시 永遠の七日 garnidelia MARiA Toku-P 铃木木乃美 video game japanese amiichii kanon matsubara
BeatmapID:2331444
BeatmapSetID:939960

[Difficulty]
HPDrainRate:7
CircleSize:4
OverallDifficulty:7
ApproachRate:5
SliderMultiplier:1.4
SliderTickRate:1

[Events]
//Background and Video events
0,0,"bg1.jpg",0,0
//Break Periods
//Storyboard Layer 0 (Background)
//Storyboard Layer 1 (Fail)
//Storyboard Layer 2 (Pass)
//Storyboard Layer 3 (Foreground)
//Storyboard Layer 4 (Overlay)
//Storyboard Sound Samples
Sample,11553,0,"Splash.wav",70
Sample,11853,0,"Splash.wav",70
Sample,34803,0,"Splash.wav",70
Sample,35103,0,"Splash.wav",70
Sample,36753,0,"Splash.wav",70
Sample,37053,0,"Splash.wav",70
Sample,37353,0,"Splash.wav",70
Sample,38703,0,"Splash.wav",70
Sample,39903,0,"Splash.wav",70
Sample,52203,0,"Splash.wav",70
Sample,83103,0,"Tom2.wav",55
Sample,93003,0,"Tom3.wav",50

[TimingPoints]
903,300,4,3,1,15,1,0
3303,-100,4,3,1,45,0,0
14103,-100,4,3,1,40,0,0
42903,-100,4,3,1,35,0,0
47703,-100,4,3,1,40,0,0
52503,-100,4,3,1,35,0,0
54903,-100,4,3,1,40,0,0
57303,-100,4,3,1,50,0,1
89553,-100,4,3,1,40,0,0
93303,-100,4,3,1,45,0,0

[HitObjects]
320,192,903,128,0,2103:0:0:0:0:
448,192,2103,128,0,3003:0:0:0:0:
64,192,3003,1,0,0:0:0:25:Snare.wav
192,192,3303,1,2,0:0:0:0:
320,192,3303,1,4,0:0:0:0:
448,192,3603,1,8,0:0:0:0:
192,192,3903,1,2,0:0:0:0:
64,192,4053,1,8,0:0:0:0:
320,192,4353,1,2,0:0:0:0:
448,192,4353,1,4,0:0:0:0:
192,192,4653,1,2,0:0:0:0:
320,192,4803,1,8,0:0:0:0:
64,192,5103,1,2,0:0:0:0:
448,192,5253,1,8,0:0:0:0:
64,192,5703,1,2,0:0:0:0:
192,192,5703,1,4,0:0:0:0:
448,192,6003,1,8,0:0:0:0:
192,192,6303,1,2,0:0:0:0:
320,192,6453,1,8,0:0:0:0:
64,192,6753,1,2,0:0:0:0:
448,192,6753,1,4,0:0:0:0:
320,192,7053,1,2,0:0:0:0:
192,192,7203,1,8,0:0:0:0:
448,192,7503,1,2,0:0:0:0:
64,192,7653,1,8,0:0:0:0:
192,192,7803,1,2,0:0:0:0:
64,192,8103,1,2,0:0:0:0:
320,192,8103,1,4,0:0:0:0:
448,192,8403,1,8,0:0:0:0:
64,192,8703,1,2,0:0:0:0:
320,192,8853,1,8,0:0:0:0:
192,192,9153,1,2,0:0:0:0:
448,192,9153,1,4,0:0:0:0:
64,192,9453,1,2,0:0:0:0:
192,192,9603,1,8,0:0:0:0:
448,192,9903,1,2,0:0:0:0:
64,192,10053,1,8,0:0:0:0:
320,192,10503,1,2,0:0:0:0:
448,192,10503,1,4,0:0:0:0:
64,192,10803,1,8,0:0:0:0:
320,192,11103,1,2,0:0:0:0:
448,192,11253,1,8,0:0:0:0:
192,192,11553,1,2,0:0:0:0:
320,192,11853,1,2,0:0:0:0:
64,192,12153,128,2,13803:0:0:0:0:
448,192,12153,1,4,0:0:0:0:
320,192,13803,1,0,0:0:0:50:Tom2.wav
192,192,14103,1,2,0:0:0:0:
320,192,14103,1,4,0:0:0:0:
448,192,14403,1,8,0:0:0:0:
64,192,14703,1,2,0:0:0:0:
192,192,14853,1,8,0:0:0:0:
320,192,15153,1,2,0:0:0:0:
448,192,15453,1,2,0:0:0:0:
192,192,15603,1,8,0:0:0:0:
64,192,15903,1,2,0:0:0:0:
320,192,16053,1,8,0:0:0:0:
192,192,16503,1,2,0:0:0:0:
320,192,16803,1,8,0:0:0:0:
448,192,17103,1,2,0:0:0:0:
192,192,17253,1,8,0:0:0:0:
64,192,17553,1,2,0:0:0:0:
448,192,17853,1,2,0:0:0:0:
192,192,18003,1,8,0:0:0:0:
64,192,18303,1,2,0:0:0:0:
320,192,18453,1,8,0:0:0:0:
448,192,18903,1,2,0:0:0:0:
320,192,19203,1,8,0:0:0:0:
64,192,19503,1,2,0:0:0:0:
192,192,19653,1,8,0:0:0:0:
320,192,19953,1,2,0:0:0:0:
448,192,20253,1,2,0:0:0:0:
192,192,20403,1,8,0:0:0:0:
64,192,20703,1,2,0:0:0:0:
320,192,20853,1,8,0:0:0:0:
64,192,21303,1,2,0:0:0:0:
192,192,21603,1,8,0:0:0:0:
320,192,21903,1,2,0:0:0:0:
64,192,22053,1,8,0:0:0:0:
320,192,22353,1,2,0:0:0:0:
448,192,22353,128,4,23103:0:0:0:0:
192,192,23103,1,2,0:0:0:0:
64,192,23403,128,8,23703:0:0:0:0:
320,192,24003,1,8,0:0:0:0:
448,192,24003,1,4,0:0:0:0:
192,192,24303,1,2,0:0:0:0:
64,192,24453,1,8,0:0:0:0:
448,192,24753,1,2,0:0:0:0:
192,192,25053,1,2,0:0:0:0:
320,192,25203,1,8,0:0:0:0:
64,192,25503,1,2,0:0:0:0:
320,192,25653,1,8,0:0:0:0:
448,192,26103,1,2,0:0:0:0:
320,192,26403,1,8,0:0:0:0:
64,192,26703,1,2,0:0:0:0:
192,192,26853,1,8,0:0:0:0:
320,192,27153,1,2,0:0:0:0:
192,192,27453,1,2,0:0:0:0:
448,192,27603,1,8,0:0:0:0:
64,192,27903,1,2,0:0:0:0:
320,192,28053,1,8,0:0:0:0:
448,192,28503,1,2,0:0:0:0:
64,192,28803,1,8,0:0:0:0:
192,192,29103,1,2,0:0:0:0:
448,192,29253,1,8,0:0:0:0:
64,192,29553,1,2,0:0:0:0:
320,192,29853,1,2,0:0:0:0:
192,192,30003,1,8,0:0:0:0:
448,192,30303,1,2,0:0:0:0:
192,192,30453,1,8,0:0:0:0:
64,192,30903,1,2,0:0:0:0:
320,192,31203,1,8,0:0:0:0:
192,192,31503,1,2,0:0:0:0:
64,192,31653,1,8,0:0:0:0:
448,192,31953,1,2,0:0:0:0:
192,192,32253,1,2,0:0:0:0:
320,192,32403,1,8,0:0:0:0:
448,192,32553,1,2,0:0:0:0:
64,192,32703,128,8,33003:0:0:0:0:
320,192,33003,128,0,33303:0:0:0:50:Tom2.wav
192,192,33303,1,2,0:0:0:0:
448,192,33303,1,4,0:0:0:0:
64,192,33753,1,2,0:0:0:0:
320,192,33903,1,8,0:0:0:0:
448,192,34203,1,2,0:0:0:0:
64,192,34353,1,2,0:0:0:0:
448,192,34653,1,8,0:0:0:0:
320,192,34803,1,2,0:0:0:0:
192,192,34953,1,2,0:0:0:0:
64,192,35103,1,8,0:0:0:0:
192,192,35403,128,0,35703:0:0:0:70:Splash.wav
320,192,35703,1,2,0:0:0:0:
448,192,35703,1,4,0:0:0:0:
448,192,36153,1,2,0:0:0:0:
192,192,36303,1,8,0:0:0:0:
320,192,36453,1,2,0:0:0:0:
64,192,36603,1,8,0:0:0:0:
448,192,36753,1,8,0:0:0:0:
192,192,37053,1,8,0:0:0:0:
64,192,37353,1,8,0:0:0:0:
448,192,37653,1,8,0:0:0:0:
192,192,37803,1,8,0:0:0:0:
320,192,37953,1,8,0:0:0:0:
64,192,38103,1,2,0:0:0:0:
448,192,38103,1,4,0:0:0:0:
320,192,38553,1,2,0:0:0:0:
192,192,38703,1,8,0:0:0:0:
64,192,39153,1,2,0:0:0:0:
448,192,39453,1,8,0:0:0:0:
192,192,39603,1,2,0:0:0:0:
64,192,39753,1,2,0:0:0:0:
320,192,39903,1,8,0:0:0:0:
448,192,40203,1,0,0:0:0:0:
64,192,40503,1,6,0:0:0:0:
192,192,40653,1,8,0:0:0:0:
448,192,40953,1,2,0:0:0:0:
320,192,41103,1,8,0:0:0:0:
64,192,41403,1,2,0:0:0:0:
320,192,41553,1,8,0:0:0:0:
448,192,41853,1,8,0:0:0:0:
192,192,42153,1,8,0:0:0:0:
320,192,42303,1,8,0:0:0:0:
192,192,42603,1,0,0:0:0:50:Tom3.wav
64,192,42903,1,2,0:0:0:0:
448,192,42903,1,4,0:0:0:0:
320,192,43353,1,0,0:0:0:0:
448,192,43803,1,0,0:0:0:0:
192,192,44103,1,0,0:0:0:0:
320,192,44703,1,0,0:0:0:0:
448,192,45003,1,0,0:0:0:0:
64,192,45303,1,0,0:0:0:0:
320,192,45753,1,0,0:0:0:0:
192,192,46203,1,0,0:0:0:0:
64,192,46503,1,0,0:0:0:0:
448,192,47103,128,8,47403:0:0:0:0:
64,192,47403,128,0,47703:0:0:0:50:Tom2.wav
192,192,47703,1,2,0:0:0:0:
320,192,47703,1,4,0:0:0:0:
448,192,48003,1,0,0:0:0:0:
64,192,48303,1,4,0:0:0:0:
320,192,48303,1,8,0:0:0:0:
192,192,48603,1,0,0:0:0:0:
448,192,48903,1,2,0:0:0:0:
320,192,49203,1,2,0:0:0:0:
64,192,49503,1,8,0:0:0:0:
192,192,49803,1,8,0:0:0:0:
64,192,50103,1,2,0:0:0:0:
320,192,50103,1,4,0:0:0:0:
448,192,50553,1,2,0:0:0:0:
64,192,50703,1,8,0:0:0:0:
320,192,51003,1,2,0:0:0:0:
192,192,51153,1,2,0:0:0:0:
448,192,51453,1,8,0:0:0:0:
192,192,51603,1,2,0:0:0:0:
320,192,51903,1,8,0:0:0:0:
64,192,52203,1,8,0:0:0:0:
192,192,52503,128,0,53703:0:0:0:0:
448,192,53703,128,0,54603:0:0:0:0:
64,192,54603,128,8,54903:0:0:0:0:
192,192,54903,1,8,0:0:0:0:
448,192,54903,1,4,0:0:0:0:
192,192,55353,1,8,0:0:0:0:
320,192,55353,1,4,0:0:0:0:
448,192,55803,1,8,0:0:0:0:
64,192,55953,1,2,0:0:0:0:
192,192,55953,1,4,0:0:0:0:
64,192,56253,1,8,0:0:0:0:
320,192,56403,1,8,0:0:0:0:
192,192,56703,1,8,0:0:0:0:
192,192,57303,1,2,0:0:0:0:
320,192,57303,1,4,0:0:0:0:
448,192,57603,1,8,0:0:0:0:
64,192,57903,1,2,0:0:0:0:
192,192,58203,1,8,0:0:0:0:
320,192,58353,1,2,0:0:0:0:
448,192,58353,1,4,0:0:0:0:
448,192,58803,1,8,0:0:0:0:
320,192,59103,1,2,0:0:0:0:
64,192,59403,1,8,0:0:0:0:
192,192,59703,1,2,0:0:0:0:
320,192,59703,1,4,0:0:0:0:
448,192,60003,1,8,0:0:0:0:
320,192,60303,1,2,0:0:0:0:
64,192,60603,1,8,0:0:0:0:
192,192,60753,1,2,0:0:0:0:
448,192,60753,1,4,0:0:0:0:
320,192,61203,1,8,0:0:0:0:
448,192,61503,1,8,0:0:0:0:
192,192,61803,1,8,0:0:0:0:
64,192,62103,1,2,0:0:0:0:
320,192,62103,1,4,0:0:0:0:
192,192,62403,1,8,0:0:0:0:
448,192,62703,1,2,0:0:0:0:
320,192,63003,1,8,0:0:0:0:
64,192,63153,1,2,0:0:0:0:
448,192,63153,1,4,0:0:0:0:
192,192,63603,1,8,0:0:0:0:
64,192,63903,1,2,0:0:0:0:
320,192,64203,1,8,0:0:0:0:
64,192,64503,1,2,0:0:0:0:
192,192,64503,1,4,0:0:0:0:
448,192,64803,1,8,0:0:0:0:
320,192,65103,1,2,0:0:0:0:
64,192,65403,1,8,0:0:0:0:
192,192,65553,1,2,0:0:0:0:
320,192,65553,1,4,0:0:0:0:
64,192,65853,1,2,0:0:0:0:
448,192,66003,1,8,0:0:0:0:
320,192,66303,128,8,66903:0:0:0:0:
64,192,66903,1,2,0:0:0:0:
192,192,66903,1,4,0:0:0:0:
448,192,67203,1,8,0:0:0:0:
320,192,67503,1,2,0:0:0:0:
64,192,67803,1,8,0:0:0:0:
192,192,67953,1,2,0:0:0:0:
320,192,67953,1,4,0:0:0:0:
192,192,68403,1,8,0:0:0:0:
448,192,68703,1,2,0:0:0:0:
320,192,69003,1,8,0:0:0:0:
64,192,69303,1,2,0:0:0:0:
192,192,69303,1,4,0:0:0:0:
448,192,69603,1,8,0:0:0:0:
192,192,69903,1,2,0:0:0:0:
320,192,70203,1,8,0:0:0:0:
64,192,70353,1,2,0:0:0:0:
448,192,70353,1,4,0:0:0:0:
64,192,70803,1,8,0:0:0:0:
320,192,71103,1,2,0:0:0:0:
192,192,71403,1,8,0:0:0:0:
320,192,71403,1,4,0:0:0:0:
64,192,71703,1,2,0:0:0:0:
448,192,71703,1,4,0:0:0:0:
320,192,72003,1,8,0:0:0:0:
64,192,72303,1,2,0:0:0:0:
192,192,72603,1,8,0:0:0:0:
64,192,72753,1,2,0:0:0:0:
320,192,72753,1,4,0:0:0:0:
448,192,73203,1,8,0:0:0:0:
320,192,73503,1,2,0:0:0:0:
192,192,73803,1,8,0:0:0:0:
320,192,74103,1,2,0:0:0:0:
448,192,74103,1,4,0:0:0:0:
64,192,74403,1,8,0:0:0:0:
320,192,74703,1,2,0:0:0:0:
192,192,75003,1,8,0:0:0:0:
64,192,75153,1,2,0:0:0:0:
448,192,75153,1,4,0:0:0:0:
320,192,75453,1,2,0:0:0:0:
192,192,75753,1,2,0:0:0:0:
448,192,75753,1,4,0:0:0:0:
64,192,76053,1,2,0:0:0:0:
192,192,76503,1,2,0:0:0:0:
320,192,76503,1,4,0:0:0:0:
448,192,76803,1,8,0:0:0:0:
320,192,77103,1,0,0:0:0:0:
64,192,77403,1,8,0:0:0:0:
192,192,77703,1,2,0:0:0:0:
320,192,78003,1,8,0:0:0:0:
448,192,78303,1,0,0:0:0:0:
64,192,78603,1,8,0:0:0:0:
320,192,78903,1,2,0:0:0:0:
192,192,79203,1,8,0:0:0:0:
448,192,79503,1,0,0:0:0:0:
64,192,79803,1,8,0:0:0:0:
192,192,79803,1,4,0:0:0:0:
192,192,80253,1,2,0:0:0:0:
320,192,80403,1,8,0:0:0:0:
448,192,80703,1,8,0:0:0:0:
64,192,81003,1,8,0:0:0:0:
320,192,81003,1,4,0:0:0:0:
192,192,81303,1,2,0:0:0:0:
448,192,81303,1,4,0:0:0:0:
320,192,81603,1,8,0:0:0:0:
192,192,81903,1,2,0:0:0:0:
320,192,82203,1,8,0:0:0:0:
64,192,82353,1,2,0:0:0:0:
192,192,82353,1,4,0:0:0:0:
448,192,82803,1,8,0:0:0:0:
320,192,83103,128,2,83403:0:0:0:0:
192,192,83403,128,10,83703:0:0:0:0:
320,192,83703,1,2,0:0:0:0:
448,192,83703,1,4,0:0:0:0:
64,192,84003,1,8,0:0:0:0:
192,192,84303,1,2,0:0:0:0:
320,192,84303,1,4,0:0:0:0:
448,192,84603,1,8,0:0:0:0:
192,192,84753,1,2,0:0:0:0:
320,192,84753,1,4,0:0:0:0:
64,192,85203,1,8,0:0:0:0:
192,192,85353,1,8,0:0:0:0:
448,192,85503,128,8,85803:0:0:0:0:
320,192,85803,128,0,86103:0:0:0:50:Tom2.wav
64,192,86103,1,2,0:0:0:0:
192,192,86103,1,4,0:0:0:0:
320,192,86703,1,8,0:0:0:0:
448,192,86703,1,4,0:0:0:0:
64,192,87153,1,2,0:0:0:0:
320,192,87453,1,8,0:0:0:0:
192,192,87603,1,2,0:0:0:0:
448,192,87903,1,8,0:0:0:0:
192,192,88203,1,8,0:0:0:0:
320,192,88203,1,4,0:0:0:0:
64,192,88503,128,2,89103:0:0:0:0:
448,192,88503,1,4,0:0:0:0:
320,192,89103,128,8,89553:0:0:0:0:
192,192,89553,1,2,0:0:0:0:
448,192,89553,1,4,0:0:0:0:
448,192,90903,128,0,92103:0:0:0:0:
320,192,92103,128,0,93003:0:0:0:0:
64,192,93003,1,0,0:0:0:50:Tom2.wav
192,192,93303,1,2,0:0:0:0:
320,192,93303,1,4,0:0:0:0:
448,192,93603,1,8,0:0:0:0:
64,192,93903,1,2,0:0:0:0:
320,192,94053,1,8,0:0:0:0:
64,192,94353,1,2,0:0:0:0:
192,192,94353,1,4,0:0:0:0:
192,192,94653,1,2,0:0:0:0:
448,192,94803,1,8,0:0:0:0:
320,192,95103,1,2,0:0:0:0:
64,192,95253,1,8,0:0:0:0:
320,192,95703,1,2,0:0:0:0:
448,192,95703,1,4,0:0:0:0:
64,192,96003,1,8,0:0:0:0:
192,192,96303,1,2,0:0:0:0:
320,192,96453,1,8,0:0:0:0:
64,192,96753,1,2,0:0:0:0:
448,192,96753,1,4,0:0:0:0:
320,192,97053,1,2,0:0:0:0:
192,192,97203,1,8,0:0:0:0:
64,192,97503,1,2,0:0:0:0:
320,192,97653,1,8,0:0:0:0:
192,192,98103,1,2,0:0:0:0:
320,192,98103,1,4,0:0:0:0:
64,192,98403,1,8,0:0:0:0:
320,192,98703,1,2,0:0:0:0:
448,192,98853,1,8,0:0:0:0:
64,192,99153,1,2,0:0:0:0:
192,192,99153,1,4,0:0:0:0:
448,192,99453,1,2,0:0:0:0:
320,192,99603,1,8,0:0:0:0:
64,192,99903,1,2,0:0:0:0:
192,192,100053,1,8,0:0:0:0:
64,192,100503,1,2,0:0:0:0:
448,192,100503,1,4,0:0:0:0:
320,192,100803,1,8,0:0:0:0:
192,192,101103,1,8,0:0:0:0:
448,192,101253,1,0,0:0:0:50:Tom2.wav
64,192,101403,1,0,0:0:0:50:Tom3.wav
192,192,101553,1,2,0:0:0:0:
320,192,101553,128,4,106503:0:0:0:0:
