osu file format v14

[General]
AudioFilename: audio.mp3
AudioLeadIn: 0
PreviewTime: 56703
Countdown: 0
SampleSet: Drum
StackLeniency: 0.7
Mode: 3
LetterboxInBreaks: 0
SpecialStyle: 0
WidescreenStoryboard: 0

[Editor]
DistanceSpacing: 0.8
BeatDivisor: 4
GridSize: 4
TimelineZoom: 1.5

[Metadata]
Title:My Days
TitleUnicode:My Days
Artist:Suzuki Konomi
ArtistUnicode:鈴木このみ
Creator:FerdiXIA-
Version:Amii's Insane
Source:永远的7日之都
Tags:Forever 7th Capital eternal city 영원한 7일의 도시 永遠の七日 garnidelia MARiA Toku-P 铃木木乃美 video game japanese amiichii kanon matsubara
BeatmapID:1968717
BeatmapSetID:939960

[Difficulty]
HPDrainRate:8.5
CircleSize:4
OverallDifficulty:8.5
ApproachRate:5
SliderMultiplier:1.4
SliderTickRate:1

[Events]
//Background and Video events
0,0,"bg4.jpg",0,0
//Break Periods
//Storyboard Layer 0 (Background)
//Storyboard Layer 1 (Fail)
//Storyboard Layer 2 (Pass)
//Storyboard Layer 3 (Foreground)
//Storyboard Layer 4 (Overlay)
//Storyboard Sound Samples

[TimingPoints]
903,300,4,3,1,15,1,0
3303,-100,4,3,1,45,0,0
11553,-200,4,3,1,45,0,0
11703,-66.6666666666667,4,3,1,45,0,0
11853,-200,4,3,1,45,0,0
12003,-66.6666666666667,4,3,1,45,0,0
12153,-133.333333333333,4,3,1,45,0,0
13053,-117.647058823529,4,3,1,45,0,0
13203,-105.263157894737,4,3,1,45,0,0
13353,-95.2380952380952,4,3,1,45,0,0
13503,-86.9565217391304,4,3,1,45,0,0
13653,-80,4,3,1,45,0,0
13803,-142.857142857143,4,3,1,45,0,0
13953,-76.9230769230769,4,3,1,45,0,0
14103,-100,4,3,1,40,0,0
22353,-125,4,3,1,40,0,0
22428,-166.666666666667,4,3,1,40,0,0
22503,-250,4,3,1,40,0,0
23103,-57.1428571428571,4,3,1,40,0,0
23178,-133.333333333333,4,3,1,40,0,0
23403,-100,4,3,1,40,0,0
23703,-133.333333333333,4,3,1,40,0,0
23928,-57.1428571428571,4,3,1,40,0,0
24003,-100,4,3,1,40,0,0
36753,-200,4,3,1,40,0,0
36903,-66.6666666666667,4,3,1,40,0,0
37053,-200,4,3,1,40,0,0
37203,-66.6666666666667,4,3,1,40,0,0
37353,-200,4,3,1,40,0,0
37503,-66.6666666666667,4,3,1,40,0,0
37653,-142.857142857143,4,3,1,40,0,0
37728,-76.9230769230769,4,3,1,40,0,0
37803,-142.857142857143,4,3,1,40,0,0
37878,-76.9230769230769,4,3,1,40,0,0
37953,-142.857142857143,4,3,1,40,0,0
38028,-76.9230769230769,4,3,1,40,0,0
38103,-100,4,3,1,40,0,0
42903,-117.647058823529,4,3,1,35,0,0
46803,-111.111111111111,4,3,1,35,0,0
46953,-105.263157894737,4,3,1,35,0,0
47103,-100,4,3,1,35,0,0
47703,-100,4,3,1,40,0,0
52503,-117.647058823529,4,3,1,35,0,0
54603,-100,4,3,1,35,0,0
54903,-100,4,3,1,40,0,0
56703,-66.6666666666667,4,3,1,40,0,0
56853,-200,4,3,1,40,0,0
57003,-133.333333333333,4,3,1,40,0,0
57078,-100,4,3,1,40,0,0
57153,-80,4,3,1,40,0,0
57228,-66.6666666666667,4,3,1,40,0,0
57303,-100,4,3,1,50,0,1
89553,-400,4,3,1,40,0,0
90303,-250,4,3,1,40,0,0
90453,-181.818181818182,4,3,1,40,0,0
90603,-142.857142857143,4,3,1,40,0,0
90753,-117.647058823529,4,3,1,40,0,0
90903,-100,4,3,1,40,0,0
93303,-100,4,3,1,45,0,0

[HitObjects]
64,192,903,128,0,1053:0:0:0:0:
320,192,1053,128,0,1203:0:0:0:0:
192,192,1203,1,0,0:0:0:0:
448,192,1203,128,0,1353:0:0:0:0:
64,192,1353,128,0,1503:0:0:0:0:
192,192,1428,1,0,0:0:0:0:
320,192,1503,1,0,0:0:0:0:
448,192,1503,128,0,1653:0:0:0:0:
192,192,1653,128,0,1803:0:0:0:0:
64,192,1803,1,0,0:0:0:0:
320,192,1803,128,0,1953:0:0:0:0:
448,192,1953,128,0,2103:0:0:0:0:
64,192,2103,128,0,2253:0:0:0:0:
320,192,2178,1,0,0:0:0:0:
192,192,2253,128,0,2403:0:0:0:0:
64,192,2403,1,0,0:0:0:0:
448,192,2403,128,0,2553:0:0:0:0:
192,192,2553,128,0,2703:0:0:0:0:
64,192,2628,1,0,0:0:0:0:
320,192,2703,128,0,2853:0:0:0:0:
448,192,2778,1,0,0:0:0:0:
192,192,2853,128,0,3003:0:0:0:0:
64,192,2928,1,0,0:0:0:0:
320,192,3003,1,0,0:0:0:25:Snare.wav
448,192,3003,1,0,0:0:0:0:
64,192,3078,1,0,0:0:0:0:
192,192,3153,1,0,0:0:0:0:
320,192,3228,1,0,0:0:0:0:
64,192,3303,1,2,0:0:0:0:
192,192,3303,1,4,0:0:0:0:
448,192,3303,1,0,0:0:0:0:
448,192,3453,1,0,0:0:0:0:
64,192,3603,128,8,3753:0:0:0:0:
192,192,3603,128,0,3753:0:0:0:0:
320,192,3603,1,0,0:0:0:0:
320,192,3903,1,2,0:0:0:0:
448,192,3903,128,0,4053:0:0:0:0:
64,192,4053,128,8,4203:0:0:0:0:
192,192,4053,1,0,0:0:0:0:
320,192,4053,1,0,0:0:0:0:
192,192,4203,1,0,0:0:0:0:
64,192,4353,128,2,4503:0:0:0:0:
320,192,4353,1,4,0:0:0:0:
448,192,4353,128,0,4503:0:0:0:0:
192,192,4653,128,2,4803:0:0:0:0:
320,192,4653,128,0,4803:0:0:0:0:
64,192,4803,1,8,0:0:0:0:
448,192,4803,1,0,0:0:0:0:
448,192,4953,128,0,5103:0:0:0:0:
192,192,5103,128,2,5253:0:0:0:0:
320,192,5103,1,0,0:0:0:0:
64,192,5253,1,8,0:0:0:0:
320,192,5253,128,0,5403:0:0:0:0:
448,192,5253,1,0,0:0:0:0:
64,192,5403,128,0,5703:0:0:0:0:
448,192,5553,128,0,5703:0:0:0:0:
192,192,5703,1,2,0:0:0:0:
320,192,5703,1,4,0:0:0:0:
192,192,5853,1,0,0:0:0:0:
64,192,6003,128,8,6153:0:0:0:0:
320,192,6003,1,0,0:0:0:0:
448,192,6003,128,0,6153:0:0:0:0:
192,192,6303,128,2,6453:0:0:0:0:
320,192,6303,1,0,0:0:0:0:
64,192,6453,1,8,0:0:0:0:
320,192,6453,1,0,0:0:0:0:
448,192,6453,128,0,6603:0:0:0:0:
192,192,6603,1,0,0:0:0:0:
64,192,6753,128,2,6903:0:0:0:0:
320,192,6753,128,4,6903:0:0:0:0:
448,192,6753,1,0,0:0:0:0:
192,192,7053,1,2,0:0:0:0:
448,192,7053,128,0,7203:0:0:0:0:
64,192,7203,1,8,0:0:0:0:
192,192,7203,1,0,0:0:0:0:
320,192,7203,1,0,0:0:0:0:
320,192,7353,128,0,7503:0:0:0:0:
64,192,7503,128,2,7653:0:0:0:0:
448,192,7503,1,0,0:0:0:0:
192,192,7653,1,8,0:0:0:0:
320,192,7653,1,0,0:0:0:0:
448,192,7653,128,0,7803:0:0:0:0:
64,192,7803,1,2,0:0:0:0:
192,192,7803,128,0,8103:0:0:0:0:
320,192,7953,128,0,8103:0:0:0:0:
64,192,8103,1,2,0:0:0:0:
448,192,8103,1,4,0:0:0:0:
64,192,8253,1,0,0:0:0:0:
192,192,8403,1,8,0:0:0:0:
320,192,8403,128,0,8553:0:0:0:0:
448,192,8403,128,0,8553:0:0:0:0:
64,192,8703,128,2,8853:0:0:0:0:
320,192,8703,1,0,0:0:0:0:
192,192,8853,1,8,0:0:0:0:
320,192,8853,128,0,9003:0:0:0:0:
448,192,8853,1,0,0:0:0:0:
192,192,9003,1,0,0:0:0:0:
64,192,9153,128,2,9303:0:0:0:0:
320,192,9153,1,4,0:0:0:0:
448,192,9153,128,0,9303:0:0:0:0:
192,192,9453,1,2,0:0:0:0:
448,192,9453,128,0,9603:0:0:0:0:
64,192,9603,1,8,0:0:0:0:
192,192,9603,1,0,0:0:0:0:
320,192,9603,1,0,0:0:0:0:
64,192,9753,128,0,9903:0:0:0:0:
192,192,9903,1,2,0:0:0:0:
320,192,9903,128,0,10053:0:0:0:0:
64,192,10053,1,8,0:0:0:0:
192,192,10053,128,0,10203:0:0:0:0:
448,192,10053,1,0,0:0:0:0:
320,192,10203,128,0,10503:0:0:0:0:
64,192,10353,128,0,10503:0:0:0:0:
192,192,10503,1,2,0:0:0:0:
448,192,10503,1,4,0:0:0:0:
192,192,10653,1,0,0:0:0:0:
64,192,10803,1,8,0:0:0:0:
320,192,10803,128,0,10953:0:0:0:0:
448,192,10803,128,0,10953:0:0:0:0:
192,192,11103,128,2,11253:0:0:0:0:
448,192,11103,1,0,0:0:0:0:
64,192,11253,1,8,0:0:0:0:
320,192,11253,1,0,0:0:0:0:
448,192,11253,1,0,0:0:0:0:
192,192,11403,1,0,0:0:0:0:
64,192,11553,1,2,0:0:0:0:
192,192,11553,1,0,0:0:0:70:Splash.wav
448,192,11553,1,0,0:0:0:0:
64,192,11853,1,2,0:0:0:0:
320,192,11853,1,0,0:0:0:70:Splash.wav
448,192,11853,1,0,0:0:0:0:
64,192,12153,128,2,13803:0:0:0:0:
192,192,12153,128,4,13803:0:0:0:0:
448,192,12153,128,0,13803:0:0:0:0:
320,192,13803,1,0,0:0:0:50:Tom2.wav
64,192,14103,1,2,0:0:0:0:
320,192,14103,1,4,0:0:0:0:
448,192,14103,1,0,0:0:0:0:
192,192,14403,1,8,0:0:0:0:
320,192,14403,1,0,0:0:0:0:
448,192,14403,1,0,0:0:0:0:
64,192,14703,1,2,0:0:0:0:
448,192,14703,1,0,0:0:0:0:
64,192,14853,1,8,0:0:0:0:
192,192,14853,1,0,0:0:0:0:
320,192,14853,1,0,0:0:0:0:
448,192,15003,1,0,0:0:0:0:
64,192,15153,1,2,0:0:0:0:
320,192,15153,1,0,0:0:0:0:
192,192,15303,1,0,0:0:0:0:
320,192,15453,1,2,0:0:0:0:
448,192,15453,1,0,0:0:0:0:
64,192,15603,1,8,0:0:0:0:
192,192,15603,1,0,0:0:0:0:
448,192,15603,1,0,0:0:0:0:
320,192,15753,128,0,15903:0:0:0:0:
64,192,15903,128,2,16053:0:0:0:0:
448,192,15903,1,0,0:0:0:0:
192,192,16053,1,8,0:0:0:0:
320,192,16053,1,0,0:0:0:0:
448,192,16053,128,0,16503:0:0:0:0:
64,192,16203,1,0,0:0:0:0:
320,192,16353,1,0,0:0:0:0:
64,192,16503,1,2,0:0:0:0:
192,192,16503,1,0,0:0:0:0:
448,192,16653,1,0,0:0:0:0:
64,192,16803,1,8,0:0:0:0:
192,192,16803,1,0,0:0:0:0:
320,192,16803,1,0,0:0:0:0:
448,192,16953,1,0,0:0:0:0:
192,192,17103,1,2,0:0:0:0:
320,192,17103,1,0,0:0:0:0:
64,192,17253,1,8,0:0:0:0:
320,192,17253,1,0,0:0:0:0:
448,192,17253,1,0,0:0:0:0:
192,192,17403,1,0,0:0:0:0:
64,192,17553,1,2,0:0:0:0:
448,192,17553,1,0,0:0:0:0:
320,192,17703,1,0,0:0:0:0:
64,192,17853,1,2,0:0:0:0:
192,192,17853,1,0,0:0:0:0:
192,192,18003,1,8,0:0:0:0:
320,192,18003,1,0,0:0:0:0:
448,192,18003,1,0,0:0:0:0:
64,192,18153,128,0,18303:0:0:0:0:
320,192,18303,1,2,0:0:0:0:
448,192,18303,128,0,18453:0:0:0:0:
64,192,18453,1,8,0:0:0:0:
192,192,18453,128,0,18903:0:0:0:0:
320,192,18453,1,0,0:0:0:0:
448,192,18603,1,0,0:0:0:0:
64,192,18753,1,0,0:0:0:0:
320,192,18903,1,2,0:0:0:0:
448,192,18903,1,0,0:0:0:0:
64,192,19053,1,0,0:0:0:0:
192,192,19203,1,8,0:0:0:0:
320,192,19203,1,0,0:0:0:0:
448,192,19203,1,0,0:0:0:0:
64,192,19353,1,0,0:0:0:0:
320,192,19503,1,2,0:0:0:0:
448,192,19503,1,0,0:0:0:0:
64,192,19653,1,8,0:0:0:0:
192,192,19653,1,0,0:0:0:0:
448,192,19653,1,0,0:0:0:0:
320,192,19803,1,0,0:0:0:0:
64,192,19953,1,2,0:0:0:0:
448,192,19953,1,0,0:0:0:0:
192,192,20103,1,0,0:0:0:0:
64,192,20253,1,2,0:0:0:0:
320,192,20253,1,0,0:0:0:0:
64,192,20403,1,8,0:0:0:0:
192,192,20403,1,0,0:0:0:0:
448,192,20403,1,0,0:0:0:0:
320,192,20553,128,0,20703:0:0:0:0:
64,192,20703,128,2,20853:0:0:0:0:
448,192,20703,1,0,0:0:0:0:
192,192,20853,1,8,0:0:0:0:
320,192,20853,1,0,0:0:0:0:
448,192,20853,128,0,21303:0:0:0:0:
64,192,21003,1,0,0:0:0:0:
320,192,21153,1,0,0:0:0:0:
64,192,21303,1,2,0:0:0:0:
192,192,21303,1,0,0:0:0:0:
192,192,21453,1,0,0:0:0:0:
64,192,21603,1,8,0:0:0:0:
320,192,21603,1,0,0:0:0:0:
448,192,21603,1,0,0:0:0:0:
192,192,21753,1,0,0:0:0:0:
64,192,21903,1,2,0:0:0:0:
448,192,21903,1,0,0:0:0:0:
64,192,22053,1,8,0:0:0:0:
192,192,22053,1,0,0:0:0:0:
320,192,22053,1,0,0:0:0:0:
320,192,22203,1,0,0:0:0:0:
64,192,22353,1,2,0:0:0:0:
192,192,22353,1,4,0:0:0:0:
448,192,22353,1,0,0:0:0:0:
192,192,23103,1,2,0:0:0:0:
320,192,23103,1,0,0:0:0:0:
320,192,23403,1,8,0:0:0:0:
448,192,23403,1,0,0:0:0:0:
64,192,23478,1,8,0:0:0:0:
192,192,23478,1,0,0:0:0:0:
320,192,23553,1,8,0:0:0:0:
448,192,23553,1,0,0:0:0:0:
64,192,23628,1,8,0:0:0:0:
192,192,23628,1,0,0:0:0:0:
448,192,23703,128,0,24003:0:0:0:0:
64,192,24003,1,8,0:0:0:0:
192,192,24003,1,4,0:0:0:0:
320,192,24003,1,0,0:0:0:0:
192,192,24303,1,2,0:0:0:0:
448,192,24303,1,0,0:0:0:0:
64,192,24453,1,8,0:0:0:0:
320,192,24453,1,0,0:0:0:0:
448,192,24453,1,0,0:0:0:0:
192,192,24603,1,0,0:0:0:0:
64,192,24753,1,2,0:0:0:0:
448,192,24753,1,0,0:0:0:0:
320,192,24903,1,0,0:0:0:0:
192,192,25053,1,2,0:0:0:0:
448,192,25053,1,0,0:0:0:0:
64,192,25203,1,8,0:0:0:0:
320,192,25203,1,0,0:0:0:0:
448,192,25203,1,0,0:0:0:0:
192,192,25353,128,0,25503:0:0:0:0:
320,192,25503,1,2,0:0:0:0:
448,192,25503,128,0,25653:0:0:0:0:
64,192,25653,128,8,26103:0:0:0:0:
192,192,25653,1,0,0:0:0:0:
320,192,25653,1,0,0:0:0:0:
448,192,25803,1,0,0:0:0:0:
320,192,25878,1,0,0:0:0:0:
192,192,25953,1,0,0:0:0:0:
448,192,26028,1,0,0:0:0:0:
192,192,26103,1,2,0:0:0:0:
320,192,26103,128,0,26703:0:0:0:0:
448,192,26253,1,0,0:0:0:0:
64,192,26403,1,8,0:0:0:0:
192,192,26403,1,0,0:0:0:0:
448,192,26403,1,0,0:0:0:0:
192,192,26553,1,0,0:0:0:0:
64,192,26703,1,2,0:0:0:0:
448,192,26703,1,0,0:0:0:0:
64,192,26853,1,8,0:0:0:0:
192,192,26853,1,0,0:0:0:0:
320,192,26853,1,0,0:0:0:0:
448,192,27003,1,0,0:0:0:0:
192,192,27153,1,2,0:0:0:0:
320,192,27153,1,0,0:0:0:0:
64,192,27303,1,0,0:0:0:0:
192,192,27453,1,2,0:0:0:0:
448,192,27453,1,0,0:0:0:0:
64,192,27603,1,8,0:0:0:0:
320,192,27603,1,0,0:0:0:0:
448,192,27603,1,0,0:0:0:0:
192,192,27753,1,0,0:0:0:0:
64,192,27903,1,2,0:0:0:0:
320,192,27903,1,0,0:0:0:0:
64,192,28053,1,8,0:0:0:0:
192,192,28053,1,0,0:0:0:0:
448,192,28053,1,0,0:0:0:0:
320,192,28203,1,0,0:0:0:0:
192,192,28353,1,0,0:0:0:0:
64,192,28503,128,2,28803:0:0:0:0:
320,192,28503,1,0,0:0:0:0:
192,192,28803,1,8,0:0:0:0:
320,192,28803,1,0,0:0:0:0:
448,192,28803,1,0,0:0:0:0:
64,192,28953,1,0,0:0:0:0:
192,192,29103,1,2,0:0:0:0:
448,192,29103,1,0,0:0:0:0:
64,192,29253,1,8,0:0:0:0:
320,192,29253,1,0,0:0:0:0:
448,192,29253,1,0,0:0:0:0:
192,192,29403,1,0,0:0:0:0:
64,192,29553,1,2,0:0:0:0:
448,192,29553,1,0,0:0:0:0:
320,192,29703,1,0,0:0:0:0:
64,192,29853,1,2,0:0:0:0:
192,192,29853,1,0,0:0:0:0:
192,192,30003,1,8,0:0:0:0:
320,192,30003,1,0,0:0:0:0:
448,192,30003,1,0,0:0:0:0:
64,192,30153,1,0,0:0:0:0:
320,192,30303,1,2,0:0:0:0:
448,192,30303,1,0,0:0:0:0:
64,192,30453,1,8,0:0:0:0:
192,192,30453,1,0,0:0:0:0:
448,192,30453,1,0,0:0:0:0:
320,192,30603,1,0,0:0:0:0:
448,192,30753,1,0,0:0:0:0:
64,192,30903,1,2,0:0:0:0:
192,192,30903,1,0,0:0:0:0:
320,192,31053,1,0,0:0:0:0:
64,192,31203,1,8,0:0:0:0:
192,192,31203,1,0,0:0:0:0:
448,192,31203,1,0,0:0:0:0:
320,192,31503,1,2,0:0:0:0:
448,192,31503,1,0,0:0:0:0:
64,192,31653,1,8,0:0:0:0:
192,192,31653,1,0,0:0:0:0:
320,192,31653,1,0,0:0:0:0:
448,192,31803,1,0,0:0:0:0:
64,192,31953,1,2,0:0:0:0:
320,192,31953,1,0,0:0:0:0:
192,192,32103,1,0,0:0:0:0:
64,192,32253,1,2,0:0:0:0:
320,192,32253,1,0,0:0:0:0:
64,192,32403,1,8,0:0:0:0:
192,192,32403,1,0,0:0:0:0:
448,192,32403,1,0,0:0:0:0:
192,192,32553,1,2,0:0:0:0:
320,192,32553,1,0,0:0:0:0:
64,192,32703,1,8,0:0:0:0:
320,192,32703,1,0,0:0:0:0:
448,192,32703,128,0,32853:0:0:0:0:
64,192,32853,1,2,0:0:0:0:
192,192,32853,128,0,33003:0:0:0:0:
320,192,33003,1,0,0:0:0:50:Tom2.wav
448,192,33003,128,0,33103:0:0:0:0:
64,192,33103,128,0,33203:0:0:0:0:
192,192,33153,128,0,33253:0:0:0:0:
320,192,33203,128,0,33303:0:0:0:0:
448,192,33253,128,0,33303:0:0:0:0:
64,192,33303,1,2,0:0:0:0:
192,192,33303,1,4,0:0:0:0:
64,192,33603,1,0,0:0:0:0:
64,192,33753,1,2,0:0:0:0:
192,192,33753,1,0,0:0:0:0:
192,192,33903,1,8,0:0:0:0:
320,192,33903,1,0,0:0:0:0:
448,192,33903,1,0,0:0:0:0:
320,192,34053,1,0,0:0:0:0:
64,192,34203,1,2,0:0:0:0:
192,192,34203,1,0,0:0:0:0:
320,192,34353,1,2,0:0:0:0:
448,192,34353,1,0,0:0:0:0:
192,192,34503,1,0,0:0:0:0:
64,192,34653,1,8,0:0:0:0:
320,192,34653,1,0,0:0:0:0:
448,192,34653,1,0,0:0:0:0:
192,192,34803,1,2,0:0:0:0:
320,192,34803,1,0,0:0:0:70:Splash.wav
64,192,34953,1,2,0:0:0:0:
448,192,34953,1,0,0:0:0:0:
192,192,35103,1,8,0:0:0:0:
320,192,35103,1,0,0:0:0:70:Splash.wav
448,192,35103,1,0,0:0:0:0:
64,192,35253,1,0,0:0:0:0:
64,192,35403,1,0,0:0:0:70:Splash.wav
320,192,35403,1,0,0:0:0:0:
448,192,35553,1,0,0:0:0:0:
64,192,35703,1,2,0:0:0:0:
192,192,35703,1,4,0:0:0:0:
448,192,35703,1,0,0:0:0:0:
320,192,36003,1,0,0:0:0:0:
192,192,36153,1,2,0:0:0:0:
320,192,36153,1,0,0:0:0:0:
64,192,36303,1,8,0:0:0:0:
192,192,36303,1,0,0:0:0:0:
448,192,36303,1,0,0:0:0:0:
320,192,36453,1,2,0:0:0:0:
448,192,36453,1,0,0:0:0:0:
64,192,36603,1,8,0:0:0:0:
192,192,36603,1,0,0:0:0:0:
320,192,36603,1,0,0:0:0:0:
64,192,36753,1,8,0:0:0:0:
192,192,36753,1,0,0:0:0:70:Splash.wav
448,192,36753,1,0,0:0:0:0:
64,192,37053,1,8,0:0:0:0:
320,192,37053,1,0,0:0:0:70:Splash.wav
448,192,37053,1,0,0:0:0:0:
64,192,37353,1,8,0:0:0:0:
192,192,37353,1,0,0:0:0:70:Splash.wav
320,192,37353,1,0,0:0:0:0:
64,192,37653,1,8,0:0:0:0:
320,192,37653,1,0,0:0:0:0:
448,192,37653,1,0,0:0:0:0:
64,192,37803,1,8,0:0:0:0:
320,192,37803,1,0,0:0:0:0:
448,192,37803,1,0,0:0:0:0:
64,192,37953,1,8,0:0:0:0:
320,192,37953,1,0,0:0:0:0:
448,192,37953,1,0,0:0:0:0:
64,192,38103,1,2,0:0:0:0:
192,192,38103,1,4,0:0:0:0:
448,192,38103,1,0,0:0:0:0:
320,192,38403,1,0,0:0:0:0:
320,192,38553,1,2,0:0:0:0:
448,192,38553,1,0,0:0:0:0:
64,192,38703,1,8,0:0:0:0:
192,192,38703,1,0,0:0:0:70:Splash.wav
448,192,38703,1,0,0:0:0:0:
64,192,38853,1,0,0:0:0:0:
320,192,39003,1,2,0:0:0:0:
448,192,39003,1,0,0:0:0:0:
64,192,39153,1,2,0:0:0:0:
192,192,39153,1,0,0:0:0:0:
320,192,39303,1,0,0:0:0:0:
64,192,39453,1,8,0:0:0:0:
192,192,39453,1,0,0:0:0:0:
448,192,39453,1,0,0:0:0:0:
192,192,39603,1,2,0:0:0:0:
320,192,39603,1,0,0:0:0:0:
320,192,39753,1,2,0:0:0:0:
448,192,39753,1,0,0:0:0:0:
64,192,39903,1,8,0:0:0:0:
192,192,39903,1,0,0:0:0:70:Splash.wav
448,192,39903,1,0,0:0:0:0:
320,192,40053,1,0,0:0:0:0:
192,192,40203,1,0,0:0:0:0:
320,192,40353,1,0,0:0:0:0:
64,192,40503,1,2,0:0:0:0:
448,192,40503,1,4,0:0:0:0:
192,192,40653,1,8,0:0:0:0:
320,192,40653,1,0,0:0:0:0:
448,192,40653,1,0,0:0:0:0:
64,192,40953,1,2,0:0:0:0:
192,192,40953,1,0,0:0:0:0:
64,192,41103,1,8,0:0:0:0:
320,192,41103,1,0,0:0:0:0:
448,192,41103,1,0,0:0:0:0:
192,192,41403,1,2,0:0:0:0:
320,192,41403,1,0,0:0:0:0:
64,192,41553,1,8,0:0:0:0:
320,192,41553,1,0,0:0:0:0:
448,192,41553,1,0,0:0:0:0:
192,192,41703,1,2,0:0:0:0:
448,192,41703,1,0,0:0:0:0:
64,192,41853,1,8,0:0:0:0:
192,192,41853,1,0,0:0:0:0:
320,192,41853,1,0,0:0:0:0:
64,192,42003,1,2,0:0:0:0:
448,192,42003,1,0,0:0:0:0:
320,192,42153,1,8,0:0:0:0:
64,192,42228,1,8,0:0:0:0:
192,192,42228,1,0,0:0:0:0:
320,192,42303,1,8,0:0:0:0:
448,192,42303,1,0,0:0:0:0:
192,192,42453,1,0,0:0:0:50:Tom2.wav
320,192,42453,1,0,0:0:0:0:
64,192,42603,1,0,0:0:0:50:Tom3.wav
192,192,42603,1,0,0:0:0:0:
320,192,42753,1,0,0:0:0:50:Tom3.wav
448,192,42753,1,0,0:0:0:0:
64,192,42903,128,2,43203:0:0:0:0:
192,192,42903,1,4,0:0:0:0:
448,192,42903,1,0,0:0:0:0:
320,192,43203,1,0,0:0:0:0:
448,192,43353,128,0,43803:0:0:0:0:
192,192,43803,128,0,43953:0:0:0:0:
320,192,43953,128,0,44103:0:0:0:0:
448,192,44103,128,0,44703:0:0:0:0:
192,192,44403,1,0,0:0:0:0:
320,192,44553,1,0,0:0:0:0:
192,192,44628,1,0,0:0:0:0:
64,192,44703,128,0,45003:0:0:0:0:
320,192,44853,128,0,45003:0:0:0:0:
192,192,45003,128,0,45303:0:0:0:0:
448,192,45153,128,0,45303:0:0:0:0:
64,192,45303,128,0,46503:0:0:0:0:
320,192,45303,1,0,0:0:0:0:
320,192,45603,128,0,45753:0:0:0:0:
448,192,45753,128,0,46503:0:0:0:0:
320,192,46203,128,0,46503:0:0:0:0:
192,192,46503,128,0,47103:0:0:0:0:
320,192,47103,1,8,0:0:0:0:
448,192,47103,1,0,0:0:0:0:
64,192,47203,1,8,0:0:0:0:
192,192,47203,1,0,0:0:0:0:
320,192,47303,1,0,0:0:0:50:Tom2.wav
448,192,47303,1,0,0:0:0:0:
192,192,47403,1,0,0:0:0:50:Tom2.wav
320,192,47403,1,0,0:0:0:0:
64,192,47503,1,0,0:0:0:50:Tom3.wav
192,192,47503,1,0,0:0:0:0:
320,192,47603,1,0,0:0:0:50:Tom3.wav
448,192,47603,1,0,0:0:0:0:
64,192,47703,1,2,0:0:0:0:
192,192,47703,1,4,0:0:0:0:
448,192,47703,1,0,0:0:0:0:
320,192,48003,1,0,0:0:0:0:
64,192,48153,1,2,0:0:0:0:
192,192,48153,1,0,0:0:0:0:
64,192,48303,1,8,0:0:0:0:
320,192,48303,1,4,0:0:0:0:
448,192,48303,1,0,0:0:0:0:
192,192,48603,1,0,0:0:0:0:
64,192,48903,1,2,0:0:0:0:
320,192,48903,1,0,0:0:0:0:
192,192,49053,1,8,0:0:0:0:
320,192,49053,1,0,0:0:0:0:
448,192,49053,1,0,0:0:0:0:
64,192,49203,1,2,0:0:0:0:
448,192,49203,1,0,0:0:0:0:
320,192,49353,1,0,0:0:0:0:
64,192,49503,1,8,0:0:0:0:
192,192,49503,1,0,0:0:0:0:
448,192,49503,1,0,0:0:0:0:
320,192,49653,1,2,0:0:0:0:
448,192,49653,1,0,0:0:0:0:
64,192,49803,1,8,0:0:0:0:
192,192,49803,1,0,0:0:0:0:
320,192,49803,1,0,0:0:0:0:
192,192,49953,1,0,0:0:0:0:
64,192,50103,1,2,0:0:0:0:
320,192,50103,1,4,0:0:0:0:
448,192,50103,1,0,0:0:0:0:
192,192,50403,1,0,0:0:0:0:
320,192,50553,1,2,0:0:0:0:
448,192,50553,1,0,0:0:0:0:
64,192,50703,1,8,0:0:0:0:
192,192,50703,1,0,0:0:0:0:
448,192,50703,1,0,0:0:0:0:
320,192,51003,1,2,0:0:0:0:
448,192,51003,1,0,0:0:0:0:
320,192,51153,1,2,0:0:0:0:
448,192,51153,1,0,0:0:0:0:
192,192,51303,1,0,0:0:0:0:
64,192,51453,1,8,0:0:0:0:
320,192,51453,1,0,0:0:0:0:
448,192,51453,1,0,0:0:0:0:
192,192,51603,1,2,0:0:0:0:
320,192,51603,1,0,0:0:0:0:
192,192,51753,1,2,0:0:0:0:
320,192,51753,1,0,0:0:0:0:
64,192,51903,1,8,0:0:0:0:
192,192,51903,1,0,0:0:0:0:
448,192,51903,1,0,0:0:0:0:
64,192,52053,1,2,0:0:0:0:
320,192,52053,1,0,0:0:0:0:
192,192,52203,1,8,0:0:0:0:
320,192,52203,1,0,0:0:0:70:Splash.wav
448,192,52203,1,0,0:0:0:0:
64,192,52353,1,0,0:0:0:0:
64,192,52503,1,0,0:0:0:0:
448,192,52503,1,0,0:0:0:0:
192,192,52653,1,0,0:0:0:0:
320,192,52803,1,0,0:0:0:0:
448,192,52953,1,0,0:0:0:0:
192,192,53103,1,0,0:0:0:0:
320,192,53253,1,0,0:0:0:0:
64,192,53403,1,0,0:0:0:0:
192,192,53553,1,0,0:0:0:0:
448,192,53703,1,0,0:0:0:0:
64,192,53853,1,0,0:0:0:0:
192,192,54003,1,0,0:0:0:0:
320,192,54153,1,0,0:0:0:0:
448,192,54303,1,0,0:0:0:0:
192,192,54453,1,0,0:0:0:0:
64,192,54603,1,8,0:0:0:0:
448,192,54603,1,0,0:0:0:0:
192,192,54678,1,0,0:0:0:50:Tom2.wav
320,192,54678,1,0,0:0:0:0:
64,192,54753,1,0,0:0:0:50:Tom3.wav
448,192,54753,1,0,0:0:0:0:
320,192,54828,1,2,0:0:0:0:
64,192,54903,1,8,0:0:0:0:
192,192,54903,1,4,0:0:0:0:
448,192,54903,1,0,0:0:0:0:
192,192,55053,1,2,0:0:0:0:
320,192,55053,1,0,0:0:0:0:
64,192,55203,1,2,0:0:0:0:
192,192,55203,1,0,0:0:0:0:
64,192,55353,1,8,0:0:0:0:
320,192,55353,1,4,0:0:0:0:
448,192,55353,1,0,0:0:0:0:
192,192,55503,1,2,0:0:0:0:
448,192,55503,1,0,0:0:0:0:
320,192,55653,1,2,0:0:0:0:
448,192,55653,1,0,0:0:0:0:
64,192,55803,1,8,0:0:0:0:
192,192,55803,1,0,0:0:0:0:
320,192,55803,1,0,0:0:0:0:
64,192,55953,1,2,0:0:0:0:
192,192,55953,1,4,0:0:0:0:
448,192,55953,1,0,0:0:0:0:
192,192,56253,1,8,0:0:0:0:
320,192,56253,1,0,0:0:0:0:
448,192,56253,1,0,0:0:0:0:
64,192,56403,1,8,0:0:0:0:
192,192,56403,1,0,0:0:0:0:
320,192,56403,1,0,0:0:0:0:
64,192,56703,1,8,0:0:0:0:
320,192,56703,1,0,0:0:0:0:
448,192,56703,1,0,0:0:0:0:
64,192,57303,128,2,57603:0:0:0:0:
192,192,57303,1,4,0:0:0:0:
448,192,57303,1,0,0:0:0:0:
192,192,57603,1,8,0:0:0:0:
320,192,57603,1,0,0:0:0:0:
448,192,57603,128,0,57903:0:0:0:0:
64,192,57753,1,0,0:0:0:0:
192,192,57903,1,2,0:0:0:0:
320,192,57903,1,0,0:0:0:0:
64,192,58053,1,2,0:0:0:0:
448,192,58053,1,0,0:0:0:0:
64,192,58203,1,8,0:0:0:0:
192,192,58203,1,0,0:0:0:0:
320,192,58203,1,0,0:0:0:0:
192,192,58353,1,2,0:0:0:0:
320,192,58353,1,4,0:0:0:0:
448,192,58353,128,0,58503:0:0:0:0:
64,192,58653,1,2,0:0:0:0:
320,192,58653,128,0,58803:0:0:0:0:
64,192,58803,1,8,0:0:0:0:
192,192,58803,1,0,0:0:0:0:
448,192,58803,1,0,0:0:0:0:
192,192,58953,128,0,59103:0:0:0:0:
320,192,59103,1,2,0:0:0:0:
448,192,59103,1,0,0:0:0:0:
64,192,59253,1,2,0:0:0:0:
192,192,59253,1,0,0:0:0:0:
64,192,59403,1,8,0:0:0:0:
320,192,59403,1,0,0:0:0:0:
448,192,59403,1,0,0:0:0:0:
320,192,59553,1,0,0:0:0:0:
64,192,59703,1,2,0:0:0:0:
192,192,59703,1,4,0:0:0:0:
448,192,59703,1,0,0:0:0:0:
192,192,59853,1,0,0:0:0:0:
64,192,60003,1,8,0:0:0:0:
320,192,60003,1,0,0:0:0:0:
448,192,60003,1,0,0:0:0:0:
192,192,60153,1,0,0:0:0:0:
320,192,60303,1,2,0:0:0:0:
448,192,60303,1,0,0:0:0:0:
192,192,60453,1,2,0:0:0:0:
320,192,60453,1,0,0:0:0:0:
64,192,60603,1,8,0:0:0:0:
192,192,60603,1,0,0:0:0:0:
448,192,60603,1,0,0:0:0:0:
64,192,60753,1,2,0:0:0:0:
320,192,60753,1,4,0:0:0:0:
448,192,60753,128,0,60903:0:0:0:0:
192,192,61053,1,2,0:0:0:0:
320,192,61053,128,0,61203:0:0:0:0:
64,192,61203,1,8,0:0:0:0:
192,192,61203,1,0,0:0:0:0:
448,192,61203,1,0,0:0:0:0:
192,192,61353,128,2,61503:0:0:0:0:
320,192,61353,1,0,0:0:0:0:
64,192,61503,1,8,0:0:0:0:
320,192,61503,1,0,0:0:0:0:
448,192,61503,1,0,0:0:0:0:
192,192,61653,1,2,0:0:0:0:
448,192,61653,1,0,0:0:0:0:
64,192,61803,1,8,0:0:0:0:
192,192,61803,1,0,0:0:0:0:
320,192,61803,1,0,0:0:0:0:
320,192,61953,1,0,0:0:0:0:
64,192,62103,1,2,0:0:0:0:
192,192,62103,1,4,0:0:0:0:
448,192,62103,1,0,0:0:0:0:
64,192,62403,1,8,0:0:0:0:
320,192,62403,1,0,0:0:0:0:
448,192,62403,1,0,0:0:0:0:
192,192,62553,1,0,0:0:0:0:
64,192,62703,1,2,0:0:0:0:
320,192,62703,1,0,0:0:0:0:
192,192,62853,1,2,0:0:0:0:
448,192,62853,1,0,0:0:0:0:
64,192,63003,1,8,0:0:0:0:
320,192,63003,1,0,0:0:0:0:
448,192,63003,1,0,0:0:0:0:
64,192,63153,1,2,0:0:0:0:
192,192,63153,128,4,63303:0:0:0:0:
320,192,63153,1,0,0:0:0:0:
320,192,63453,1,2,0:0:0:0:
448,192,63453,128,0,63603:0:0:0:0:
64,192,63603,1,8,0:0:0:0:
192,192,63603,1,0,0:0:0:0:
320,192,63603,1,0,0:0:0:0:
192,192,63753,128,0,63903:0:0:0:0:
320,192,63903,1,2,0:0:0:0:
448,192,63903,1,0,0:0:0:0:
64,192,64053,1,2,0:0:0:0:
192,192,64053,1,0,0:0:0:0:
64,192,64203,1,8,0:0:0:0:
320,192,64203,1,0,0:0:0:0:
448,192,64203,1,0,0:0:0:0:
320,192,64353,1,0,0:0:0:0:
64,192,64503,1,2,0:0:0:0:
192,192,64503,1,4,0:0:0:0:
448,192,64503,1,0,0:0:0:0:
64,192,64803,1,8,0:0:0:0:
320,192,64803,1,0,0:0:0:0:
448,192,64803,1,0,0:0:0:0:
192,192,64953,1,0,0:0:0:0:
64,192,65103,1,2,0:0:0:0:
448,192,65103,1,0,0:0:0:0:
192,192,65253,1,2,0:0:0:0:
320,192,65253,1,0,0:0:0:0:
64,192,65403,1,8,0:0:0:0:
192,192,65403,1,0,0:0:0:0:
448,192,65403,1,0,0:0:0:0:
64,192,65553,1,2,0:0:0:0:
320,192,65553,1,4,0:0:0:0:
448,192,65553,1,0,0:0:0:0:
192,192,65853,1,2,0:0:0:0:
448,192,65853,1,0,0:0:0:0:
64,192,66003,1,8,0:0:0:0:
192,192,66003,1,0,0:0:0:0:
320,192,66003,1,0,0:0:0:0:
64,192,66153,1,2,0:0:0:0:
448,192,66153,1,0,0:0:0:0:
192,192,66303,1,8,0:0:0:0:
320,192,66303,1,0,0:0:0:0:
448,192,66303,1,0,0:0:0:0:
64,192,66453,1,8,0:0:0:0:
192,192,66453,1,0,0:0:0:0:
320,192,66528,1,8,0:0:0:0:
448,192,66528,1,0,0:0:0:0:
64,192,66603,1,8,0:0:0:0:
192,192,66603,1,2,0:0:0:0:
320,192,66678,1,8,0:0:0:0:
448,192,66678,1,0,0:0:0:0:
64,192,66753,1,8,0:0:0:0:
192,192,66753,1,0,0:0:0:0:
320,192,66828,1,8,0:0:0:0:
64,192,66903,1,2,0:0:0:0:
192,192,66903,1,4,0:0:0:0:
448,192,66903,1,0,0:0:0:0:
192,192,67053,1,0,0:0:0:0:
64,192,67203,1,8,0:0:0:0:
320,192,67203,1,0,0:0:0:0:
448,192,67203,1,0,0:0:0:0:
320,192,67353,1,0,0:0:0:0:
192,192,67503,1,2,0:0:0:0:
448,192,67503,1,0,0:0:0:0:
192,192,67653,1,2,0:0:0:0:
320,192,67653,1,0,0:0:0:0:
64,192,67803,1,8,0:0:0:0:
320,192,67803,1,0,0:0:0:0:
448,192,67803,1,0,0:0:0:0:
64,192,67953,1,2,0:0:0:0:
192,192,67953,128,4,68103:0:0:0:0:
448,192,67953,1,0,0:0:0:0:
64,192,68253,1,2,0:0:0:0:
448,192,68253,128,0,68403:0:0:0:0:
64,192,68403,1,8,0:0:0:0:
192,192,68403,1,0,0:0:0:0:
320,192,68403,1,0,0:0:0:0:
320,192,68553,128,0,68703:0:0:0:0:
192,192,68703,1,2,0:0:0:0:
448,192,68703,1,0,0:0:0:0:
64,192,68853,1,2,0:0:0:0:
320,192,68853,1,0,0:0:0:0:
64,192,69003,1,8,0:0:0:0:
192,192,69003,1,0,0:0:0:0:
448,192,69003,1,0,0:0:0:0:
192,192,69153,1,0,0:0:0:0:
64,192,69303,1,2,0:0:0:0:
320,192,69303,1,4,0:0:0:0:
448,192,69303,1,0,0:0:0:0:
320,192,69453,1,0,0:0:0:0:
64,192,69603,1,8,0:0:0:0:
192,192,69603,1,0,0:0:0:0:
448,192,69603,1,0,0:0:0:0:
448,192,69753,1,0,0:0:0:0:
64,192,69903,1,2,0:0:0:0:
192,192,69903,1,0,0:0:0:0:
192,192,70053,1,2,0:0:0:0:
320,192,70053,1,0,0:0:0:0:
64,192,70203,1,8,0:0:0:0:
320,192,70203,1,0,0:0:0:0:
448,192,70203,1,0,0:0:0:0:
64,192,70353,1,2,0:0:0:0:
192,192,70353,128,4,70503:0:0:0:0:
448,192,70353,1,0,0:0:0:0:
64,192,70653,1,2,0:0:0:0:
448,192,70653,128,0,70803:0:0:0:0:
64,192,70803,1,8,0:0:0:0:
192,192,70803,1,0,0:0:0:0:
320,192,70803,1,0,0:0:0:0:
320,192,70953,128,0,71103:0:0:0:0:
64,192,71103,1,2,0:0:0:0:
192,192,71103,1,0,0:0:0:0:
192,192,71253,1,2,0:0:0:0:
320,192,71253,1,0,0:0:0:0:
64,192,71403,1,8,0:0:0:0:
320,192,71403,1,4,0:0:0:0:
448,192,71403,1,0,0:0:0:0:
192,192,71553,1,0,0:0:0:0:
64,192,71703,1,2,0:0:0:0:
320,192,71703,1,4,0:0:0:0:
448,192,71703,128,0,72003:0:0:0:0:
64,192,72003,1,8,0:0:0:0:
192,192,72003,1,0,0:0:0:0:
320,192,72153,1,0,0:0:0:0:
64,192,72303,1,2,0:0:0:0:
448,192,72303,1,0,0:0:0:0:
192,192,72453,1,2,0:0:0:0:
320,192,72453,1,0,0:0:0:0:
64,192,72603,1,8,0:0:0:0:
320,192,72603,1,0,0:0:0:0:
448,192,72603,1,0,0:0:0:0:
64,192,72753,1,2,0:0:0:0:
192,192,72753,1,4,0:0:0:0:
448,192,72753,128,0,72903:0:0:0:0:
64,192,73053,128,2,73203:0:0:0:0:
320,192,73053,1,0,0:0:0:0:
192,192,73203,1,8,0:0:0:0:
320,192,73203,1,0,0:0:0:0:
448,192,73203,1,0,0:0:0:0:
192,192,73353,128,0,73503:0:0:0:0:
320,192,73503,1,2,0:0:0:0:
448,192,73503,1,0,0:0:0:0:
64,192,73653,1,2,0:0:0:0:
192,192,73653,1,0,0:0:0:0:
64,192,73803,1,8,0:0:0:0:
320,192,73803,1,0,0:0:0:0:
448,192,73803,1,0,0:0:0:0:
320,192,73953,1,0,0:0:0:0:
64,192,74103,1,2,0:0:0:0:
192,192,74103,1,4,0:0:0:0:
448,192,74103,1,0,0:0:0:0:
64,192,74403,1,8,0:0:0:0:
320,192,74403,1,0,0:0:0:0:
448,192,74403,1,0,0:0:0:0:
192,192,74553,1,0,0:0:0:0:
64,192,74703,1,2,0:0:0:0:
448,192,74703,1,0,0:0:0:0:
192,192,74853,1,2,0:0:0:0:
320,192,74853,1,0,0:0:0:0:
64,192,75003,1,8,0:0:0:0:
192,192,75003,1,0,0:0:0:0:
448,192,75003,1,0,0:0:0:0:
64,192,75153,1,2,0:0:0:0:
320,192,75153,128,4,75303:0:0:0:0:
448,192,75153,1,0,0:0:0:0:
192,192,75453,1,2,0:0:0:0:
448,192,75453,128,0,75603:0:0:0:0:
64,192,75603,1,8,0:0:0:0:
192,192,75603,1,0,0:0:0:0:
320,192,75603,1,0,0:0:0:0:
64,192,75753,128,2,75903:0:0:0:0:
320,192,75753,1,4,0:0:0:0:
448,192,75753,1,0,0:0:0:0:
64,192,76053,1,2,0:0:0:0:
320,192,76053,1,0,0:0:0:0:
192,192,76203,1,0,0:0:0:55:Tom3.wav
448,192,76203,1,0,0:0:0:0:
320,192,76353,1,0,0:0:0:0:
64,192,76503,1,2,0:0:0:0:
192,192,76503,1,4,0:0:0:0:
448,192,76503,128,0,76803:0:0:0:0:
64,192,76803,1,8,0:0:0:0:
192,192,76803,1,0,0:0:0:0:
320,192,76803,1,0,0:0:0:0:
192,192,76953,1,2,0:0:0:0:
448,192,76953,1,0,0:0:0:0:
320,192,77103,1,0,0:0:0:0:
64,192,77253,1,2,0:0:0:0:
192,192,77253,1,0,0:0:0:0:
64,192,77403,1,8,0:0:0:0:
320,192,77403,1,0,0:0:0:0:
448,192,77403,128,0,77703:0:0:0:0:
64,192,77703,1,2,0:0:0:0:
192,192,77703,1,0,0:0:0:0:
320,192,77853,1,2,0:0:0:0:
448,192,77853,1,0,0:0:0:0:
64,192,78003,1,8,0:0:0:0:
192,192,78003,1,0,0:0:0:0:
320,192,78003,1,0,0:0:0:0:
192,192,78153,1,2,0:0:0:0:
448,192,78153,1,0,0:0:0:0:
64,192,78303,1,0,0:0:0:0:
320,192,78453,1,2,0:0:0:0:
448,192,78453,1,0,0:0:0:0:
64,192,78603,1,8,0:0:0:0:
192,192,78603,1,0,0:0:0:0:
320,192,78603,1,0,0:0:0:0:
448,192,78753,1,0,0:0:0:0:
192,192,78903,128,2,79203:0:0:0:0:
320,192,78903,1,0,0:0:0:0:
64,192,79053,1,2,0:0:0:0:
448,192,79053,1,0,0:0:0:0:
64,192,79203,1,8,0:0:0:0:
320,192,79203,1,0,0:0:0:0:
448,192,79203,1,0,0:0:0:0:
192,192,79353,1,2,0:0:0:0:
448,192,79353,1,0,0:0:0:0:
320,192,79503,128,0,79653:0:0:0:0:
64,192,79653,1,2,0:0:0:0:
448,192,79653,1,0,0:0:0:0:
64,192,79803,128,8,80253:0:0:0:0:
192,192,79803,1,4,0:0:0:0:
320,192,79803,1,0,0:0:0:0:
448,192,80103,1,0,0:0:0:0:
192,192,80253,1,2,0:0:0:0:
320,192,80253,1,0,0:0:0:0:
64,192,80403,1,8,0:0:0:0:
192,192,80403,1,0,0:0:0:0:
448,192,80403,1,0,0:0:0:0:
64,192,80553,1,2,0:0:0:0:
320,192,80553,1,0,0:0:0:0:
192,192,80703,1,8,0:0:0:0:
320,192,80703,1,0,0:0:0:0:
448,192,80703,1,0,0:0:0:0:
64,192,80853,1,2,0:0:0:0:
192,192,80853,1,0,0:0:0:0:
64,192,81003,1,8,0:0:0:0:
320,192,81003,1,4,0:0:0:0:
448,192,81003,128,0,81303:0:0:0:0:
192,192,81153,1,0,0:0:0:0:
64,192,81303,1,2,0:0:0:0:
192,192,81303,1,4,0:0:0:0:
320,192,81303,1,0,0:0:0:0:
320,192,81453,1,0,0:0:0:0:
64,192,81603,1,8,0:0:0:0:
192,192,81603,1,0,0:0:0:0:
448,192,81603,1,0,0:0:0:0:
64,192,81753,1,0,0:0:0:0:
320,192,81903,1,2,0:0:0:0:
448,192,81903,1,0,0:0:0:0:
64,192,82053,1,2,0:0:0:0:
192,192,82053,1,0,0:0:0:0:
64,192,82203,1,8,0:0:0:0:
320,192,82203,1,0,0:0:0:0:
448,192,82203,1,0,0:0:0:0:
192,192,82353,1,2,0:0:0:0:
320,192,82353,1,4,0:0:0:0:
448,192,82353,128,0,82653:0:0:0:0:
64,192,82653,1,2,0:0:0:0:
192,192,82653,1,0,0:0:0:0:
64,192,82803,1,8,0:0:0:0:
320,192,82803,1,0,0:0:0:0:
448,192,82803,1,0,0:0:0:0:
320,192,82953,1,0,0:0:0:0:
64,192,83103,1,2,0:0:0:0:
192,192,83103,1,0,0:0:0:55:Tom2.wav
64,192,83253,1,8,0:0:0:0:
448,192,83253,1,0,0:0:0:0:
192,192,83328,1,8,0:0:0:0:
320,192,83328,1,0,0:0:0:0:
64,192,83403,1,8,0:0:0:0:
448,192,83403,1,2,0:0:0:0:
192,192,83478,1,8,0:0:0:0:
320,192,83478,1,0,0:0:0:0:
64,192,83553,1,8,0:0:0:0:
448,192,83553,1,0,0:0:0:0:
320,192,83628,1,8,0:0:0:0:
64,192,83703,128,2,84303:0:0:0:0:
192,192,83703,1,4,0:0:0:0:
448,192,83703,128,0,84003:0:0:0:0:
320,192,83853,128,0,84003:0:0:0:0:
192,192,84003,128,8,84303:0:0:0:0:
448,192,84153,128,0,84303:0:0:0:0:
320,192,84303,128,6,84753:0:0:0:0:
64,192,84453,1,2,0:0:0:0:
192,192,84453,1,0,0:0:0:0:
64,192,84603,1,8,0:0:0:0:
192,192,84603,1,0,0:0:0:0:
448,192,84603,128,0,84753:0:0:0:0:
64,192,84753,128,2,85503:0:0:0:0:
192,192,84753,1,4,0:0:0:0:
320,192,85053,1,2,0:0:0:0:
448,192,85053,1,0,0:0:0:0:
192,192,85203,1,8,0:0:0:0:
320,192,85203,1,0,0:0:0:0:
448,192,85203,1,0,0:0:0:0:
192,192,85353,1,8,0:0:0:0:
320,192,85428,1,8,0:0:0:0:
192,192,85503,1,8,0:0:0:0:
448,192,85503,1,0,0:0:0:0:
448,192,85603,1,8,0:0:0:0:
320,192,85603,1,0,0:0:0:0:
64,192,85703,1,0,0:0:0:50:Tom2.wav
192,192,85703,1,0,0:0:0:0:
320,192,85803,1,0,0:0:0:50:Tom2.wav
192,192,85803,1,0,0:0:0:0:
448,192,85903,1,0,0:0:0:50:Tom3.wav
320,192,85903,1,0,0:0:0:0:
192,192,86003,1,0,0:0:0:50:Tom3.wav
64,192,86003,1,0,0:0:0:0:
64,192,86103,1,2,0:0:0:0:
448,192,86103,1,4,0:0:0:0:
320,192,86103,1,0,0:0:0:0:
448,192,86253,1,0,0:0:0:0:
64,192,86403,1,0,0:0:0:0:
64,192,86553,1,2,0:0:0:0:
320,192,86553,1,0,0:0:0:0:
192,192,86703,1,8,0:0:0:0:
320,192,86703,1,4,0:0:0:0:
448,192,86703,1,0,0:0:0:0:
64,192,86853,1,0,0:0:0:0:
320,192,87003,1,2,0:0:0:0:
448,192,87003,1,0,0:0:0:0:
64,192,87153,1,2,0:0:0:0:
192,192,87153,128,0,87453:0:0:0:0:
320,192,87303,1,0,0:0:0:0:
64,192,87453,1,8,0:0:0:0:
320,192,87453,1,0,0:0:0:0:
448,192,87453,1,0,0:0:0:0:
192,192,87603,1,2,0:0:0:0:
448,192,87603,1,0,0:0:0:0:
64,192,87753,1,2,0:0:0:0:
320,192,87753,1,0,0:0:0:0:
64,192,87903,1,8,0:0:0:0:
192,192,87903,1,0,0:0:0:0:
448,192,87903,1,0,0:0:0:0:
192,192,88053,1,2,0:0:0:0:
320,192,88053,1,0,0:0:0:0:
64,192,88203,1,8,0:0:0:0:
320,192,88203,1,4,0:0:0:0:
448,192,88203,1,0,0:0:0:0:
448,192,88353,1,0,0:0:0:0:
64,192,88503,1,2,0:0:0:0:
192,192,88503,1,4,0:0:0:0:
320,192,88503,1,0,0:0:0:0:
192,192,88653,1,2,0:0:0:0:
448,192,88653,1,0,0:0:0:0:
64,192,88803,1,8,0:0:0:0:
320,192,88803,1,4,0:0:0:0:
448,192,88803,1,0,0:0:0:0:
192,192,88953,1,2,0:0:0:0:
320,192,88953,1,0,0:0:0:0:
64,192,89103,1,8,0:0:0:0:
192,192,89103,1,0,0:0:0:0:
448,192,89103,1,0,0:0:0:0:
64,192,89253,1,2,0:0:0:0:
320,192,89253,1,0,0:0:0:0:
192,192,89403,1,8,0:0:0:0:
320,192,89403,1,0,0:0:0:0:
448,192,89403,1,0,0:0:0:0:
64,192,89553,1,2,0:0:0:0:
192,192,89553,1,4,0:0:0:0:
448,192,89553,1,0,0:0:0:0:
64,192,90903,128,0,93003:0:0:0:0:
192,192,91053,128,0,91203:0:0:0:0:
320,192,91203,128,0,91353:0:0:0:0:
448,192,91353,128,0,91653:0:0:0:0:
192,192,91653,128,0,91953:0:0:0:0:
320,192,91803,128,0,91953:0:0:0:0:
448,192,91953,128,0,92253:0:0:0:0:
192,192,92103,128,0,93003:0:0:0:0:
320,192,92253,1,0,0:0:0:0:
448,192,92403,1,0,0:0:0:0:
320,192,92553,1,0,0:0:0:0:
448,192,92703,1,0,0:0:0:0:
320,192,92853,1,0,0:0:0:0:
320,192,93003,1,0,0:0:0:50:Tom2.wav
448,192,93003,1,0,0:0:0:50:Tom3.wav
192,192,93078,1,0,0:0:0:0:
448,192,93153,1,0,0:0:0:0:
64,192,93228,1,0,0:0:0:0:
192,192,93303,1,2,0:0:0:0:
320,192,93303,1,4,0:0:0:0:
448,192,93303,1,0,0:0:0:0:
192,192,93453,1,0,0:0:0:0:
64,192,93603,128,8,93753:0:0:0:0:
320,192,93603,1,0,0:0:0:0:
448,192,93603,128,0,93753:0:0:0:0:
192,192,93903,1,2,0:0:0:0:
448,192,93903,128,0,94053:0:0:0:0:
64,192,94053,128,8,94203:0:0:0:0:
192,192,94053,1,0,0:0:0:0:
320,192,94053,1,0,0:0:0:0:
320,192,94203,1,0,0:0:0:0:
64,192,94353,128,2,94503:0:0:0:0:
192,192,94353,1,4,0:0:0:0:
448,192,94353,128,0,94503:0:0:0:0:
192,192,94653,128,2,94803:0:0:0:0:
320,192,94653,128,0,94803:0:0:0:0:
64,192,94803,1,8,0:0:0:0:
448,192,94803,1,0,0:0:0:0:
448,192,94953,128,0,95103:0:0:0:0:
192,192,95103,128,2,95253:0:0:0:0:
320,192,95103,1,0,0:0:0:0:
64,192,95253,1,8,0:0:0:0:
320,192,95253,128,0,95403:0:0:0:0:
448,192,95253,1,0,0:0:0:0:
64,192,95403,128,0,95703:0:0:0:0:
448,192,95553,128,0,95703:0:0:0:0:
192,192,95703,1,2,0:0:0:0:
320,192,95703,1,4,0:0:0:0:
192,192,95853,1,0,0:0:0:0:
64,192,96003,128,8,96153:0:0:0:0:
320,192,96003,1,0,0:0:0:0:
448,192,96003,128,0,96153:0:0:0:0:
192,192,96303,128,2,96453:0:0:0:0:
320,192,96303,1,0,0:0:0:0:
64,192,96453,1,8,0:0:0:0:
320,192,96453,1,0,0:0:0:0:
448,192,96453,128,0,96603:0:0:0:0:
64,192,96603,1,0,0:0:0:0:
192,192,96753,128,2,96903:0:0:0:0:
320,192,96753,128,4,96903:0:0:0:0:
448,192,96753,1,0,0:0:0:0:
64,192,97053,1,2,0:0:0:0:
448,192,97053,128,0,97203:0:0:0:0:
64,192,97203,1,8,0:0:0:0:
192,192,97203,1,0,0:0:0:0:
320,192,97203,1,0,0:0:0:0:
320,192,97353,128,0,97503:0:0:0:0:
64,192,97503,128,2,97653:0:0:0:0:
448,192,97503,1,0,0:0:0:0:
192,192,97653,1,8,0:0:0:0:
320,192,97653,1,0,0:0:0:0:
448,192,97653,128,0,97803:0:0:0:0:
192,192,97803,128,0,98103:0:0:0:0:
320,192,97953,128,0,98103:0:0:0:0:
64,192,98103,1,2,0:0:0:0:
448,192,98103,1,4,0:0:0:0:
64,192,98253,1,0,0:0:0:0:
192,192,98403,1,8,0:0:0:0:
320,192,98403,128,0,98553:0:0:0:0:
448,192,98403,128,0,98553:0:0:0:0:
64,192,98703,128,2,98853:0:0:0:0:
448,192,98703,1,0,0:0:0:0:
192,192,98853,1,8,0:0:0:0:
320,192,98853,128,0,99003:0:0:0:0:
448,192,98853,1,0,0:0:0:0:
64,192,99003,1,0,0:0:0:0:
64,192,99153,1,2,0:0:0:0:
192,192,99153,128,4,99303:0:0:0:0:
448,192,99153,128,0,99303:0:0:0:0:
320,192,99453,1,2,0:0:0:0:
448,192,99453,128,0,99603:0:0:0:0:
64,192,99603,1,8,0:0:0:0:
192,192,99603,1,0,0:0:0:0:
320,192,99603,1,0,0:0:0:0:
192,192,99753,128,0,99903:0:0:0:0:
64,192,99903,1,2,0:0:0:0:
320,192,99903,128,0,100053:0:0:0:0:
64,192,100053,1,8,0:0:0:0:
192,192,100053,128,0,100203:0:0:0:0:
448,192,100053,1,0,0:0:0:0:
448,192,100203,128,0,100503:0:0:0:0:
64,192,100503,1,2,0:0:0:0:
192,192,100503,1,4,0:0:0:0:
320,192,100503,1,0,0:0:0:0:
64,192,100653,1,0,0:0:0:0:
192,192,100803,128,8,100953:0:0:0:0:
320,192,100803,1,0,0:0:0:0:
448,192,100803,128,0,100953:0:0:0:0:
64,192,100953,1,8,0:0:0:0:
192,192,101028,1,8,0:0:0:0:
320,192,101103,128,8,101253:0:0:0:0:
448,192,101103,128,0,101253:0:0:0:0:
64,192,101253,1,0,0:0:0:50:Tom2.wav
192,192,101253,1,0,0:0:0:0:
192,192,101403,1,0,0:0:0:50:Tom3.wav
320,192,101403,1,0,0:0:0:0:
64,192,101553,128,2,106503:0:0:0:0:
320,192,101553,128,4,106503:0:0:0:0:
448,192,101553,128,0,106503:0:0:0:0:
