osu file format v14

[General]
AudioFilename: audio.mp3
AudioLeadIn: 0
PreviewTime: 52756
Countdown: 0
SampleSet: Soft
StackLeniency: 0.7
Mode: 0
LetterboxInBreaks: 0
WidescreenStoryboard: 1

[Editor]
Bookmarks: 66684
DistanceSpacing: 1.1
BeatDivisor: 8
GridSize: 32
TimelineZoom: 2.2

[Metadata]
Title:Missing Promise (TV Size)
TitleUnicode:Missing Promise (TV Size)
Artist:Suzuki Konomi
ArtistUnicode:鈴木このみ
Creator:mnyui
Version:Wanpachi's Normal
Source:ひぐらしのなく頃に卒
Tags:07th expansion when cicadas they cry higurashi no naku koro ni sotsu graduation anime ending ed japanese pop j-pop jpop wanpachi cycopton haruto_aizawa haruto appleeaterx mint gelidium
BeatmapID:3118962
BeatmapSetID:1524386

[Difficulty]
HPDrainRate:4
CircleSize:3.2
OverallDifficulty:4
ApproachRate:5
SliderMultiplier:1.7
SliderTickRate:1

[Events]
//Background and Video events
0,0,"urmomiscool.jpg",0,0
//Break Periods
//Storyboard Layer 0 (Background)
//Storyboard Layer 1 (Fail)
//Storyboard Layer 2 (Pass)
//Storyboard Layer 3 (Foreground)
//Storyboard Layer 4 (Overlay)
//Storyboard Sound Samples

[TimingPoints]
792,535.714285714286,3,2,1,40,1,0
792,-125,3,2,1,40,0,0
15256,-111.111111111111,3,2,1,60,0,0
21684,-99.9999999999999,3,2,1,70,0,0
24899,-111.111111111111,3,2,1,60,0,0
31327,-111.111111111111,3,2,1,55,0,0
32934,-111.111111111111,3,2,1,65,0,0
34006,-111.111111111111,3,2,1,70,0,0
34542,-125,3,2,1,60,0,0
43649,-125,3,2,1,65,0,0
47399,-111.111111111111,3,2,1,60,0,0
49006,-111.111111111111,3,2,1,70,0,0
50613,-125,3,2,1,70,0,0
50880,-125,3,2,1,50,0,0
52220,-100,3,2,1,85,0,0
53827,-95.2380952380952,3,2,1,90,0,0
81149,-100,3,2,1,65,0,0
84363,-100,3,2,1,65,0,0

[Colours]
Combo1 : 255,128,192
Combo2 : 128,128,192
Combo3 : 128,128,255

[HitObjects]
15,49,15256,6,0,P|98:41|140:31,1,114.749996498108,2|2,3:2|0:0,0:0:0:0:
225,114,16059,1,2,0:0:0:0:
299,74,16327,1,2,3:2:0:0:
381,89,16595,1,2,0:0:0:0:
429,157,16863,6,0,P|414:196|403:243,1,76.4999976654054,2|2,3:2|0:0,0:0:0:0:
389,312,17399,1,2,3:2:0:0:
145,379,18202,1,2,0:2:0:0:
162,296,18470,5,2,3:2:0:0:
80,276,18738,2,0,P|65:282|32:294,1,38.2499988327027,2|2,0:0|0:2,0:0:0:0:
3,169,19274,1,2,0:0:0:0:
69,117,19542,2,0,P|111:93|151:54,1,76.4999976654053,2|2,3:2|0:0,0:0:0:0:
201,26,20077,6,0,P|244:34|284:40,1,76.4999976654054,2|2,3:2|0:0,0:0:0:0:
346,86,20613,2,0,P|381:80|429:70,1,76.4999976654054,2|2,3:2|0:0,0:0:0:0:
494,114,21149,2,0,P|487:149|483:191,1,76.4999976654054,2|2,3:2|0:0,0:0:0:0:
504,280,21684,5,6,3:2:0:0:
256,192,21818,12,12,24095,0:0:0:0:
501,69,24899,5,6,3:2:0:0:
426,29,25167,2,0,P|393:37|364:41,1,38.2499988327027,2|2,0:0|3:2,0:0:0:0:
272,88,25702,1,2,3:2:0:0:
221,20,25970,2,0,P|185:27|140:19,1,76.4999976654053,2|0,3:2|3:0,0:0:0:0:
75,67,26506,6,0,P|82:110|88:159,1,76.4999976654054,10|2,0:0|0:0,0:0:0:0:
25,201,27042,2,0,P|15:249|2:354,1,152.999995330811,2|2,3:2|3:2,0:0:0:0:
81,381,27845,1,2,3:2:0:0:
158,348,28113,6,0,P|209:346|251:362,1,76.4999976654054,2|2,3:2|0:0,0:0:0:0:
273,365,28515,1,2,3:2:0:0:
398,382,28917,1,2,3:2:0:0:
453,319,29184,2,0,P|445:282|422:242,1,76.4999976654053,2|2,3:2|3:2,0:0:0:0:
483,185,29720,6,0,P|497:110|505:24,1,152.999995330811,10|0,0:0|3:2,0:0:0:0:
425,3,30524,1,2,3:2:0:0:
362,59,30792,2,0,P|315:74|269:80,1,76.4999976654054,2|2,3:2|3:2,0:0:0:0:
218,124,31327,6,0,P|206:157|207:202,1,76.4999976654054,6|2,3:2|0:0,0:0:0:0:
286,223,31863,2,0,P|303:294|316:372,1,152.999995330811,2|0,3:2|3:0,0:0:0:0:
232,383,32667,1,2,3:2:0:0:
179,317,32934,6,0,P|145:322|103:339,1,76.4999976654054,6|2,3:2|3:2,0:0:0:0:
33,380,33470,2,0,P|2:310|99:112,1,305.999990661621,10|4,0:0|3:2,0:0:0:0:
141,50,34809,6,0,P|135:32|124:4,2,34,2|2|2,0:0|3:2|3:2,0:0:0:0:
221,63,35345,1,2,3:2:0:0:
263,132,35613,2,0,P|250:176|246:220,1,68,10|2,0:3|0:0,0:0:0:0:
338,333,36417,6,0,P|336:348|335:366,2,34,2|2|2,0:0|3:2|3:2,0:0:0:0:
377,261,36952,1,2,3:2:0:0:
450,297,37220,2,0,P|493:286|514:264,1,68,10|2,0:3|0:0,0:0:0:0:
505,188,37756,6,0,P|499:143|499:97,1,68,6|2,3:2|0:0,0:0:0:0:
476,41,38292,1,2,3:2:0:0:
399,12,38559,1,2,3:2:0:0:
335,63,38827,2,0,P|329:108|329:154,1,68,10|2,0:0|3:2,0:0:0:0:
270,188,39363,6,0,P|225:182|179:182,1,68,2|2,3:2|0:0,0:0:0:0:
180,102,39899,1,2,3:2:0:0:
213,27,40167,1,2,3:2:0:0:
134,6,40434,2,0,P|90:8|48:30,1,68,6|8,3:2|0:0,0:0:0:0:
25,86,40970,5,4,3:2:0:0:
56,161,41238,2,0,P|55:177|58:194,2,34,2|2|2,0:0|3:2|3:2,0:0:0:0:
116,106,41774,1,2,3:2:0:0:
189,140,42042,2,0,P|244:129|272:107,1,68,2|4,3:2|0:3,0:0:0:0:
369,8,42845,5,2,0:0:0:0:
437,52,43113,2,0,P|448:96|464:143,1,68,2|2,3:2|3:2,0:0:0:0:
410,186,43649,1,10,0:0:0:0:
468,242,43917,1,2,3:2:0:0:
424,310,44184,6,0,P|385:309|337:282,1,68,6|2,3:2|3:2,0:0:0:0:
290,343,44720,2,0,P|258:354|224:354,1,68,2|10,3:2|0:0,0:0:0:0:
193,278,45256,2,0,P|135:262|-15:181,1,204,2|8,3:2|0:0,0:0:0:0:
3,34,46595,5,2,0:0:0:0:
83,18,46863,1,10,0:0:0:0:
133,81,47131,2,0,P|191:94|223:96,1,68,2|4,3:2|3:2,0:0:0:0:
272,60,47667,5,0,3:2:0:0:
290,141,47934,2,0,P|260:200|282:312,1,152.999995330811,0|8,3:2|0:0,0:0:0:0:
345,314,48738,1,8,0:0:0:0:
425,288,49006,6,0,P|443:239|461:202,1,76.4999976654053,6|0,3:2|3:0,0:0:0:0:
507,152,49542,2,0,P|465:94|362:96,1,152.999995330811,0|8,3:0|3:0,0:0:0:0:
318,130,50345,1,8,0:0:0:0:
250,84,50613,6,0,P|258:24|268:-4,2,68,6|0|0,3:2|0:0|0:0,0:0:0:0:
191,141,51417,2,0,P|199:201|209:229,2,68
121,81,52220,6,0,P|61:145|41:254,1,170,14|0,0:0|0:0,0:0:0:0:
78,308,53024,1,2,3:2:0:0:
168,332,53292,1,2,3:2:0:0:
251,289,53559,1,8,0:0:0:0:
280,195,53827,6,0,P|268:146|260:77,1,89.2499972763062,6|2,3:2|0:0,0:0:0:0:
230,68,54229,2,0,P|275:70|315:52,1,89.2499972763062,2|0,3:2|3:2,0:0:0:0:
350,24,54631,1,10,0:0:0:0:
433,75,54899,1,2,0:0:0:0:
399,167,55167,1,2,3:2:0:0:
464,243,55434,6,0,P|445:326|436:395,1,133.874995914459,2|2,3:2|3:2,0:0:0:0:
353,335,56104,1,2,3:2:0:0:
353,335,56238,2,0,P|302:349|272:375,1,89.2499972763062,10|2,0:0|0:0,0:0:0:0:
176,376,56774,1,2,0:0:0:0:
93,323,57042,6,0,P|106:274|117:217,1,89.2499972763062,6|2,3:2|0:0,0:0:0:0:
154,208,57443,2,0,P|107:150|102:106,1,89.2499972763062,2|2,3:2|3:2,0:0:0:0:
114,89,57845,1,10,0:0:0:0:
180,16,58113,2,0,P|238:25|300:22,1,89.2499972763062,2|2,0:0|3:2,0:0:0:0:
314,112,58649,6,0,P|379:126|470:162,1,133.874995914459,2|2,3:2|3:1,0:0:0:0:
510,227,59318,1,10,0:0:0:0:
510,227,59452,2,0,P|495:274|486:319,1,89.2499972763062,2|8,0:0|0:0,0:0:0:0:
399,268,59988,1,0,3:0:0:0:
317,322,60256,5,4,3:2:0:0:
240,260,60524,2,0,P|245:212|268:163,1,89.2499972763062,2|2,3:2|0:0,0:0:0:0:
346,125,61059,1,10,0:0:0:0:
331,27,61327,1,2,0:0:0:0:
234,5,61595,1,2,3:2:0:0:
155,63,61863,6,0,P|107:63|59:47,1,89.2499972763062,2|0,3:2|0:0,0:0:0:0:
32,85,62265,2,0,P|11:140|32:175,1,89.2499972763062,2|2,3:2|3:2,0:0:0:0:
66,187,62667,1,10,0:0:0:0:
12,269,62934,2,0,P|24:330|29:379,1,89.2499972763062,2|2,3:2|3:2,0:0:0:0:
123,378,63470,5,4,3:2:0:0:
197,314,63738,2,0,P|207:288|214:254,2,44.6249986381531,2|2|2,0:0|3:2|0:0,0:0:0:0:
273,376,64274,1,8,0:0:0:0:
355,322,64542,2,0,P|345:296|338:262,1,44.6249986381531,2|2,0:0|0:0,0:0:0:0:
373,243,64809,2,0,P|378:221|387:200,1,44.6249986381531,2|2,3:2|0:0,0:0:0:0:
430,176,65077,5,14,0:0:0:0:
341,58,65479,1,14,0:0:0:0:
201,106,65881,1,14,0:0:0:0:
172,250,66283,1,10,0:0:0:0:
31,293,66684,6,0,P|14:233|-6:178,1,89.2499972763062,6|2,3:2|0:0,0:0:0:0:
44,176,67086,2,0,P|66:110|62:77,1,89.2499972763062,2|2,3:2|3:2,0:0:0:0:
40,48,67488,1,10,0:0:0:0:
132,14,67756,2,0,P|191:34|245:38,1,89.2499972763062,2|2,0:0|3:2,0:0:0:0:
282,112,68292,6,0,P|327:99|383:29,1,133.874995914459,2|2,3:2|3:2,0:0:0:0:
476,74,68961,1,2,3:2:0:0:
476,74,69095,2,0,P|485:126|502:183,1,89.2499972763062,10|2,0:0|0:0,0:0:0:0:
503,259,69631,1,2,0:0:0:0:
424,318,69899,6,0,P|383:293|327:286,1,89.2499972763062,6|2,3:2|0:0,0:0:0:0:
306,252,70300,2,0,P|302:318|288:384,1,133.874995914459,2|10,3:2|0:0,0:0:0:0:
197,345,70970,1,2,0:0:0:0:
103,376,71238,1,2,3:2:0:0:
35,304,71506,6,0,P|40:231|73:165,1,133.874995914459,2|2,3:2|3:1,0:0:0:0:
16,97,72175,1,2,3:1:0:0:
16,97,72309,2,0,P|28:57|25:2,1,89.2499972763062,10|8,0:0|0:0,0:0:0:0:
118,45,72845,1,0,3:0:0:0:
211,14,73113,5,4,3:2:0:0:
286,76,73381,2,0,B|277:129|283:188|274:194,1,89.2499972763062,2|2,0:0|0:0,0:0:0:0:
208,230,73917,1,10,0:0:0:0:
228,325,74184,1,2,0:0:0:0:
319,359,74452,1,2,3:2:0:0:
410,324,74720,6,0,P|430:212|453:175,1,133.874995914459,2|2,3:2|3:2,0:0:0:0:
396,113,75390,1,2,3:2:0:0:
396,113,75524,2,0,P|364:43|341:14,1,89.2499972763062,10|2,0:0|0:0,0:0:0:0:
263,3,76059,1,2,3:2:0:0:
194,73,76327,5,4,3:2:0:0:
100,43,76595,2,0,P|101:12|110:-9,2,44.6249986381531,2|2|2,0:0|3:2|0:0,0:0:0:0:
36,118,77131,1,8,0:0:0:0:
94,196,77399,2,0,P|87:219|84:254,1,44.6249986381531,2|0,3:2|0:0,0:0:0:0:
42,265,77667,2,0,P|45:287|51:308,1,44.6249986381531,2|2,3:2|3:2,0:0:0:0:
91,337,77934,5,14,0:0:0:0:
235,365,78336,1,2,3:2:0:0:
314,241,78738,1,14,0:0:0:0:
238,114,79140,1,2,3:2:0:0:
352,21,79542,6,0,P|416:44|458:52,1,89.2499972763062,14|0,0:0|3:0,0:0:0:0:
470,84,79943,2,0,P|498:137|479:188,1,89.2499972763062,6|0,3:2|3:0,0:0:0:0:
462,202,80345,2,0,P|478:265|484:304,1,89.2499972763062,6|0,3:2|3:2,0:0:0:0:
441,316,80747,2,0,P|379:320|358:355,1,89.2499972763062,10|8,0:0|0:0,0:0:0:0:
346,381,81149,5,6,3:2:0:0:
256,192,81283,12,6,84363,3:1:0:0:
