osu file format v14

[General]
AudioFilename: audio.mp3
AudioLeadIn: 0
PreviewTime: 52756
Countdown: 0
SampleSet: Soft
StackLeniency: 0.7
Mode: 0
LetterboxInBreaks: 0
WidescreenStoryboard: 0

[Editor]
DistanceSpacing: 1.1
BeatDivisor: 8
GridSize: 8
TimelineZoom: 2.2

[Metadata]
Title:Missing Promise (TV Size)
TitleUnicode:Missing Promise (TV Size)
Artist:Suzuki Konomi
ArtistUnicode:鈴木このみ
Creator:mnyui
Version:Silhouette
Source:ひぐらしのなく頃に卒
Tags:07th expansion when cicadas they cry higurashi no naku koro ni sotsu graduation anime ending ed japanese pop j-pop jpop wanpachi cycopton haruto_aizawa haruto appleeaterx mint gelidium
BeatmapID:3118961
BeatmapSetID:1524386

[Difficulty]
HPDrainRate:6
CircleSize:4
OverallDifficulty:9
ApproachRate:9.3
SliderMultiplier:2.9
SliderTickRate:1

[Events]
//Background and Video events
0,0,"urmomiscool.jpg",0,0
//Break Periods
//Storyboard Layer 0 (Background)
//Storyboard Layer 1 (Fail)
//Storyboard Layer 2 (Pass)
//Storyboard Layer 3 (Foreground)
//Storyboard Layer 4 (Overlay)
//Storyboard Sound Samples

[TimingPoints]
792,535.714285714286,3,2,1,40,1,0
15256,-111.111111111111,3,2,1,60,0,0
18671,-111.111111111111,3,2,1,5,0,0
18738,-111.111111111111,3,2,1,60,0,0
20077,-125,3,2,1,60,0,0
20613,-111.111111111111,3,2,1,60,0,0
21149,-100,3,2,1,60,0,0
21684,-90.9090909090909,3,2,1,70,0,0
24899,-99.9999999999999,3,2,1,60,0,0
28314,-99.9999999999999,3,2,1,5,0,0
28381,-99.9999999999999,3,2,1,60,0,0
31260,-99.9999999999999,3,2,1,5,0,0
31327,-90.9090909090909,3,2,1,55,0,0
32934,-90.9090909090909,3,2,1,65,0,0
34006,-90.9090909090909,3,2,1,70,0,0
34542,-100,3,2,1,60,0,0
41707,-100,3,2,1,5,0,0
41774,-100,3,2,1,60,0,0
43649,-90.9090909090909,3,2,1,60,0,0
44184,-83.3333333333333,3,2,1,60,0,0
44720,-76.9230769230769,3,2,1,60,0,0
45256,-100,3,2,1,60,0,0
47399,-100,3,2,1,60,0,0
49006,-100,3,2,1,70,0,0
52220,-76.9230769230769,3,2,1,85,0,0
53827,-71.4285714285714,3,2,1,90,0,0
54229,-66.6666666666667,3,2,1,90,0,0
54631,-71.4285714285714,3,2,1,90,0,0
54832,-71.4285714285714,3,2,1,5,0,0
54899,-76.9230769230769,3,2,1,90,0,0
55167,-111.111111111111,3,2,1,90,0,0
55367,-111.111111111111,3,2,1,5,0,0
55434,-71.4285714285714,3,2,1,90,0,0
55836,-76.9230769230769,3,2,1,90,0,0
56238,-71.4285714285714,3,2,1,90,0,0
57242,-71.4285714285714,3,2,1,5,0,0
57309,-71.4285714285714,3,2,1,90,0,0
58381,-100,3,2,1,90,0,0
58582,-100,3,2,1,5,0,0
58649,-76.9230769230769,3,2,1,90,0,0
60256,-71.4285714285714,3,2,1,90,0,0
60792,-76.9230769230769,3,2,1,90,0,0
61059,-71.4285714285714,3,2,1,90,0,0
61327,-100,3,2,1,90,0,0
61595,-100,3,2,1,90,0,0
61863,-83.3333333333333,3,2,1,90,0,0
62265,-76.9230769230769,3,2,1,90,0,0
62667,-71.4285714285714,3,2,1,90,0,0
63470,-66.6666666666667,3,2,1,90,0,0
64006,-83.3333333333333,3,2,1,90,0,0
64274,-76.9230769230769,3,2,1,90,0,0
66684,-71.4285714285714,3,2,1,90,0,0
67086,-66.6666666666667,3,2,1,90,0,0
67488,-71.4285714285714,3,2,1,90,0,0
67756,-76.9230769230769,3,2,1,90,0,0
68291,-71.4285714285714,3,2,1,90,0,0
68693,-76.9230769230769,3,2,1,90,0,0
69095,-71.4285714285714,3,2,1,90,0,0
71238,-100,3,2,1,90,0,0
71506,-76.9230769230769,3,2,1,90,0,0
73113,-71.4285714285714,3,2,1,90,0,0
73649,-76.9230769230769,3,2,1,90,0,0
73916,-71.4285714285714,3,2,1,90,0,0
74452,-100,3,2,1,90,0,0
74653,-100,3,2,1,5,0,0
74720,-83.3333333333333,3,2,1,90,0,0
75122,-76.9230769230769,3,2,1,90,0,0
75524,-71.4285714285714,3,2,1,90,0,0
76059,-111.111111111111,3,2,1,90,0,0
76260,-111.111111111111,3,2,1,5,0,0
76327,-66.6666666666667,3,2,1,90,0,0
76863,-83.3333333333333,3,2,1,90,0,0
77131,-71.4285714285714,3,2,1,90,0,0
81149,-100,3,2,1,65,0,0
86908,-166.666666666667,3,2,1,65,0,0
87443,-166.666666666667,3,2,1,20,0,0

[Colours]
Combo1 : 255,128,192
Combo2 : 128,128,192
Combo3 : 128,128,255

[HitObjects]
23,100,792,5,2,0:2:0:0:
37,91,925,1,0,0:2:0:0:
75,92,1059,1,0,0:2:0:0:
137,120,1193,1,0,0:2:0:0:
200,145,1327,1,0,0:2:0:0:
271,120,1461,1,0,0:2:0:0:
331,69,1595,2,0,L|323:25,1,36.25,2|0,0:0|0:0,0:0:0:0:
402,121,1863,5,2,0:0:0:0:
389,163,1952,1,2,0:0:0:0:
417,200,2042,1,2,0:0:0:0:
404,236,2131,1,2,0:0:0:0:
312,371,2399,5,2,0:2:0:0:
250,309,2667,1,0,0:2:0:0:
169,340,2934,2,0,L|175:376,1,36.25,2|0,0:0|0:0,0:0:0:0:
290,225,3202,5,2,0:2:0:0:
221,150,3470,1,0,0:2:0:0:
275,89,3738,1,0,0:2:0:0:
233,25,4006,5,2,0:2:0:0:
157,213,4274,5,2,0:0:0:0:
115,200,4363,1,2,0:0:0:0:
78,228,4453,1,2,0:0:0:0:
42,215,4542,1,2,0:0:0:0:
256,368,4809,5,2,0:2:0:0:
355,213,5077,5,2,0:0:0:0:
397,200,5166,1,2,0:0:0:0:
434,228,5256,1,2,0:0:0:0:
470,215,5345,1,2,0:0:0:0:
256,16,5613,5,2,0:2:0:0:
202,100,5881,1,0,0:2:0:0:
275,169,6149,1,0,0:2:0:0:
209,236,6417,5,2,0:2:0:0:
276,286,6684,1,0,0:2:0:0:
226,348,6952,1,0,0:2:0:0:
246,365,7220,5,2,0:2:0:0:
246,365,7488,5,0,0:2:0:0:
226,348,7621,1,0,0:2:0:0:
276,286,7755,1,0,0:2:0:0:
209,236,7889,1,0,0:2:0:0:
272,169,8024,1,2,0:2:0:0:
196,115,8292,5,2,0:0:0:0:
209,79,8381,1,2,0:0:0:0:
181,42,8471,1,2,0:0:0:0:
194,0,8560,1,2,0:0:0:0:
368,205,8827,5,2,0:2:0:0:
272,169,9095,1,0,0:2:0:0:
124,298,9363,1,0,0:2:0:0:
105,93,9631,5,2,0:2:0:0:
272,169,9899,1,0,0:2:0:0:
346,112,10167,1,0,0:2:0:0:
486,217,10434,5,2,0:2:0:0:
360,210,10702,5,2,0:0:0:0:
347,252,10791,1,2,0:0:0:0:
375,289,10881,1,2,0:0:0:0:
362,325,10970,1,2,0:0:0:0:
271,367,11238,5,2,0:2:0:0:
362,325,11506,5,2,0:0:0:0:
375,289,11595,1,2,0:0:0:0:
347,252,11685,1,2,0:0:0:0:
360,210,11774,1,2,0:0:0:0:
438,118,12042,5,2,0:2:0:0:
367,83,12309,1,0,0:2:0:0:
292,122,12578,1,0,0:2:0:0:
294,41,12845,5,2,0:2:0:0:
202,126,13113,1,0,0:2:0:0:
243,233,13381,1,0,0:2:0:0:
195,30,13649,5,2,0:2:0:0:
133,205,13917,1,0,0:2:0:0:
219,327,14185,1,0,0:2:0:0:
87,80,14452,5,2,0:2:0:0:
91,315,14720,1,2,0:2:0:0:
331,384,14988,1,2,0:2:0:0:
411,348,15122,5,2,0:3:0:0:
411,348,15189,1,2,0:3:0:0:
411,348,15256,2,0,P|420:283|435:220,1,130.499996017456,2|0,3:2|0:0,0:0:0:0:
353,160,15658,2,0,P|343:224|328:287,1,130.499996017456,2|0,0:0|0:0,0:0:0:0:
241,330,16059,1,2,0:0:0:0:
241,330,16327,2,0,P|196:322|165:317,1,65.2499980087281,2|0,3:2|0:0,0:0:0:0:
122,264,16595,1,2,0:0:0:0:
47,317,16729,5,2,0:3:0:0:
47,317,16796,1,2,0:3:0:0:
47,317,16863,2,0,P|34:231|22:185,1,130.499996017456,2|2,3:2|0:0,0:3:0:0:
112,97,17265,1,0,0:0:0:0:
11,104,17399,2,0,P|105:133|200:156,1,195.749994026184,2|0,3:2|0:0,0:0:0:0:
266,230,17934,1,0,3:2:0:0:
286,103,18202,1,2,0:3:0:0:
286,103,18269,1,2,0:3:0:0:
286,103,18336,1,2,0:3:0:0:
376,124,18470,6,0,P|384:77|357:37,1,97.8749970130921,2|0,3:2|0:0,0:0:0:0:
337,37,18738,1,2,0:0:0:0:
424,193,18872,2,0,P|485:177|508:119,1,130.499996017456,2|0,0:2|0:0,0:0:0:0:
341,200,19274,2,0,P|350:231|357:263,1,65.2499980087281,2|0,0:0|0:0,0:0:0:0:
466,345,19542,2,0,P|456:313|449:281,1,65.2499980087281,2|0,3:2|0:0,0:0:0:0:
289,331,19809,2,0,P|257:339|226:350,1,65.2499980087281,2|0,0:0|0:0,0:0:0:0:
109,340,20077,6,0,L|127:273,1,58,2|0,3:2|0:0,0:2:0:0:
49,267,20345,2,0,L|31:334,1,58,2|0,0:0|0:0,0:0:0:0:
185,182,20613,6,0,P|177:150|173:114,1,65.2499980087281,2|0,3:2|0:0,0:0:0:0:
91,136,20881,2,0,P|99:168|104:205,1,65.2499980087281,2|0,0:0|0:0,0:0:0:0:
338,127,21149,6,0,P|358:95|363:57,1,72.5,2|0,3:2|0:0,0:0:0:0:
284,26,21417,2,0,P|263:56|259:96,1,72.5,2|0,0:0|0:0,0:0:0:0:
461,206,21684,6,0,P|375:197|328:264,1,159.500004867554,6|2,3:2|0:0,0:0:0:0:
289,368,22086,2,0,P|275:330|261:293,1,79.7500024337769,0|2,3:2|0:0,0:0:0:0:
386,314,22354,1,0,3:0:0:0:
180,330,22488,6,0,P|103:332|79:250,1,159.500004867554,10|2,0:0|3:2,0:0:0:0:
150,143,22890,1,8,0:0:0:0:
89,84,23024,2,0,P|50:95|11:102,1,79.7500024337769,2|0,3:2|0:0,0:0:0:0:
204,216,23292,5,2,3:2:0:0:
204,216,23425,2,0,P|242:204|281:197,1,79.7500024337769,8|2,0:0|0:0,0:0:0:0:
214,49,23693,2,0,P|221:88|232:126,1,79.7500024337769,0|2,3:2|0:0,0:0:0:0:
363,256,23961,1,0,3:0:0:0:
438,159,24095,2,0,P|399:170|360:177,1,79.7500024337769,12|0,0:0|3:0,0:0:0:0:
178,347,24363,5,2,3:2:0:0:
278,384,24497,1,0,3:2:0:0:
49,295,24631,5,2,3:2:0:0:
189,248,24765,1,8,0:3:0:0:
232,126,24899,6,0,P|253:72|200:6,1,145,6|2,3:2|0:0,0:0:0:0:
161,78,25300,1,2,3:2:0:0:
283,34,25434,2,0,P|318:41|354:46,1,72.5,0|0,3:2|0:0,0:0:0:0:
423,161,25702,2,0,P|387:153|351:148,1,72.5,2|0,3:2|0:0,0:0:0:0:
274,211,25970,1,2,3:2:0:0:
274,211,26104,1,0,3:0:0:0:
347,303,26238,2,0,P|352:267|359:231,1,72.5,0|0,3:0|0:0,0:0:0:0:
124,348,26506,6,0,P|192:362|243:314,1,145,10|2,0:0|0:0,0:0:0:0:
84,264,26908,1,0,3:0:0:0:
153,208,27042,2,0,P|159:243|168:278,1,72.5,2|0,3:2|0:0,0:0:0:0:
15,317,27309,2,0,P|8:281|0:246,1,72.5,0|0,3:0|0:0,0:0:0:0:
79,154,27577,5,2,3:2:0:0:
129,31,27711,1,2,0:0:0:0:
152,112,27845,1,2,3:2:0:0:
48,72,27979,1,10,0:2:0:0:
218,47,28113,6,0,P|270:62|323:73,1,108.75,2|0,3:2|0:0,0:0:0:0:
337,68,28381,1,2,0:0:0:0:
502,28,28515,2,0,P|440:59|432:128,1,145,2|0,3:2|0:0,0:0:0:0:
278,175,28917,2,0,P|316:183|353:194,1,72.5,2|0,3:2|0:0,0:0:0:0:
472,299,29184,2,0,P|437:289|401:281,1,72.5,2|0,3:2|0:0,0:0:0:0:
318,309,29452,1,2,3:2:0:0:
383,368,29586,1,0,3:2:0:0:
213,381,29720,6,0,B|196:262|273:306|245:157,1,217.5,10|0,0:0|3:2,0:0:0:0:
187,114,30256,1,0,3:2:0:0:
187,114,30390,1,0,0:0:0:0:
152,236,30524,6,0,P|116:241|80:253,1,72.5,2|0,3:2|0:0,0:0:0:0:
265,91,30792,2,0,P|300:85|337:74,1,72.5,2|0,3:2|0:0,0:0:0:0:
460,233,31059,2,0,P|406:241|351:258,1,108.75,2|0,3:2|0:0,0:0:0:0:
338,269,31327,5,6,3:2:0:0:
126,332,31595,1,2,0:0:0:0:
194,384,31729,1,0,0:0:0:0:
205,302,31863,2,0,B|213:213|159:243|165:142,1,159.500004867554,2|0,3:2|3:0,0:0:0:0:
235,77,32265,1,0,3:0:0:0:
256,175,32399,1,0,3:0:0:0:
165,152,32533,1,0,3:0:0:0:
331,105,32667,6,0,P|369:118|408:126,1,79.7500024337769,2|0,3:2|3:0,0:0:0:0:
306,10,32934,5,6,3:2:0:0:
235,77,33068,1,8,0:0:0:0:
235,77,33135,1,8,0:0:0:0:
235,77,33202,1,2,3:2:0:0:
347,213,33336,1,8,0:0:0:0:
180,339,33470,5,10,0:0:0:0:
357,223,33604,1,0,3:0:0:0:
165,152,33738,1,0,3:0:0:0:
498,33,34006,6,0,P|459:23|422:8,1,79.7500024337769,0|0,3:2|3:2,0:2:0:0:
385,129,34274,2,0,P|423:138|460:153,1,79.7500024337769,0|0,3:2|3:2,0:2:0:0:
291,39,34542,6,0,P|219:25|149:6,1,145,4|2,3:2|0:0,0:0:0:0:
62,61,34943,1,2,3:2:0:0:
123,159,35077,2,0,P|131:123|142:89,1,72.5,2|0,3:2|0:0,0:0:0:0:
42,144,35345,2,0,P|33:179|22:213,1,72.5,2|0,3:2|0:0,0:0:0:0:
124,339,35613,5,10,0:3:0:0:
107,250,35747,1,4,0:3:0:0:
34,310,35881,1,2,0:0:0:0:
254,375,36149,6,0,P|305:357|295:254,1,145,0|2,3:2|0:0,0:0:0:0:
381,169,36550,1,2,3:2:0:0:
381,169,36684,2,0,P|387:213|397:248,1,72.5,2|0,3:2|3:0,3:0:0:0:
233,285,36952,2,0,P|225:240|214:206,1,72.5,2|0,3:2|0:0,0:0:0:0:
257,33,37220,5,10,0:3:0:0:
232,117,37354,1,4,0:3:0:0:
317,96,37488,1,2,0:0:0:0:
512,21,37622,5,0,3:2:0:0:
512,21,37689,1,0,3:0:0:0:
512,21,37756,2,0,P|500:55|493:91,1,72.5,6|0,3:2|0:0,0:0:0:0:
403,70,38024,2,0,P|414:35|422:0,1,72.5,2|8,0:0|0:0,0:0:0:0:
512,187,38292,6,0,P|476:179|442:167,1,72.5,2|0,3:2|0:0,0:0:0:0:
316,227,38559,2,0,P|351:234|385:246,1,72.5,2|0,3:2|0:0,0:0:0:0:
206,180,38827,5,10,0:0:0:0:
331,315,38961,1,8,0:3:0:0:
170,360,39095,2,0,P|181:325|189:290,1,72.5,2|0,3:2|3:2,0:0:0:0:
342,139,39363,6,0,P|330:104|322:69,1,72.5,2|0,3:2|0:0,0:0:0:0:
240,29,39631,1,2,0:0:0:0:
240,29,39765,1,8,0:0:0:0:
206,180,39899,2,0,P|199:144|187:110,1,72.5,2|0,3:2|0:0,0:0:0:0:
111,57,40166,1,2,3:2:0:0:
111,57,40300,1,8,0:3:0:0:
19,159,40434,2,0,P|54:151|88:139,1,72.5,6|0,3:2|0:0,0:0:0:0:
266,265,40702,5,8,0:0:0:0:
248,268,40768,1,8,0:0:0:0:
230,272,40835,1,8,0:0:0:0:
213,277,40902,1,8,0:0:0:0:
196,284,40970,2,0,P|207:318|215:353,1,72.5,4|0,3:2|0:0,0:0:0:0:
122,235,41238,1,2,0:0:0:0:
306,340,41372,1,2,3:2:0:0:
349,264,41506,2,0,P|405:251|460:233,1,108.75,2|0,3:2|0:0,0:0:0:0:
468,239,41774,2,0,P|466:186|438:167,1,72.5,2|0,3:2|0:0,0:0:0:0:
368,28,42042,5,2,3:2:0:0:
372,123,42175,1,8,0:3:0:0:
455,72,42309,1,4,0:3:0:0:
257,0,42443,5,2,0:0:0:0:
244,0,42510,1,2,0:0:0:0:
237,9,42577,2,0,P|252:79|265:152,1,145,0|2,3:2|0:0,0:0:0:0:
178,137,42978,1,2,3:2:0:0:
122,204,43113,2,0,P|87:210|52:221,1,72.5,2|0,3:2|0:0,0:0:0:0:
31,107,43381,2,0,P|66:100|101:90,1,72.5,2|0,3:2|0:0,0:0:0:0:
208,218,43649,6,0,P|199:256|191:296,1,79.7500024337769,10|0,0:0|0:0,0:0:0:0:
119,376,43917,2,0,P|111:336|102:297,1,79.7500024337769,2|8,3:2|0:3,0:0:0:0:
305,245,44184,6,0,P|345:259|389:263,1,86.9999973449708,6|0,3:2|0:0,0:0:0:0:
447,384,44452,2,0,P|406:369|362:365,1,86.9999973449708,2|8,3:2|0:0,0:0:0:0:
305,143,44720,6,0,P|309:96|337:55,1,94.2499956855776,2|0,3:2|0:0,0:0:0:0:
422,86,44988,2,0,P|417:132|389:173,1,94.2499956855776,10|0,0:0|0:0,0:0:0:0:
160,146,45256,5,2,3:2:0:0:
79,90,45390,1,8,0:3:0:0:
71,190,45524,2,0,P|35:195|0:204,1,72.5,4|0,0:3|0:0,0:0:0:0:
171,46,45792,2,0,P|206:40|242:32,1,72.5,2|0,3:2|0:0,0:0:0:0:
391,171,46059,5,8,0:0:0:0:
188,271,46193,1,8,0:0:0:0:
409,309,46327,1,0,3:0:0:0:
253,147,46461,1,0,3:0:0:0:
284,371,46595,5,2,0:0:0:0:
284,371,46729,1,2,0:0:0:0:
305,251,46863,1,10,0:0:0:0:
305,251,47131,5,2,3:2:0:0:
305,251,47265,1,0,3:2:0:0:
126,67,47399,5,4,3:2:0:0:
52,116,47667,1,0,3:2:0:0:
64,207,47934,1,0,3:2:0:0:
245,33,48202,5,8,0:0:0:0:
143,156,48470,1,8,0:0:0:0:
215,313,48738,1,8,0:0:0:0:
377,4,49006,5,6,3:2:0:0:
377,4,49274,1,0,3:0:0:0:
377,4,49542,5,0,3:0:0:0:
359,158,49675,1,0,3:0:0:0:
424,84,49809,5,8,0:0:0:0:
225,192,49943,1,8,0:0:0:0:
444,305,50077,1,8,0:0:0:0:
359,158,50211,1,8,0:0:0:0:
256,376,50345,5,8,0:0:0:0:
241,348,50412,1,8,0:0:0:0:
261,327,50479,1,8,0:0:0:0:
240,303,50546,1,8,0:0:0:0:
256,282,50613,1,6,3:2:0:0:
298,91,52220,6,0,P|391:81|487:58,1,188.499991371155,14|0,0:0|0:0,0:0:0:0:
188,298,52622,2,0,P|94:307|-1:330,1,188.499991371155,14|0,0:0|3:2,0:0:0:0:
406,181,53024,6,0,P|397:227|389:273,1,94.2499956855776,2|0,3:2|0:0,0:0:0:0:
250,367,53292,5,2,3:2:0:0:
287,272,53425,1,8,3:0:0:0:
209,176,53559,1,8,0:0:0:0:
291,38,53693,1,8,0:0:0:0:
109,21,53827,6,0,P|37:86|98:171,1,202.999993804932,6|2,3:2|0:0,0:0:0:0:
5,243,54229,2,0,P|104:197|211:176,1,217.500008296967,2|0,3:2|3:2,0:0:0:0:
354,146,54631,6,0,P|355:73|292:39,1,152.249995353699,10|0,0:0|0:0,0:0:0:0:
284,51,54899,2,0,P|239:66|193:74,1,94.2499956855776,2|0,0:0|0:0,0:0:0:0:
292,222,55167,2,0,P|351:232|408:252,1,97.8749970130921,2|0,3:2|0:0,0:0:0:0:
447,183,55434,6,0,P|533:217|509:306,1,202.999993804932,2|0,3:2|0:0,0:0:0:0:
394,368,55836,2,0,P|349:352|303:344,1,94.2499956855776,2|0,3:2|0:0,0:0:0:0:
189,205,56104,1,2,3:2:0:0:
123,268,56238,6,0,P|104:327|196:288,1,202.999993804932,10|2,0:0|0:0,0:0:0:0:
267,158,56640,1,2,3:2:0:0:
123,268,56774,1,2,0:0:0:0:
303,344,56908,1,2,3:2:0:0:
349,198,57042,6,0,P|388:136|486:162,1,152.249995353699,6|0,3:2|0:0,0:0:0:0:
460,137,57309,1,2,0:0:0:0:
267,158,57443,2,0,P|193:124|201:4,1,202.999993804932,2|2,3:2|3:2,0:0:0:0:
182,222,57845,2,0,P|110:240|78:254,1,101.499996902466,10|0,0:0|0:0,0:0:0:0:
267,68,58113,2,0,P|316:56|363:38,1,101.499996902466,2|0,0:0|0:0,0:0:0:0:
512,242,58381,2,0,P|459:254|408:274,1,108.75,2|0,3:2|0:0,0:0:0:0:
354,340,58649,6,0,P|324:304|325:258,1,94.2499956855776,2|10,3:2|0:0,0:0:0:0:
502,61,58917,5,2,0:1:0:0:
413,162,59050,1,2,3:1:0:0:
320,129,59184,1,2,0:1:0:0:
256,215,59318,5,10,0:0:0:0:
256,215,59385,1,8,0:0:0:0:
256,215,59452,1,2,0:0:0:0:
191,129,59586,5,0,3:0:0:0:
98,162,59720,1,8,0:0:0:0:
9,61,59854,1,0,3:0:0:0:
256,215,59988,5,0,3:0:0:0:
109,289,60122,1,0,3:0:0:0:
148,376,60256,6,0,B|118:260|203:297|166:166,1,202.999993804932,4|2,3:2|3:2,0:0:0:0:
9,61,60658,1,0,3:0:0:0:
109,10,60792,2,0,P|158:21|201:26,1,94.2499956855776,2|0,0:0|3:0,0:0:0:0:
170,181,61059,2,0,P|121:167|70:160,1,101.499996902466,10|0,0:0|0:0,0:0:0:0:
294,15,61327,6,0,P|281:56|274:99,1,72.5,2|0,0:0|0:0,0:0:0:0:
357,107,61595,2,0,P|369:65|376:22,1,72.5,2|0,3:2|0:0,0:0:0:0:
398,181,61863,6,0,P|475:187|505:294,1,173.999994689942,2|0,3:2|0:0,0:0:0:0:
362,263,62265,2,0,P|310:278|257:287,1,94.2499956855776,2|0,3:2|0:0,0:0:0:0:
437,321,62533,1,2,3:2:0:0:
289,183,62667,2,0,P|279:133|265:84,1,101.499996902466,10|0,0:0|0:0,0:0:0:0:
461,0,62934,2,0,P|470:49|484:98,1,101.499996902466,2|8,3:2|0:0,0:0:0:0:
375,92,63202,5,2,3:2:0:0:
375,92,63336,1,8,0:3:0:0:
200,219,63470,6,0,P|100:214|60:98,1,217.500008296967,4|2,3:2|0:0,0:0:0:0:
17,259,63872,1,2,3:2:0:0:
65,108,64006,2,0,P|101:137|111:184,1,86.9999973449708,2|0,0:0|3:2,0:0:0:0:
0,359,64274,2,0,P|44:342|89:328,1,94.2499956855776,8|0,0:0|0:0,0:0:0:0:
195,319,64542,5,2,0:0:0:0:
289,253,64675,1,2,0:0:0:0:
188,206,64809,1,2,3:2:0:0:
293,365,64943,1,2,0:0:0:0:
492,102,65077,5,14,0:0:0:0:
403,208,65211,1,0,3:0:0:0:
303,157,65345,1,0,3:0:0:0:
386,319,65479,5,14,0:0:0:0:
303,157,65613,1,0,3:0:0:0:
188,206,65747,1,0,3:0:0:0:
295,57,65881,5,14,0:0:0:0:
188,206,66015,1,0,3:0:0:0:
78,151,66149,1,0,3:0:0:0:
2,257,66283,5,10,0:0:0:0:
14,276,66350,1,8,0:0:0:0:
25,297,66417,1,8,0:0:0:0:
33,319,66483,1,8,0:0:0:0:
40,342,66550,1,8,0:0:0:0:
44,365,66617,1,8,0:0:0:0:
44,384,66684,6,0,P|141:355|241:337,1,202.999993804932,6|2,3:2|0:0,0:0:0:0:
387,267,67086,2,0,P|392:321|405:373,1,108.750004148483,2|0,3:2|0:0,3:0:0:0:
277,239,67354,1,2,3:2:0:0:
366,142,67488,2,0,P|418:155|472:160,1,101.499996902466,10|0,0:0|0:0,3:0:0:0:
277,239,67756,2,0,P|231:226|184:220,1,94.2499956855776,2|0,0:0|0:0,3:0:0:0:
71,167,68024,2,0,P|65:121|52:76,1,94.2499956855776,2|0,3:2|0:0,3:0:0:0:
235,0,68292,6,0,P|298:68|239:140,1,202.999993804932,2|0,3:2|0:0,0:0:0:0:
377,33,68693,2,0,P|423:45|470:51,1,94.2499956855776,2|0,3:2|0:0,3:0:0:0:
512,127,68961,1,2,3:2:0:0:
315,259,69095,2,0,P|216:233|116:219,1,202.999993804932,10|2,0:0|0:0,3:0:0:0:
77,313,69497,1,8,0:0:0:0:
25,156,69631,2,0,P|19:206|9:256,1,101.499996902466,2|0,0:0|3:0,0:0:0:0:
255,357,69899,6,0,P|329:293|424:316,1,202.999993804932,6|2,3:2|0:0,0:0:0:0:
502,174,70300,2,0,P|433:196|396:203,1,101.499996902466,2|0,3:2|0:0,0:0:0:0:
244,81,70568,1,0,3:0:0:0:
342,53,70702,2,0,P|327:101|318:151,1,101.499996902466,10|0,0:0|0:0,0:0:0:0:
147,111,70970,2,0,P|161:62|170:12,1,101.499996902466,2|0,0:0|0:0,0:0:0:0:
244,81,71238,5,2,3:2:0:0:
244,81,71372,1,0,3:0:0:0:
92,203,71506,6,0,P|46:191|0:188,1,94.2499956855776,2|8,3:2|0:0,0:0:0:0:
211,384,71774,5,2,0:1:0:0:
340,337,71908,1,2,3:1:0:0:
229,294,72042,1,2,0:1:0:0:
308,254,72175,1,2,3:1:0:0:
252,188,72309,5,10,0:0:0:0:
252,188,72376,1,0,3:0:0:0:
252,188,72443,1,0,3:0:0:0:
308,130,72577,5,8,0:0:0:0:
229,90,72711,1,8,0:0:0:0:
340,47,72845,1,0,3:0:0:0:
211,0,72979,1,0,3:0:0:0:
510,143,73113,6,0,P|451:129|398:252,1,202.999993804932,4|2,3:2|0:0,0:0:0:0:
229,90,73515,1,0,3:0:0:0:
399,245,73649,2,0,P|428:209|423:163,1,94.2499956855776,2|0,0:0|3:0,0:0:0:0:
229,90,73917,2,0,P|180:106|121:118,1,101.499996902466,10|0,0:0|0:0,0:0:0:0:
161,228,74184,2,0,P|209:212|258:201,1,101.499996902466,2|0,0:0|0:0,0:0:0:0:
33,86,74452,6,0,P|55:147|65:210,1,108.75,2|0,3:2|0:0,0:0:0:0:
10,289,74720,6,0,P|92:281|139:350,1,173.999994689942,2|0,3:2|0:0,0:0:0:0:
312,384,75122,2,0,P|317:337|325:291,1,94.2499956855776,2|0,3:2|0:0,0:0:0:0:
426,152,75390,1,2,3:2:0:0:
358,92,75524,2,0,P|310:108|260:119,1,101.499996902466,10|0,0:0|0:0,0:0:0:0:
412,245,75792,2,0,P|459:228|509:217,1,101.499996902466,2|8,0:0|0:0,0:0:0:0:
234,317,76059,6,0,P|223:270|208:223,1,97.8749970130921,2|0,3:2|0:0,0:0:0:0:
122,192,76327,6,0,P|88:158|178:26,1,217.500008296967,4|2,3:2|0:0,0:0:0:0:
208,223,76729,1,2,3:2:0:0:
139,282,76863,2,0,P|95:286|51:297,1,86.9999973449708,2|0,0:0|3:2,0:0:0:0:
191,133,77131,2,0,P|241:127|291:118,1,101.499996902466,8|0,0:0|0:0,0:0:0:0:
251,367,77399,5,2,3:2:0:0:
266,290,77533,1,0,0:0:0:0:
352,308,77667,5,2,3:2:0:0:
328,228,77800,1,2,3:2:0:0:
223,40,77934,5,14,0:0:0:0:
191,133,78068,1,0,3:0:0:0:
292,118,78202,1,0,3:0:0:0:
114,52,78336,5,2,3:2:0:0:
114,52,78470,1,0,3:0:0:0:
114,52,78604,1,0,3:0:0:0:
417,138,78738,5,14,0:0:0:0:
293,222,78872,1,0,3:2:0:0:
436,286,79006,1,2,3:2:0:0:
285,102,79140,5,2,3:2:0:0:
288,111,79274,1,0,3:0:0:0:
291,120,79408,1,0,3:0:0:0:
25,378,79542,5,14,0:0:0:0:
205,298,79675,1,0,3:0:0:0:
52,191,79809,1,0,3:0:0:0:
176,149,79943,5,6,3:2:0:0:
174,163,80077,1,0,3:0:0:0:
171,177,80211,1,0,3:0:0:0:
256,376,80345,5,6,3:2:0:0:
383,360,80479,5,8,0:0:0:0:
383,360,80546,1,8,0:0:0:0:
383,360,80613,1,0,3:0:0:0:
472,241,80747,5,14,0:2:0:0:
428,75,80881,5,8,0:0:0:0:
256,0,81015,5,8,0:0:0:0:
173,66,81149,6,0,P|110:78|59:9,1,145,6|0,3:2|0:0,0:0:0:0:
258,107,81550,1,2,3:2:0:0:
168,220,81684,2,0,P|178:185|184:149,1,72.5,2|2,0:0|0:0,0:0:0:0:
313,174,81952,2,0,P|301:215|295:258,1,72.5,2|2,0:0|0:0,0:0:0:0:
225,305,82220,1,2,0:0:0:0:
225,305,82354,1,2,0:0:0:0:
144,351,82488,2,0,P|102:337|59:330,1,72.5,2|2,0:0|0:0,0:0:0:0:
303,257,82756,6,0,P|385:283|470:300,1,145,2|0,3:1|0:0,0:0:0:0:
315,174,83158,1,2,3:2:0:0:
430,121,83292,2,0,P|413:162|402:204,1,72.5,2|0,0:0|0:0,0:0:0:0:
348,86,83559,2,0,P|360:53|370:18,1,72.5,2|0,0:0|0:0,0:0:0:0:
255,102,83827,5,2,0:0:0:0:
164,80,83961,1,2,0:0:0:0:
226,4,84095,5,2,0:0:0:0:
66,42,84229,1,2,0:0:0:0:
60,151,84363,6,0,B|43:240|107:205|84:306,1,145,6|2,3:1|0:0,0:0:0:0:
228,202,84765,2,8,P|185:194|144:179,1,72.5,2|0,3:2|0:0,0:0:0:0:
7,285,85033,1,0,0:0:0:0:
163,359,85167,2,8,P|171:312|185:274,1,72.5,2|2,0:0|0:0,0:0:0:0:
326,193,85434,5,2,0:0:0:0:
294,275,85568,1,2,0:0:0:0:
395,251,85702,1,2,0:0:0:0:
370,334,85836,1,2,0:0:0:0:
228,202,85970,5,2,0:1:0:0:
228,202,86104,2,0,P|220:157|209:117,1,72.5,2|0,0:0|0:0,0:0:0:0:
280,25,86372,2,0,P|288:70|299:110,1,72.5,2|2,0:0|0:0,0:0:0:0:
388,122,86640,1,2,0:0:0:0:
445,57,86774,1,2,0:0:0:0:
503,200,86908,6,0,P|479:283|463:369,1,173.999994689942,2|2,0:0|0:0,0:0:0:0:
