osu file format v14

[General]
AudioFilename: audio.mp3
AudioLeadIn: 0
PreviewTime: 52756
Countdown: 0
SampleSet: Soft
StackLeniency: 0.2
Mode: 0
LetterboxInBreaks: 0
WidescreenStoryboard: 1

[Editor]
Bookmarks: 15204
DistanceSpacing: 1.4
BeatDivisor: 16
GridSize: 8
TimelineZoom: 2.599999

[Metadata]
Title:Missing Promise (TV Size)
TitleUnicode:Missing Promise (TV Size)
Artist:Suzuki Konomi
ArtistUnicode:鈴木このみ
Creator:mnyui
Version:Mint's Extra
Source:ひぐらしのなく頃に卒
Tags:07th expansion when cicadas they cry higurashi no naku koro ni sotsu graduation anime ending ed japanese pop j-pop jpop wanpachi cycopton haruto_aizawa haruto appleeaterx mint gelidium
BeatmapID:3118960
BeatmapSetID:1524386

[Difficulty]
HPDrainRate:6
CircleSize:4.4
OverallDifficulty:8.3
ApproachRate:9.1
SliderMultiplier:2.9
SliderTickRate:1

[Events]
//Background and Video events
0,0,"urmomiscool.jpg",0,0
//Break Periods
//Storyboard Layer 0 (Background)
//Storyboard Layer 1 (Fail)
//Storyboard Layer 2 (Pass)
//Storyboard Layer 3 (Foreground)
//Storyboard Layer 4 (Overlay)
//Storyboard Sound Samples

[TimingPoints]
792,535.714285714286,3,2,1,40,1,0
792,-151.515151515152,3,2,1,40,0,0
12108,-151.515151515152,3,2,1,40,0,0
15256,-151.515151515152,3,2,1,60,0,0
21684,-100,3,2,1,70,0,0
24095,-80,3,2,1,70,0,0
24899,-142.857142857143,3,2,1,60,0,0
31327,-142.857142857143,3,2,1,55,0,0
32934,-113.636363636364,3,2,1,65,0,0
33738,-100,3,2,1,65,0,0
34006,-89.2857142857143,3,2,1,70,0,0
34274,-80.6451612903226,3,2,1,70,0,0
34542,-95.2380952380952,3,2,1,60,0,0
43649,-89.2857142857143,3,2,1,65,0,0
45792,-80,3,2,1,65,0,0
47399,-133.333333333333,3,2,1,60,0,0
47667,-117.647058823529,3,2,1,60,0,0
47934,-105.263157894737,3,2,1,60,0,0
48202,-95.2380952380952,3,2,1,60,0,0
48470,-86.9565217391304,3,2,1,60,0,0
48738,-80,3,2,1,60,0,0
49006,-95.2380952380952,3,2,1,70,0,0
49274,-86.9565217391304,3,2,1,70,0,0
49542,-80,3,2,1,70,0,0
49809,-74.0740740740741,3,2,1,70,0,0
52220,-133.333333333333,3,2,1,85,0,0
52622,-100,3,2,1,85,0,0
53827,-133.333333333333,3,2,1,90,0,0
54229,-80,3,2,1,90,0,0
57042,-133.333333333333,3,2,1,90,0,0
57309,-80,3,2,1,90,0,0
61863,-133.333333333333,3,2,1,90,0,0
62265,-80,3,2,1,90,0,0
65077,-66.6666666666667,3,2,1,90,0,0
66550,-133.333333333333,3,2,1,90,0,0
67086,-80,3,2,1,90,0,0
69899,-133.333333333333,3,2,1,90,0,0
70300,-80,3,2,1,90,0,0
77934,-66.6666666666667,3,2,1,90,0,0
81149,-133.333333333333,3,2,1,65,0,0
86037,-133.333333333333,3,2,1,100,0,0
87577,-133.333333333333,3,2,1,20,0,0

[Colours]
Combo1 : 128,255,255
Combo2 : 128,255,128

[HitObjects]
75,364,792,6,0,P|75:332|75:312,1,47.8499998539734,2|0,0:2|0:2,0:0:0:0:
45,255,1059,1,0,0:2:0:0:
97,208,1193,1,0,0:2:0:0:
40,161,1327,1,0,0:2:0:0:
106,114,1461,1,0,0:2:0:0:
30,65,1595,1,2,0:0:0:0:
190,162,1863,5,2,0:0:0:0:
186,185,1952,1,2,0:0:0:0:
182,214,2042,1,2,0:0:0:0:
179,240,2131,1,2,0:0:0:0:
361,288,2399,5,2,0:2:0:0:
512,190,2667,1,0,0:2:0:0:
326,131,2934,1,2,0:0:0:0:
179,240,3202,5,2,0:2:0:0:
96,176,3470,1,0,0:2:0:0:
1,214,3738,1,0,0:2:0:0:
83,278,4006,6,0,P|136:271|182:267,1,95.6999997079468,2|2,0:2|0:0,0:0:0:0:
179,240,4363,1,2,0:0:0:0:
182,214,4452,1,2,0:0:0:0:
186,185,4542,1,2,0:0:0:0:
421,141,4809,6,0,P|368:134|322:130,1,95.6999997079468,2|2,0:2|0:0,0:0:0:0:
325,103,5166,1,2,0:0:0:0:
322,77,5255,1,2,0:0:0:0:
318,48,5345,1,2,0:0:0:0:
170,0,5613,5,2,0:2:0:0:
123,91,5881,1,0,0:2:0:0:
186,185,6149,1,0,0:2:0:0:
335,283,6417,5,2,0:2:0:0:
375,201,6684,1,0,0:2:0:0:
325,130,6952,1,0,0:2:0:0:
169,343,7220,6,0,P|139:341|118:338,1,47.8499998539734,2|0,0:2|0:0,0:0:0:0:
61,306,7488,1,0,0:2:0:0:
26,242,7622,1,0,0:2:0:0:
50,164,7756,1,0,0:2:0:0:
127,126,7890,1,0,0:2:0:0:
223,173,8024,1,2,0:2:0:0:
336,52,8292,5,2,0:0:0:0:
332,75,8381,1,2,0:0:0:0:
328,104,8471,1,2,0:0:0:0:
325,130,8560,1,2,0:0:0:0:
412,207,8827,5,2,0:2:0:0:
512,161,9095,1,0,0:2:0:0:
434,79,9363,1,0,0:2:0:0:
401,310,9631,5,2,0:2:0:0:
494,268,9899,1,0,0:2:0:0:
412,207,10167,1,0,0:2:0:0:
314,242,10434,6,0,P|261:249|215:253,1,95.6999997079468,2|2,0:2|0:0,0:0:0:0:
218,280,10791,1,2,0:0:0:0:
215,306,10880,1,2,0:0:0:0:
211,335,10970,1,2,0:0:0:0:
15,275,11238,6,0,P|68:268|114:264,1,95.6999997079468,2|2,0:2|0:0,0:0:0:0:
111,237,11595,1,2,0:0:0:0:
114,211,11684,1,2,0:0:0:0:
118,182,11774,1,2,0:0:0:0:
257,110,12042,5,2,0:2:0:0:
256,192,12108,12,2,14988,0:2:0:0:
0,114,15256,6,0,P|53:107|102:102,1,95.6999997079468,2|0,3:2|0:0,0:0:0:0:
137,44,15658,1,2,0:0:0:0:
137,44,15792,1,0,3:2:0:0:
210,120,16059,1,2,0:0:0:0:
187,216,16327,2,0,P|170:164|185:121,1,95.6999997079468,2|2,3:2|0:0,0:0:0:0:
257,53,16729,5,2,0:3:0:0:
257,53,16796,1,2,0:3:0:0:
257,53,16863,2,0,P|301:58|356:66,1,95.6999997079468,2|2,3:2|0:0,0:0:0:0:
402,10,17265,1,0,0:0:0:0:
402,10,17399,1,2,3:2:0:0:
455,98,17667,1,0,0:0:0:0:
387,169,17934,2,0,P|390:195|391:218,1,47.8499998539734,0|0,3:2|0:0,0:0:0:0:
440,267,18202,1,2,0:2:0:0:
492,215,18336,5,0,0:0:0:0:
492,215,18403,1,2,0:3:0:0:
492,215,18470,2,0,P|482:298|482:328,1,95.6999997079468,2|2,3:2|0:0,0:0:0:0:
439,371,18872,1,2,0:2:0:0:
439,371,19006,1,0,3:0:0:0:
342,293,19274,1,2,0:0:0:0:
233,348,19542,2,0,P|281:348|324:320,1,95.6999997079468,2|2,3:2|0:0,0:0:0:0:
282,244,19943,5,0,3:0:0:0:
282,244,20010,1,0,3:0:0:0:
282,244,20077,2,0,P|228:236|165:230,1,95.6999997079468,2|2,3:2|0:0,0:0:0:0:
22,322,20613,2,0,P|76:314|139:308,1,95.6999997079468,2|2,3:2|0:0,0:0:0:0:
84,211,21149,6,0,P|80:187|76:164,1,47.8499998539734,2|0,3:2|0:0,0:0:0:0:
7,116,21417,1,2,0:0:0:0:
7,116,21483,1,0,3:2:0:0:
7,116,21550,1,0,3:2:0:0:
7,116,21617,1,0,3:2:0:0:
7,116,21684,2,0,P|22:50|118:22,1,145,6|2,3:2|0:0,0:0:0:0:
159,25,22086,1,0,3:2:0:0:
148,168,22220,6,0,P|104:163|73:163,1,72.5,2|0,0:0|3:0,0:0:0:0:
234,35,22488,2,0,P|278:40|309:40,1,72.5,10|0,0:0|0:0,0:0:0:0:
466,3,22756,5,2,3:2:0:0:
502,70,22890,1,8,0:0:0:0:
448,123,23024,2,0,P|444:169|441:210,1,72.5,2|0,3:2|0:0,0:0:0:0:
286,298,23292,5,2,3:2:0:0:
240,231,23425,2,0,P|244:185|247:144,1,72.5,8|2,0:0|0:0,0:0:0:0:
486,275,23693,2,0,P|410:285|355:336,1,145,0|0,3:2|3:0,0:0:0:0:
80,376,24095,6,0,P|74:327|66:272,1,90.625,12|0,0:0|3:0,0:0:0:0:
124,232,24363,1,2,3:2:0:0:
15,155,24497,1,0,3:2:0:0:
81,103,24631,1,2,3:2:0:0:
6,64,24765,5,8,0:3:0:0:
6,64,24832,1,8,0:3:0:0:
6,64,24899,2,0,P|71:54|121:49,1,101.499996902466,6|2,3:2|0:0,0:0:0:0:
176,7,25300,2,0,P|200:40|204:104,1,101.499996902466,2|0,3:2|0:0,0:0:0:0:
145,150,25702,1,2,3:2:0:0:
302,197,25970,6,0,P|328:192|354:190,1,50.749998451233,2|0,3:2|3:0,0:0:0:0:
322,118,26238,1,0,3:0:0:0:
395,127,26372,5,0,0:0:0:0:
395,127,26439,1,0,3:0:0:0:
395,127,26506,2,0,P|389:176|383:238,1,101.499996902466,10|2,0:0|0:0,0:0:0:0:
463,258,26908,2,0,P|461:221|458:198,1,50.749998451233,0|2,3:0|3:2,0:0:0:0:
254,351,27309,6,0,P|224:347|196:344,1,50.749998451233,0|0,3:0|0:0,0:0:0:0:
161,289,27577,2,0,P|131:285|103:282,1,50.749998451233,2|2,3:2|0:0,0:0:0:0:
99,352,27845,1,2,3:2:0:0:
33,324,27979,5,10,0:2:0:0:
33,324,28046,1,8,0:0:0:0:
33,324,28113,2,0,P|28:258|23:218,1,101.499996902466,2|2,3:2|0:0,0:0:0:0:
98,207,28515,2,0,P|101:156|107:105,1,101.499996902466,2|0,3:2|0:0,0:0:0:0:
41,64,28917,1,2,3:2:0:0:
257,18,29184,2,0,P|275:62|263:116,1,101.499996902466,2|2,3:2|3:2,0:0:0:0:
303,182,29586,5,0,3:2:0:0:
303,182,29653,1,0,3:0:0:0:
303,182,29720,2,0,P|305:135|310:71,1,101.499996902466,10|0,0:0|0:0,0:0:0:0:
371,46,30122,1,0,3:0:0:0:
371,46,30256,1,0,3:2:0:0:
459,112,30524,1,2,3:2:0:0:
366,236,30792,2,0,P|415:214|474:224,1,101.499996902466,2|2,3:2|3:2,0:0:0:0:
286,376,31327,6,0,P|237:368|181:362,1,101.499996902466,6|2,3:2|0:0,0:0:0:0:
38,260,31863,2,0,P|29:203|53:162,1,101.499996902466,2|0,3:2|3:0,0:0:0:0:
151,97,32399,1,0,3:0:0:0:
74,8,32667,1,2,3:2:0:0:
141,234,32934,6,0,P|187:227|220:223,1,63.8000019470215,6|8,3:2|0:0,0:0:0:0:
267,260,33135,1,8,0:0:0:0:
267,260,33202,2,0,P|298:264|330:269,1,63.8000019470215,2|8,3:2|0:0,0:0:0:0:
270,180,33470,1,10,0:0:0:0:
472,358,33738,6,0,P|479:308|485:262,1,72.5,0|0,3:0|0:0,0:0:0:0:
389,217,34006,2,0,P|396:167|403:111,1,81.2000009912109,0|0,3:2|3:2,0:0:0:0:
286,104,34274,2,0,P|293:54|302:-11,1,89.8999964334108,0|0,3:0|3:2,0:0:0:0:
74,8,34542,6,0,P|46:81|67:150,1,152.249995353699,4|2,3:2|0:0,0:0:0:0:
124,195,34943,1,2,3:2:0:0:
2,237,35077,2,0,P|55:242|82:256,1,76.1249976768494,2|0,3:2|0:0,0:0:0:0:
128,321,35345,2,0,P|75:326|48:340,1,76.1249976768494,2|0,3:2|0:0,0:0:0:0:
199,193,35613,6,0,P|194:248|191:280,1,76.1249976768494,10|4,0:3|0:3,0:0:0:0:
320,376,35881,2,0,P|325:321|328:289,1,76.1249976768494,2|0,0:0|0:0,0:0:0:0:
509,246,36149,6,0,P|439:245|383:178,1,152.249995353699,0|2,3:2|0:0,0:0:0:0:
315,151,36550,1,2,3:2:0:0:
381,108,36684,2,0,P|420:113|466:119,1,76.1249976768494,2|0,3:2|3:0,0:0:0:0:
403,29,36952,2,0,P|364:34|318:40,1,76.1249976768494,2|0,3:2|0:0,0:0:0:0:
196,35,37220,6,0,P|191:90|188:122,1,76.1249976768494,10|4,0:3|0:3,0:0:0:0:
309,227,37488,2,0,P|314:172|317:140,1,76.1249976768494,2|0,0:0|3:2,0:0:0:0:
2,267,37756,6,0,P|50:319|140:314,1,152.249995353699,6|2,3:2|0:0,0:0:0:0:
183,267,38158,1,8,0:0:0:0:
135,204,38292,2,0,P|89:212|55:219,1,76.1249976768494,2|0,3:2|0:0,0:0:0:0:
0,162,38559,2,0,P|7:119|14:74,1,76.1249976768494,2|0,3:2|0:0,0:0:0:0:
167,0,38827,1,10,0:0:0:0:
234,44,38961,1,8,0:3:0:0:
204,116,39095,2,0,P|209:153|216:191,1,76.1249976768494,2|0,3:2|3:2,0:0:0:0:
258,248,39296,1,0,3:0:0:0:
258,248,39363,2,0,P|264:210|270:172,1,76.1249976768494,2|0,3:2|0:0,0:0:0:0:
305,91,39631,6,0,P|342:93|375:116,1,76.1249976768494,2|8,0:0|0:0,0:0:0:0:
350,200,39899,2,0,P|411:191|451:186,1,76.1249976768494,2|0,3:2|0:0,0:0:0:0:
508,153,40167,1,2,3:2:0:0:
455,84,40300,1,8,0:3:0:0:
483,281,40434,2,0,P|423:272|383:267,1,76.1249976768494,6|0,3:2|0:0,0:0:0:0:
253,364,40702,5,8,0:0:0:0:
253,364,40769,1,8,0:0:0:0:
253,364,40836,1,8,0:0:0:0:
253,364,40903,1,8,0:0:0:0:
253,364,40970,2,0,P|181:368|126:299,1,152.249995353699,4|2,3:2|0:0,0:0:0:0:
170,247,41372,1,2,3:2:0:0:
100,205,41506,2,0,P|55:214|16:222,1,76.1249976768494,2|0,3:2|0:0,0:0:0:0:
83,122,41774,2,0,P|128:131|167:139,1,76.1249976768494,2|0,3:2|0:0,0:0:0:0:
245,232,42042,6,0,P|200:241|161:249,1,76.1249976768494,2|8,3:2|0:3,0:0:0:0:
131,48,42309,2,0,P|176:39|215:31,1,76.1249976768494,4|2,0:3|0:0,0:0:0:0:
430,2,42577,6,0,P|464:58|452:150,1,152.249995353699,0|2,3:2|0:0,0:0:0:0:
398,186,42979,1,2,3:2:0:0:
473,212,43113,2,0,P|468:254|465:290,1,76.1249976768494,2|0,3:2|0:0,0:0:0:0:
393,334,43381,2,0,P|389:296|385:258,1,76.1249976768494,2|0,3:2|0:0,0:0:0:0:
325,128,43649,6,0,P|320:194|317:237,1,81.2000009912109,10|0,0:0|0:0,0:0:0:0:
268,352,43917,2,0,P|265:311|261:271,1,81.2000009912109,2|0,3:2|0:0,0:0:0:0:
208,57,44184,6,0,P|203:123|200:166,1,81.2000009912109,6|0,3:2|0:0,0:0:0:0:
150,360,44452,2,0,P|147:319|143:279,1,81.2000009912109,2|8,3:2|0:0,0:0:0:0:
71,10,44720,6,0,P|66:76|63:119,1,81.2000009912109,2|0,3:2|0:0,0:0:0:0:
32,368,44988,2,0,P|29:327|25:287,1,81.2000009912109,10|0,0:0|0:0,0:0:0:0:
64,90,45256,5,2,3:2:0:0:
8,150,45390,1,8,0:3:0:0:
62,211,45524,2,0,P|108:206|154:200,1,81.2000009912109,4|0,0:3|0:0,0:0:0:0:
458,80,45792,6,0,P|412:85|348:94,1,90.625,2|0,3:2|0:0,0:0:0:0:
212,55,46059,1,8,0:0:0:0:
309,145,46193,1,8,0:0:0:0:
230,129,46327,2,0,P|222:189|216:238,1,90.625,0|0,3:0|3:0,0:0:0:0:
313,369,46595,6,0,P|331:305|304:239,1,135.9375,2|0,0:0|0:0,0:0:0:0:
304,233,46863,2,0,P|348:241|392:250,1,90.625,10|0,0:0|0:0,0:0:0:0:
490,357,47131,2,0,P|445:347|401:339,1,90.625,2|0,3:2|3:2,0:0:0:0:
136,377,47399,6,0,P|117:349|115:309,1,54.3750020742417,4|0,3:2|0:0,0:0:0:0:
43,312,47667,2,0,P|40:278|64:237,1,61.6250011754036,0|0,3:2|0:0,0:0:0:0:
3,191,47934,2,0,P|17:160|63:132,1,68.8749981608391,0|0,3:2|0:0,0:0:0:0:
53,25,48202,6,0,P|81:5|139:5,1,76.1249976768494,8|0,0:0|0:0,0:0:0:0:
179,67,48470,2,0,P|212:64|268:100,1,83.375001590252,8|0,0:0|0:0,0:0:0:0:
244,171,48738,2,0,P|274:185|306:247,1,90.625,8|0,0:0|0:0,0:0:0:0:
490,357,49006,6,0,P|496:319|508:257,1,76.1249976768494,6|0,3:2|0:0,0:0:0:0:
398,117,49274,2,0,P|392:155|381:224,1,83.375001590252,0|0,3:0|3:0,0:0:0:0:
202,354,49542,2,0,P|208:316|220:247,1,90.625,0|0,3:0|3:0,0:0:0:0:
104,19,49809,2,0,P|96:63|87:120,1,97.8750003733635,8|8,0:0|0:0,0:0:0:0:
122,182,50077,5,8,3:0:0:0:
285,115,50211,1,8,0:0:0:0:
259,35,50345,5,8,0:0:0:0:
184,9,50479,1,8,0:0:0:0:
184,9,50546,1,8,0:0:0:0:
184,9,50613,1,6,3:2:0:0:
280,142,52220,6,0,P|319:179|315:245,1,108.750004148483,14|0,0:0|0:0,0:0:0:0:
256,376,52622,2,0,P|190:364|129:356,1,108.75,14|0,0:0|0:0,0:0:0:0:
142,367,52890,1,0,3:2:0:0:
7,319,53024,2,0,P|55:312|97:306,1,72.5,2|0,3:2|0:0,0:0:0:0:
42,108,53292,5,2,3:2:0:0:
206,200,53425,1,8,3:0:0:0:
187,128,53559,5,8,0:0:0:0:
3,174,53693,1,8,0:0:0:0:
112,140,53827,6,0,P|101:197|94:237,1,81.5625031113626,6|0,3:2|0:0,0:0:0:0:
97,231,54095,1,2,0:0:0:0:
31,34,54229,2,0,B|141:10|90:61|212:41,1,181.25,2|0,3:2|3:2,0:0:0:0:
388,5,54631,6,0,P|330:18|285:84,1,135.9375,10|0,0:0|0:0,0:0:0:0:
283,88,54899,2,0,P|286:146|312:191,1,90.625,2|0,0:0|0:0,0:0:0:0:
466,147,55167,2,0,P|463:89|437:44,1,90.625,2|0,3:2|0:0,0:0:0:0:
377,116,55434,6,0,P|389:202|405:313,1,181.25,2|0,3:2|0:0,0:0:0:0:
341,345,55836,1,2,3:2:0:0:
414,371,55970,1,0,0:0:0:0:
476,320,56104,1,2,3:2:0:0:
266,379,56238,6,0,P|213:371|172:367,1,90.625,10|0,0:0|0:0,0:0:0:0:
49,119,56506,6,0,P|102:127|143:131,1,90.625,2|2,0:0|3:2,0:0:0:0:
193,76,56774,1,2,0:0:0:0:
143,17,56908,1,2,3:2:0:0:
188,250,57042,6,0,P|135:242|90:238,1,81.5625031113626,6|0,3:2|0:0,0:0:0:0:
97,237,57309,1,2,0:0:0:0:
275,47,57443,2,0,P|368:63|441:20,1,181.25,2|2,3:2|3:2,0:0:0:0:
502,163,57845,6,0,P|496:222|493:270,1,90.625,10|0,0:0|0:0,0:0:0:0:
405,369,58113,2,0,P|408:323|413:278,1,90.625,2|0,0:0|0:0,0:0:0:0:
347,149,58381,2,0,P|341:208|338:256,1,90.625,2|0,3:2|0:0,0:0:0:0:
264,275,58649,5,2,3:2:0:0:
90,161,58783,1,10,0:0:0:0:
50,231,58917,5,2,0:1:0:0:
167,170,59050,1,2,3:1:0:0:
53,93,59184,1,2,0:1:0:0:
137,90,59318,5,10,0:0:0:0:
137,90,59385,1,8,0:0:0:0:
137,90,59452,2,0,L|229:75,1,90.625,2|0,0:0|3:0,0:0:0:0:
284,25,59720,5,8,0:0:0:0:
424,128,59854,1,0,3:0:0:0:
347,149,59988,5,0,3:0:0:0:
391,280,60122,1,0,3:0:0:0:
292,376,60256,6,0,P|221:362|135:349,1,135.9375,4|0,3:2|0:0,0:0:0:0:
144,367,60524,2,0,P|136:313|130:270,1,90.625,2|0,3:2|3:0,0:0:0:0:
32,258,60792,2,0,P|24:204|18:161,1,90.625,2|0,0:0|3:0,0:0:0:0:
117,31,61059,6,0,P|105:90|97:126,1,90.625,10|0,0:0|0:0,0:0:0:0:
229,145,61327,2,0,P|217:204|209:240,1,90.625,2|0,0:0|0:0,0:0:0:0:
310,287,61595,2,0,P|298:346|290:382,1,90.625,2|0,3:2|0:0,0:0:0:0:
509,229,61863,6,0,P|466:220|422:215,1,81.5625031113626,2|0,3:2|0:0,0:0:0:0:
422,220,62131,1,0,0:0:0:0:
229,145,62265,2,0,P|235:75|323:12,1,181.25,2|2,3:2|3:2,0:0:0:0:
506,18,62667,6,0,P|501:80|498:119,1,90.625,10|0,0:0|0:0,0:0:0:0:
334,185,62934,2,0,P|337:139|341:94,1,90.625,2|8,3:2|0:0,0:0:0:0:
422,59,63202,1,2,3:2:0:0:
416,137,63336,1,8,0:3:0:0:
236,24,63470,6,0,P|176:16|138:10,1,90.625,4|0,3:2|0:0,0:0:0:0:
18,60,63738,1,2,0:0:0:0:
63,124,63872,1,2,3:2:0:0:
6,190,64006,2,0,P|50:195|95:202,1,90.625,2|0,0:0|3:2,0:0:0:0:
189,370,64274,2,0,P|129:362|91:356,1,90.625,8|0,0:0|0:0,0:0:0:0:
256,166,64542,5,2,0:0:0:0:
342,263,64675,1,2,0:0:0:0:
334,185,64809,5,2,3:2:0:0:
203,226,64943,1,2,0:0:0:0:
318,368,65077,6,0,P|394:359|455:355,1,108.750004148483,14|0,0:0|3:0,0:0:0:0:
426,356,65345,1,0,3:0:0:0:
87,249,65479,6,0,P|96:325|100:386,1,108.750004148483,14|0,0:0|3:0,0:0:0:0:
98,357,65747,1,0,3:0:0:0:
199,23,65881,6,0,P|123:32|62:36,1,108.750004148483,14|0,0:0|3:0,0:0:0:0:
91,34,66149,1,0,3:0:0:0:
425,135,66283,6,0,P|416:59|412:-2,1,108.750004148483,10|8,0:0|0:0,0:0:0:0:
486,233,66550,5,8,0:0:0:0:
486,233,66617,1,8,0:0:0:0:
486,233,66684,2,0,P|429:224|398:221,1,81.5625031113626,6|0,3:2|0:0,0:0:0:0:
401,215,66952,1,2,0:0:0:0:
305,336,67086,2,0,P|278:265|334:175,1,181.25,2|2,3:2|3:2,0:0:0:0:
208,371,67488,6,0,P|140:362|58:357,1,135.9375,10|0,0:0|0:0,0:0:0:0:
65,365,67756,2,0,P|54:305|45:256,1,90.625,2|0,0:0|0:0,0:0:0:0:
135,188,68024,2,0,P|146:248|155:297,1,90.625,2|0,3:2|0:0,0:0:0:0:
48,197,68292,5,2,3:2:0:0:
22,32,68425,2,0,P|88:27|143:65,1,135.9375,8|0,0:0|0:0,0:0:0:0:
149,74,68693,2,0,P|211:66|257:63,1,90.625,2|0,3:2|0:2,0:0:0:0:
299,16,68961,1,2,3:2:0:0:
457,107,69095,6,0,P|450:162|445:203,1,90.625,10|0,0:0|0:0,0:0:0:0:
302,286,69363,2,0,P|309:231|314:190,1,90.625,2|8,0:0|0:0,0:0:0:0:
273,130,69631,1,2,0:0:0:0:
340,80,69765,1,0,3:0:0:0:
394,285,69899,6,0,P|426:280|478:274,1,81.5625031113626,6|0,3:2|0:0,0:0:0:0:
484,265,70167,1,2,0:0:0:0:
265,380,70300,2,0,P|186:320|74:333,1,181.25,2|0,3:2|3:0,0:0:0:0:
23,203,70702,6,0,P|86:209|162:157,1,135.9375,10|0,0:0|0:0,0:0:0:0:
157,165,70970,2,0,P|175:115|174:72,1,90.625,2|0,0:0|0:0,0:0:0:0:
29,45,71238,2,0,P|11:95|12:138,1,90.625,2|0,3:2|3:0,0:0:0:0:
95,102,71506,5,2,3:2:0:0:
273,51,71640,1,8,0:0:0:0:
210,5,71774,5,2,0:1:0:0:
248,121,71908,1,2,3:1:0:0:
349,28,72042,1,2,0:1:0:0:
273,51,72175,1,2,3:1:0:0:
512,162,72309,6,0,L|407:147,1,90.625,10|0,0:0|3:0,0:0:0:0:
411,78,72577,5,8,0:0:0:0:
285,188,72711,1,8,0:0:0:0:
328,257,72845,5,0,3:0:0:0:
255,363,72979,1,0,3:0:0:0:
122,342,73113,6,0,P|106:275|129:208,1,135.9375,4|0,3:2|0:0,0:0:0:0:
134,203,73381,2,0,P|130:161|124:106,1,90.625,2|0,0:0|3:0,0:0:0:0:
23,72,73649,2,0,P|27:114|33:169,1,90.625,2|0,0:0|3:0,0:0:0:0:
273,39,73917,6,0,P|222:33|179:30,1,90.625,10|0,0:0|0:0,0:0:0:0:
358,143,74184,2,0,P|307:137|264:134,1,90.625,2|0,0:0|0:0,0:0:0:0:
435,257,74452,2,0,P|384:251|341:248,1,90.625,2|0,3:2|0:0,0:0:0:0:
387,30,74720,6,0,P|445:63|465:174,1,181.25,2|0,3:2|0:0,0:0:0:0:
273,360,75122,2,0,P|265:289|256:216,1,135.9375,2|0,3:2|0:0,0:0:0:0:
270,216,75390,1,2,3:2:0:0:
66,127,75524,6,0,P|58:206|56:246,1,90.625,10|0,0:0|0:0,0:0:0:0:
195,119,75792,2,0,P|191:73|186:28,1,90.625,2|8,0:0|0:0,0:0:0:0:
108,9,76059,1,2,3:2:0:0:
41,52,76193,1,0,0:0:0:0:
166,234,76327,6,0,P|230:226|270:223,1,90.625,4|0,3:2|0:0,0:0:0:0:
451,203,76595,1,2,0:0:0:0:
485,127,76729,1,2,3:2:0:0:
412,97,76863,2,0,P|348:89|308:86,1,90.625,2|0,0:0|3:2,0:0:0:0:
324,282,77131,2,0,P|369:277|414:271,1,90.625,8|0,0:0|0:0,0:0:0:0:
321,86,77399,5,2,3:2:0:0:
257,224,77533,1,0,0:0:0:0:
255,138,77667,5,2,3:2:0:0:
324,282,77800,1,2,3:2:0:0:
67,190,77934,6,0,P|129:184|176:178,1,108.750004148483,14|0,0:0|3:0,0:0:0:0:
117,101,78202,1,0,3:0:0:0:
194,367,78336,2,0,P|95:359|33:254,1,217.500008296967,2|0,3:2|3:0,0:0:0:0:
445,190,78738,6,0,P|383:184|336:178,1,108.750004148483,14|0,0:0|3:2,0:0:0:0:
398,106,79006,1,2,3:2:0:0:
318,367,79140,2,0,P|417:359|479:254,1,217.500008296967,2|0,3:2|3:0,0:0:0:0:
162,70,79542,6,0,P|172:147|175:182,1,108.750004148483,14|0,0:0|3:0,0:0:0:0:
174,177,79809,1,0,3:0:0:0:
318,367,79943,6,0,P|323:312|330:259,1,108.750004148483,6|0,3:2|3:0,0:0:0:0:
330,259,80211,1,0,3:0:0:0:
434,95,80345,5,6,3:2:0:0:
355,69,80479,1,8,0:0:0:0:
355,69,80546,1,8,0:0:0:0:
355,69,80613,1,0,3:2:0:0:
256,156,80747,5,10,0:0:0:0:
162,70,80881,5,8,0:0:0:0:
88,94,81015,1,8,0:0:0:0:
36,265,81149,6,0,P|83:260|108:259,1,54.3750020742417,6|0,3:2|0:0,0:0:0:0:
157,299,81417,2,0,P|185:301|212:305,1,54.3750020742417,0|2,0:0|3:2,0:0:0:0:
299,305,81684,2,0,P|326:301|354:299,1,54.3750020742417,2|2,0:0|0:0,0:0:0:0:
421,259,81952,2,0,P|449:261|476:265,1,54.3750020742417,2|2,0:0|0:0,0:0:0:0:
508,193,82220,2,0,P|511:160|514:128,1,54.3750020742417,2|2,0:0|0:0,0:0:0:0:
443,110,82488,2,0,P|440:77|437:45,1,54.3750020742417,2|2,0:0|0:0,0:0:0:0:
340,23,82756,5,2,3:1:0:0:
307,90,82890,1,2,0:3:0:0:
307,90,82957,1,2,0:3:0:0:
307,90,83024,1,2,0:3:0:0:
326,167,83158,2,0,P|281:162|214:156,1,108.750004148483,2|0,3:2|0:0,0:0:0:0:
166,210,83559,2,0,P|131:208|100:208,1,54.3750020742417,2|0,0:0|0:0,0:0:0:0:
55,166,83827,5,2,0:0:0:0:
63,88,83961,1,2,0:0:0:0:
138,38,84095,1,2,0:0:0:0:
229,61,84229,1,2,0:0:0:0:
231,257,84363,6,0,P|271:253|347:248,1,108.750004148483,6|2,3:1|0:0,0:0:0:0:
396,295,84765,1,2,3:2:0:0:
396,295,84899,2,0,P|430:291|473:288,1,54.3750020742417
510,173,85167,6,0,P|472:157|441:156,1,54.3750020742417,2|2,0:0|0:0,0:0:0:0:
439,83,85434,2,0,P|398:77|367:84,1,54.3750020742417,2|2,0:0|0:0,0:0:0:0:
345,14,85702,2,0,P|304:19|276:33,1,54.3750020742417,2|2,0:0|0:0,0:0:0:0:
489,26,85970,5,2,0:1:0:0:
256,192,86037,12,0,87577,0:0:0:0:
