osu file format v14

[General]
AudioFilename: audio.mp3
AudioLeadIn: 0
PreviewTime: 52756
Countdown: 0
SampleSet: Soft
StackLeniency: 0.7
Mode: 0
LetterboxInBreaks: 0
WidescreenStoryboard: 1

[Editor]
DistanceSpacing: 1.1
BeatDivisor: 8
GridSize: 8
TimelineZoom: 2.2

[Metadata]
Title:Missing Promise (TV Size)
TitleUnicode:Missing Promise (TV Size)
Artist:Suzuki Konomi
ArtistUnicode:鈴木このみ
Creator:mnyui
Version:Hard
Source:ひぐらしのなく頃に卒
Tags:07th expansion when cicadas they cry higurashi no naku koro ni sotsu graduation anime ending ed japanese pop j-pop jpop wanpachi cycopton haruto_aizawa haruto appleeaterx mint gelidium
BeatmapID:3118958
BeatmapSetID:1524386

[Difficulty]
HPDrainRate:4.5
CircleSize:3.5
OverallDifficulty:6.5
ApproachRate:7.6
SliderMultiplier:2
SliderTickRate:1

[Events]
//Background and Video events
0,0,"urmomiscool.jpg",0,0
//Break Periods
2,81349,83463
//Storyboard Layer 0 (Background)
//Storyboard Layer 1 (Fail)
//Storyboard Layer 2 (Pass)
//Storyboard Layer 3 (Foreground)
//Storyboard Layer 4 (Overlay)
//Storyboard Sound Samples

[TimingPoints]
792,535.714285714286,3,2,1,40,1,0
792,-125,3,2,1,60,0,0
15256,-111.111111111111,3,2,1,60,0,0
21684,-99.9999999999999,3,2,1,70,0,0
24899,-111.111111111111,3,2,1,60,0,0
31327,-111.111111111111,3,2,1,55,0,0
32934,-111.111111111111,3,2,1,65,0,0
34006,-111.111111111111,3,2,1,70,0,0
34542,-125,3,2,1,60,0,0
43649,-125,3,2,1,65,0,0
47399,-111.111111111111,3,2,1,60,0,0
49006,-100,3,2,1,70,0,0
52220,-100,3,2,1,85,0,0
53827,-83.3333333333333,3,2,1,90,0,0
81149,-83.3333333333333,3,2,1,65,0,0
84363,-100,3,2,1,65,0,0
87577,-100,3,2,1,20,0,0

[Colours]
Combo1 : 255,128,192
Combo2 : 128,128,192
Combo3 : 128,128,255

[HitObjects]
37,84,792,6,0,L|134:69,1,80,2|0,0:2|0:2,0:0:0:0:
191,36,1193,1,0,0:2:0:0:
191,36,1327,2,0,L|203:100,1,40,0|0,0:2|0:2,0:0:0:0:
151,142,1595,1,2,0:0:0:0:
38,259,1863,2,0,L|46:298,3,26.6666666666667,2|2|2|2,0:0|0:0|0:0|0:0,0:0:0:0:
132,372,2399,5,2,0:2:0:0:
221,318,2667,1,0,0:2:0:0:
322,365,2934,2,0,L|362:356,1,40,2|0,0:0|0:0,0:0:0:0:
434,340,3202,1,2,0:2:0:0:
502,247,3470,2,0,L|514:146,1,80,0|0,0:2|0:2,0:0:0:0:
436,57,4006,5,2,0:2:0:0:
356,137,4274,2,0,B|365:170,3,26.6666666666667,2|2|2|2,0:0|0:0|0:0|0:0,0:0:0:0:
309,30,4809,5,2,0:2:0:0:
229,110,5077,2,0,B|238:143,3,26.6666666666667,2|2|2|2,0:0|0:0|0:0|0:0,0:0:0:0:
148,39,5613,6,0,L|54:55,1,80,2|0,0:2|0:2,0:0:0:0:
3,132,6149,1,0,0:2:0:0:
96,190,6417,2,0,L|106:243,1,40,2|0,0:2|0:0,0:0:0:0:
76,310,6684,2,0,L|154:295,1,80,0|0,0:2|0:2,0:0:0:0:
284,381,7220,6,0,P|297:344|292:305,1,80,2|0,0:2|0:2,0:0:0:0:
234,238,7622,1,0,0:2:0:0:
234,238,7756,2,0,L|244:163,1,40,0|0,0:2|0:2,0:0:0:0:
295,141,8024,1,2,0:2:0:0:
418,69,8292,2,0,L|410:33,3,26.6666666666667,2|2|2|2,0:0|0:0|0:0|0:0,0:0:0:0:
496,152,8827,6,0,L|482:242,1,80,2|0,0:2|0:2,0:0:0:0:
456,350,9363,2,0,L|413:340,1,40,0|0,0:2|0:0,0:0:0:0:
342,324,9631,1,2,0:2:0:0:
215,379,9899,2,0,P|225:340|236:301,1,80,0|0,0:2|0:2,0:0:0:0:
142,207,10434,5,2,0:2:0:0:
46,276,10702,2,0,L|53:312,3,26.6666666666667,2|2|2|2,0:0|0:0|0:0|0:0,0:0:0:0:
46,138,11238,5,2,0:2:0:0:
142,207,11506,2,0,L|135:243,3,26.6666666666667,2|2|2|2,0:0|0:0|0:0|0:0,0:0:0:0:
159,82,12042,5,2,0:2:0:0:
256,192,12175,12,2,14988,0:2:0:0:
478,34,15256,6,0,P|466:77|454:120,1,89.9999972534181,2|0,3:2|0:0,0:0:0:0:
452,206,15658,1,2,0:0:0:0:
452,206,15792,2,0,L|397:191,1,44.999998626709,0|0,3:2|0:0,0:0:0:0:
350,138,16059,1,2,0:0:0:0:
251,202,16327,1,2,3:2:0:0:
164,139,16595,2,8,L|109:124,1,44.999998626709,2|2,0:0|0:3,0:0:0:0:
46,83,16863,6,0,L|31:138,1,44.999998626709,2|0,3:2|0:0,0:0:0:0:
79,201,17131,2,0,L|94:256,1,44.999998626709,2|0,0:0|0:0,0:0:0:0:
58,325,17399,2,0,P|103:326|150:300,1,89.9999972534181,2|0,3:2|0:0,0:0:0:0:
242,366,17934,1,0,3:2:0:0:
351,313,18202,2,0,L|355:268,1,44.999998626709,2|0,0:2|0:0,0:0:0:0:
280,218,18470,6,0,L|261:118,1,89.9999972534181,2|2,3:2|0:0,0:0:0:0:
198,74,18872,1,2,0:2:0:0:
198,73,19006,2,0,P|231:43|275:38,1,89.9999972534181,0|2,3:0|0:0,0:0:0:0:
371,83,19542,1,2,3:2:0:0:
472,43,19809,1,2,0:0:0:0:
512,139,20077,6,0,L|504:196,1,44.999998626709,2|0,3:2|0:0,0:0:0:0:
433,222,20345,2,0,L|441:279,1,44.999998626709,2|0,0:0|0:0,0:0:0:0:
447,347,20613,1,2,3:2:0:0:
304,384,20881,2,0,L|294:329,1,44.999998626709,2|0,0:0|0:0,0:0:0:0:
300,258,21149,2,0,P|258:246|217:261,1,89.9999972534181,2|2,3:2|0:0,0:0:0:0:
76,381,21684,6,0,P|65:332|54:283,1,100,6|2,3:2|0:0,0:0:0:0:
0,184,22086,2,0,P|45:203|92:190,1,100,0|0,3:2|3:0,0:0:0:0:
180,169,22488,2,0,L|167:120,1,50,10|0,0:0|0:0,0:0:0:0:
123,52,22756,2,0,L|171:39,1,50,2|8,3:2|0:0,0:0:0:0:
244,0,23024,2,0,L|256:48,1,50,2|0,3:2|0:0,0:0:0:0:
262,132,23292,6,0,L|372:111,1,100,2|2,3:2|0:0,0:0:0:0:
435,71,23693,1,0,3:2:0:0:
435,71,23827,2,0,L|446:127,1,50,2|0,0:0|3:0,0:0:0:0:
512,166,24095,2,0,L|501:227,1,50,12|0,0:0|3:0,0:0:0:0:
435,269,24363,2,0,L|387:254,1,50,2|0,3:2|3:2,0:0:0:0:
301,274,24631,2,0,L|286:321,1,50,2|8,3:2|0:3,0:0:0:0:
210,359,24899,5,6,3:2:0:0:
112,287,25167,1,2,0:0:0:0:
112,287,25300,2,0,L|93:180,1,89.9999972534181,2|0,3:2|0:0,0:0:0:0:
87,116,25702,1,2,3:2:0:0:
196,34,25970,2,0,L|247:45,1,44.999998626709,2|0,3:2|3:0,0:0:0:0:
323,38,26238,2,0,L|311:99,1,44.999998626709,0|0,3:0|0:0,0:0:0:0:
237,131,26506,5,10,0:0:0:0:
184,237,26774,2,0,L|198:292,1,44.999998626709,2|0,0:0|3:0,0:0:0:0:
173,356,27042,1,2,3:2:0:0:
298,384,27309,1,0,3:0:0:0:
417,323,27577,2,0,L|403:270,1,44.999998626709,2|2,3:2|0:0,0:0:0:0:
335,221,27845,2,0,L|349:168,1,44.999998626709,2|10,3:2|0:2,0:0:0:0:
425,143,28113,6,0,P|468:143|501:113,1,89.9999972534181,2|2,3:2|0:0,0:0:0:0:
467,30,28515,1,2,3:2:0:0:
467,30,28649,2,0,P|423:29|390:59,1,89.9999972534181,0|2,3:2|3:2,0:0:0:0:
313,95,29050,1,0,0:0:0:0:
313,95,29184,2,0,L|218:80,1,89.9999972534181,2|2,3:2|3:2,0:0:0:0:
90,27,29720,6,0,P|27:50|21:123,1,134.999995880127,10|0,0:0|3:0,0:0:0:0:
70,168,30256,1,0,3:2:0:0:
15,300,30524,2,0,L|26:351,1,44.999998626709,2|0,3:2|0:0,0:0:0:0:
101,384,30792,2,0,L|152:373,1,44.999998626709,2|0,3:2|0:0,0:0:0:0:
225,360,31059,1,2,3:2:0:0:
341,264,31327,6,0,L|331:204,1,44.999998626709,6|0,3:2|0:0,0:0:0:0:
267,175,31595,2,0,L|222:182,1,44.999998626709,2|0,0:0|0:0,0:0:0:0:
152,135,31863,2,0,P|132:79|207:27,1,134.999995880127,2|0,3:2|3:0,0:0:0:0:
251,3,32399,1,0,3:0:0:0:
385,69,32667,2,0,L|439:57,1,44.999998626709,2|0,3:2|3:0,0:0:0:0:
502,18,32934,6,0,L|514:69,1,44.999998626709,6|8,3:2|0:0,0:0:0:0:
466,134,33202,2,0,L|478:185,1,44.999998626709,2|8,3:2|0:0,0:0:0:0:
433,247,33470,2,0,L|330:265,1,89.9999972534181,10|0,0:0|3:0,0:0:0:0:
237,360,34006,1,0,3:2:0:0:
114,299,34274,1,0,3:0:0:0:
1,370,34542,6,0,L|-15:266,1,80,4|2,3:2|0:0,0:0:0:0:
36,220,34943,1,2,3:2:0:0:
36,220,35077,2,0,L|12:107,1,80,2|2,3:2|3:2,0:0:0:0:
110,43,35613,1,10,0:3:0:0:
110,43,35747,1,4,0:3:0:0:
110,43,35881,2,0,L|216:56,1,80,2|0,0:0|3:2,0:0:0:0:
329,17,36417,6,0,L|323:65,1,40,2|2,0:0|3:2,0:0:0:0:
392,113,36684,2,0,L|374:216,1,80,2|2,3:2|3:2,0:0:0:0:
431,322,37220,1,10,0:3:0:0:
431,322,37354,1,4,0:3:0:0:
431,322,37488,2,0,L|359:307,1,40,2|0,0:0|3:2,0:0:0:0:
316,274,37756,6,0,P|260:295|238:335,1,80,6|2,3:2|0:0,0:0:0:0:
132,366,38292,2,0,L|111:261,1,80,2|2,3:2|3:2,0:0:0:0:
0,198,38827,1,10,0:0:0:0:
0,198,38961,1,8,0:3:0:0:
0,198,39095,2,0,L|73:184,1,40,2|0,3:2|3:2,0:0:0:0:
95,132,39363,6,0,L|192:149,1,80,2|2,3:2|0:0,0:0:0:0:
233,206,39765,1,8,0:0:0:0:
233,206,39899,2,0,L|335:184,1,80,2|2,3:2|3:2,0:0:0:0:
430,269,40434,2,0,L|440:227,1,40,6|0,3:2|0:0,0:0:0:0:
495,171,40702,2,0,L|486:131,1,40,8|8,0:0|0:0,0:0:0:0:
429,68,40970,5,4,3:2:0:0:
303,16,41238,1,2,0:0:0:0:
303,16,41372,1,2,3:2:0:0:
303,16,41506,2,0,L|205:32,1,80,2|2,3:2|3:2,0:0:0:0:
84,13,42042,2,0,L|96:62,1,40,2|8,3:2|0:3,0:0:0:0:
34,99,42309,2,0,L|22:148,1,40,4|2,0:3|0:0,0:0:0:0:
82,202,42577,5,0,3:2:0:0:
31,338,42845,2,0,L|81:328,1,40,2|2,0:0|3:2,0:0:0:0:
145,370,43113,2,0,L|239:353,1,80,2|2,3:2|3:2,0:0:0:0:
304,264,43649,1,10,0:0:0:0:
215,171,43917,2,0,L|207:131,1,40,2|0,3:2|0:0,0:0:0:0:
234,43,44184,6,0,P|295:38|328:76,1,80,6|2,3:2|3:2,0:0:0:0:
439,95,44720,2,0,L|428:139,1,40,2|0,3:2|0:0,0:0:0:0:
484,193,44988,2,0,L|470:240,1,40,10|0,0:0|0:0,0:0:0:0:
419,296,45256,2,0,P|357:286|304:346,1,120,2|0,3:2|0:0,0:0:0:0:
252,376,45792,5,2,3:2:0:0:
140,306,46059,1,8,0:0:0:0:
140,306,46193,1,8,0:0:0:0:
140,306,46327,2,0,L|151:230,1,40,0|0,3:0|3:0,0:0:0:0:
211,216,46595,2,0,L|200:167,1,40,2|2,0:0|0:0,0:0:0:0:
145,122,46863,1,10,0:0:0:0:
243,43,47131,1,2,3:2:0:0:
363,101,47399,6,0,L|496:85,1,89.9999972534181,4|0,3:2|3:2,0:0:0:0:
512,224,47934,2,0,L|422:234,1,89.9999972534181,0|8,3:2|0:0,0:0:0:0:
330,327,48470,1,8,0:0:0:0:
203,277,48738,1,8,0:0:0:0:
71,353,49006,6,0,L|47:255,1,100,6|0,3:2|3:0,0:0:0:0:
109,197,49408,1,0,3:0:0:0:
109,197,49542,2,0,L|91:131,1,50,0|0,3:0|3:0,0:0:0:0:
39,79,49809,2,0,L|115:60,1,50,8|8,0:0|0:0,0:0:0:0:
141,3,50077,2,0,L|217:22,1,50,8|8,3:0|0:0,0:0:0:0:
247,69,50345,1,8,0:0:0:0:
328,24,50479,5,8,0:0:0:0:
341,21,50546,1,8,0:0:0:0:
354,18,50613,1,6,3:2:0:0:
73,18,52220,6,0,L|59:139,1,100,14|0,0:0|0:0,0:0:0:0:
143,153,52622,2,0,L|154:252,1,100,14|0,0:0|3:2,0:0:0:0:
92,309,53024,1,2,3:2:0:0:
247,376,53292,2,0,L|297:364,1,50,2|8,3:2|3:0,0:0:0:0:
382,367,53559,1,8,0:0:0:0:
382,367,53693,1,8,0:0:0:0:
467,270,53827,6,0,B|473:207|500:227|505:146,1,119.999996337891,6|2,3:2|0:0,0:0:0:0:
446,79,54229,2,0,P|385:77|350:137,1,119.999996337891,2|0,3:2|3:2,0:0:0:0:
359,213,54631,2,0,L|301:197,1,59.9999981689454,10|0,0:0|0:0,0:0:0:0:
237,141,54899,2,0,L|179:156,1,59.9999981689454,2|0,0:0|0:0,0:0:0:0:
109,108,55167,2,0,P|92:132|98:161,1,59.9999981689454,2|0,3:2|0:0,0:0:0:0:
13,258,55434,6,0,P|70:254|105:299,1,119.999996337891,2|0,3:2|0:0,0:0:0:0:
95,384,55836,2,0,L|175:368,1,59.9999981689454,2|0,3:2|0:0,0:0:0:0:
216,311,56104,1,2,3:2:0:0:
299,384,56238,2,0,P|304:312|322:240,1,119.999996337891,10|2,0:0|0:0,0:0:0:0:
254,206,56640,1,2,3:2:0:0:
254,206,56774,2,0,L|243:142,1,59.9999981689454,2|2,0:0|3:2,0:0:0:0:
307,59,57042,6,0,P|375:48|426:106,1,119.999996337891,6|2,3:2|0:0,0:0:0:0:
466,147,57443,2,0,P|452:205|442:264,1,119.999996337891,2|2,3:2|3:2,0:0:0:0:
465,354,57845,2,0,L|390:338,1,59.9999981689454,10|0,0:0|0:0,0:0:0:0:
341,292,58113,2,0,L|282:304,1,59.9999981689454,2|0,0:0|0:0,0:0:0:0:
221,360,58381,1,2,3:2:0:0:
221,360,58515,1,0,0:0:0:0:
112,310,58649,6,0,B|95:243|134:260|113:178,1,119.999996337891,2|2,3:2|0:1,0:0:0:0:
42,143,59050,2,0,P|60:119|87:107,1,59.9999981689454,2|2,3:1|0:1,0:0:0:0:
90,25,59318,1,10,0:0:0:0:
90,25,59385,1,8,0:0:0:0:
90,25,59452,2,0,P|119:29|143:47,1,59.9999981689454,2|0,0:0|3:0,0:0:0:0:
191,119,59720,1,8,0:0:0:0:
327,45,59988,1,0,3:0:0:0:
454,120,60256,6,0,B|441:181|486:169|460:256,1,119.999996337891,4|2,3:2|3:2,0:0:0:0:
498,324,60658,1,0,3:0:0:0:
498,324,60792,2,0,P|459:327|425:308,1,59.9999981689454,2|0,0:0|3:0,0:0:0:0:
365,267,61059,2,0,L|294:284,1,59.9999981689454,10|0,0:0|0:0,0:0:0:0:
240,362,61327,2,0,L|226:303,1,59.9999981689454,2|0,0:0|0:0,0:0:0:0:
156,252,61595,2,0,L|169:193,1,59.9999981689454,2|0,3:2|0:0,0:0:0:0:
274,129,61863,6,0,B|294:114|294:114|266:4,1,119.999996337891,2|0,3:2|0:0,0:0:0:0:
180,0,62265,2,0,B|132:12|132:12|127:22|127:22|69:37,1,119.999996337891,2|2,3:2|3:2,0:0:0:0:
23,102,62667,2,0,L|43:162,1,59.9999981689454,10|0,0:0|0:0,0:0:0:0:
84,235,62934,2,0,L|64:295,1,59.9999981689454,2|8,3:2|0:0,0:0:0:0:
12,360,63202,1,2,3:2:0:0:
195,289,63470,6,0,L|268:308,1,59.9999981689454,4|0,3:2|0:0,0:0:0:0:
326,367,63738,1,2,0:0:0:0:
326,367,63872,1,2,3:2:0:0:
395,305,64006,2,0,P|405:238|360:186,1,119.999996337891,2|8,0:0|0:0,0:0:0:0:
159,128,64542,6,0,L|87:148,1,59.9999981689454,2|2,0:0|0:0,0:0:0:0:
30,100,64809,1,2,3:2:0:0:
30,100,64943,1,2,0:0:0:0:
121,15,65077,6,0,P|182:13|219:53,1,119.999996337891,14|0,0:0|3:0,0:0:0:0:
276,126,65479,2,0,P|325:136|380:96,1,119.999996337891,14|0,0:0|3:0,0:0:0:0:
438,30,65881,2,0,P|481:41|456:110,1,119.999996337891,14|0,0:0|3:0,0:0:0:0:
430,182,66283,1,10,0:0:0:0:
430,182,66350,1,8,0:0:0:0:
430,182,66417,2,0,L|439:220,3,29.9999990844727,8|8|8|8,0:0|0:0|0:0|0:0,0:0:0:0:
441,250,66684,6,0,B|377:271|417:294|349:324,1,119.999996337891,6|2,3:2|0:0,0:0:0:0:
260,361,67086,2,0,P|234:308|268:251,1,119.999996337891,2|2,3:2|3:2,0:0:0:0:
327,203,67488,2,0,L|313:136,1,59.9999981689454,10|0,0:0|0:0,0:0:0:0:
324,58,67756,2,0,L|257:72,1,59.9999981689454,2|0,0:0|0:0,0:0:0:0:
199,125,68024,2,0,L|140:112,1,59.9999981689454,2|0,3:2|0:0,0:0:0:0:
43,168,68292,6,0,P|9:217|45:290,1,119.999996337891,2|0,3:2|0:0,0:0:0:0:
98,327,68693,2,0,L|167:312,1,59.9999981689454,2|0,3:2|0:2,0:0:0:0:
220,249,68961,1,2,3:2:0:0:
220,249,69095,2,0,B|279:267|244:297|332:331,1,119.999996337891,10|2,0:0|0:0,0:0:0:0:
384,382,69497,1,8,0:0:0:0:
384,382,69631,2,0,P|396:338|406:309,1,59.9999981689454,2|0,0:0|3:0,0:0:0:0:
496,247,69899,6,0,B|485:180|485:180|489:174|489:174|482:113,1,119.999996337891,6|2,3:2|0:0,0:0:0:0:
479,38,70300,2,0,P|419:37|390:89,1,119.999996337891,2|0,3:2|3:0,0:0:0:0:
318,133,70702,2,0,L|246:114,1,59.9999981689454,10|0,0:0|0:0,0:0:0:0:
184,57,70970,2,0,P|167:89|173:125,1,59.9999981689454,2|0,0:0|0:0,0:0:0:0:
212,189,71238,1,2,3:2:0:0:
212,189,71372,1,0,3:0:0:0:
121,255,71506,6,0,P|69:247|27:316,1,119.999996337891,2|2,3:2|0:1,0:0:0:0:
62,378,71908,1,2,3:1:0:0:
62,378,72042,2,0,L|136:362,1,59.9999981689454,2|2,0:1|3:1,0:0:0:0:
195,317,72309,2,0,L|253:329,1,59.9999981689454,10|0,0:0|3:0,0:0:0:0:
326,384,72577,1,8,0:0:0:0:
326,384,72711,1,8,0:0:0:0:
396,327,72845,2,0,L|386:256,1,59.9999981689454,0|0,3:0|3:0,0:0:0:0:
298,199,73113,6,0,B|285:141|250:165|236:81,1,119.999996337891,4|2,3:2|0:0,0:0:0:0:
279,23,73515,1,0,3:0:0:0:
279,23,73649,2,0,L|350:33,1,59.9999981689454,2|0,0:0|3:0,0:0:0:0:
418,1,73917,2,0,L|489:11,1,59.9999981689454,10|0,0:0|0:0,0:0:0:0:
512,83,74184,2,0,L|501:170,1,59.9999981689454,2|0,0:0|0:0,0:0:0:0:
416,168,74452,2,0,L|429:226,1,59.9999981689454,2|0,3:2|0:0,0:0:0:0:
503,318,74720,6,0,P|445:311|395:359,1,119.999996337891,2|0,3:2|0:0,0:0:0:0:
320,383,75122,2,0,B|249:365|284:343|195:321,1,119.999996337891,2|2,3:2|3:2,0:0:0:0:
131,367,75524,2,0,L|120:295,1,59.9999981689454,10|0,0:0|0:0,0:0:0:0:
50,255,75792,2,0,P|39:199|93:156,1,119.999996337891,2|2,0:0|3:2,0:0:0:0:
162,179,76193,1,0,0:0:0:0:
245,96,76327,6,0,B|315:82|282:51|351:37,1,119.999996337891,4|2,3:2|0:0,0:0:0:0:
419,82,76729,1,2,3:2:0:0:
512,49,76863,2,0,P|493:106|473:182,1,119.999996337891,2|8,0:0|0:0,0:0:0:0:
475,318,77399,2,0,L|416:331,1,59.9999981689454,2|0,3:2|0:0,0:0:0:0:
354,384,77667,1,2,3:2:0:0:
354,384,77800,1,2,3:2:0:0:
254,322,77934,6,0,P|239:251|220:191,1,119.999996337891,14|0,0:0|3:0,0:0:0:0:
271,123,78336,2,0,P|317:126|369:189,1,119.999996337891,2|0,3:2|3:0,0:0:0:0:
447,216,78738,2,0,P|494:181|474:105,1,119.999996337891,14|2,0:0|3:2,0:0:0:0:
499,18,79140,2,0,P|441:33|382:44,1,119.999996337891,2|0,3:2|3:0,0:0:0:0:
277,8,79542,5,14,0:0:0:0:
277,8,79675,2,0,L|210:1,1,59.9999981689454,0|0,3:0|3:0,0:0:0:0:
150,74,79943,5,6,3:2:0:0:
150,74,80077,2,0,L|83:67,1,59.9999981689454,0|0,3:0|3:0,0:0:0:0:
0,155,80345,5,6,3:2:0:0:
59,229,80479,2,0,L|111:220,2,29.9999990844727,8|8|0,0:0|0:0|3:2,0:0:0:0:
8,328,80747,6,0,P|71:318|129:353,1,119.999996337891,10|8,0:0|0:0,0:0:0:0:
200,384,81149,5,6,3:2:0:0:
512,87,84363,6,0,P|463:73|416:58,1,100,6|2,3:1|0:0,0:0:0:0:
336,6,84765,2,0,P|326:42|319:65,1,50,2|0,3:2|0:0,0:0:0:0:
376,130,85033,2,0,L|379:154,2,25,0|0|2,0:0|0:0|0:0,0:0:0:0:
286,134,85300,6,0,P|261:137|237:144,1,50,2|2,0:0|0:0,0:0:0:0:
176,99,85568,2,0,P|151:95|127:88,1,50,2|2,0:0|0:0,0:0:0:0:
54,121,85836,1,2,0:0:0:0:
54,121,85970,5,2,0:1:0:0:
256,192,86104,12,0,87577,0:0:0:0:
