osu file format v14

[General]
AudioFilename: audio.mp3
AudioLeadIn: 0
PreviewTime: 52241
Countdown: 0
SampleSet: Soft
StackLeniency: 0.7
Mode: 2
LetterboxInBreaks: 0
WidescreenStoryboard: 0

[Editor]
DistanceSpacing: 1.4
BeatDivisor: 4
GridSize: 32
TimelineZoom: 1.4

[Metadata]
Title:Missing Promise (TV Size)
TitleUnicode:Missing Promise (TV Size)
Artist:Suzuki Konomi
ArtistUnicode:鈴木このみ
Creator:Terton
Version:Yakusoku
Source:ひぐらしのなく頃に卒
Tags:Onegai SkyFlame 07th expansion when cicadas they cry higurashi no naku koro ni sotsu graduation anime ending ed japanese pop j-pop jpop
BeatmapID:3248391
BeatmapSetID:1590404

[Difficulty]
HPDrainRate:6
CircleSize:4.5
OverallDifficulty:9.2
ApproachRate:9.2
SliderMultiplier:3
SliderTickRate:2

[Events]
//Background and Video events
0,0,"bg.jpg",0,0
//Break Periods
//Storyboard Layer 0 (Background)
//Storyboard Layer 1 (Fail)
//Storyboard Layer 2 (Pass)
//Storyboard Layer 3 (Foreground)
//Storyboard Layer 4 (Overlay)
//Storyboard Sound Samples

[TimingPoints]
76,535.714285714286,3,2,17,45,1,0
210,-100,3,2,2,45,0,0
344,-100,3,2,3,45,0,0
478,-100,3,2,4,45,0,0
612,-100,3,2,5,45,0,0
745,-100,3,2,6,45,0,0
880,-100,3,2,7,45,0,0
1148,-100,3,2,8,45,0,0
1237,-100,3,2,7,45,0,0
1327,-100,3,2,8,45,0,0
1416,-100,3,2,5,45,0,0
1684,-100,3,2,4,45,0,0
1952,-100,3,2,5,45,0,0
2219,-100,3,2,9,45,0,0
2487,-100,3,2,6,45,0,0
2754,-100,3,2,5,45,0,0
3023,-100,3,2,4,45,0,0
3291,-100,3,2,10,45,0,0
3559,-100,3,2,3,45,0,0
3648,-100,3,2,4,45,0,0
3738,-100,3,2,3,45,0,0
3827,-100,3,2,10,45,0,0
4095,-100,3,2,3,45,0,0
4451,-100,3,2,4,45,0,0
4541,-100,3,2,3,45,0,0
4630,-100,3,2,10,45,0,0
4898,-100,3,2,3,45,0,0
5166,-100,3,2,2,45,0,0
5434,-100,3,2,11,45,0,0
5702,-100,3,2,12,45,0,0
5969,-100,3,2,13,45,0,0
6237,-100,3,2,17,45,0,0
6505,-100,3,2,14,45,0,0
6773,-100,3,2,17,45,0,0
6907,-100,3,2,13,45,0,0
7041,-100,3,2,12,45,0,0
7175,-100,3,2,10,45,0,0
7309,-100,3,2,2,45,0,0
7576,-100,3,2,11,45,0,0
7666,-100,3,2,2,45,0,0
7755,-100,3,2,11,45,0,0
7845,-100,3,2,12,45,0,0
8112,-100,3,2,13,45,0,0
8380,-100,3,2,12,45,0,0
8648,-100,3,2,4,45,0,0
8916,-100,3,2,10,45,0,0
9183,-100,3,2,12,45,0,0
9451,-100,3,2,13,45,0,0
9719,-100,3,2,15,45,0,0
9986,-100,3,2,17,45,0,0
10077,-100,3,2,13,45,0,0
10166,-100,3,2,17,45,0,0
10255,-100,3,2,15,45,0,0
10523,-100,3,2,17,45,0,0
10881,-100,3,2,13,45,0,0
10970,-100,3,2,17,45,0,0
11059,-100,3,2,15,45,0,0
11327,-100,3,2,17,45,0,0
11594,-100,3,2,10,45,0,0
11862,-100,3,2,13,45,0,0
12130,-100,3,2,12,45,0,0
12398,-100,3,2,11,45,0,0
12666,-100,3,2,4,45,0,0
12934,-100,3,2,2,45,0,0
13202,-100,3,2,8,45,0,0
13469,-100,3,2,16,45,0,0
13737,-100,3,2,4,45,0,0
14004,-100,3,2,6,45,0,0
14272,-100,3,2,7,45,0,0
14540,-100,4,2,1,45,0,0
20968,-100,4,2,1,60,0,0
24183,-100,4,2,1,45,0,0
32822,-100,4,2,1,55,0,0
39986,-100,4,2,1,40,0,0
40187,-100,4,2,1,55,0,0
46683,-100,4,2,1,40,0,0
47687,-100,4,2,1,5,0,0
47754,-100,4,2,1,40,0,0
48223,-100,4,2,1,5,0,0
48290,-100,4,2,1,60,0,0
49898,-100,4,2,1,50,0,0
51505,-100,4,2,1,60,0,0
51907,-100,4,2,1,70,0,0
52308,-66.6666666666667,4,2,1,70,0,0
53111,-66.6666666666667,4,2,1,80,0,1
64361,-66.6666666666667,4,2,1,80,0,0
65968,-66.6666666666667,4,2,1,80,0,1
80433,-66.6666666666667,4,2,1,80,0,0
80835,-66.6666666666667,4,2,1,60,0,0
83647,-100,4,2,1,60,0,0

[Colours]
Combo1 : 228,228,3
Combo2 : 255,0,6
Combo3 : 0,128,13

[HitObjects]
314,305,76,5,2,0:2:0:0:
384,289,209,1,2,0:2:0:0:
417,224,343,1,2,0:2:0:0:
386,159,477,1,2,0:0:0:0:
297,161,611,1,2,0:0:0:0:
386,159,744,1,2,0:0:0:0:
197,230,879,2,0,L|46:229,1,150,2|2,0:0|0:2,0:0:0:0:
116,161,1236,1,2,0:2:0:0:
47,229,1326,1,2,0:2:0:0:
116,161,1415,1,2,0:2:0:0:
479,125,1683,6,0,L|304:124,2,150,2|2|2,0:2|0:2|0:2,0:0:0:0:
32,49,2486,2,0,L|207:48,2,150,2|2|2,0:2|0:2|0:2,0:0:0:0:
476,52,3290,5,2,0:2:0:0:
255,239,3558,1,2,0:2:0:0:
310,206,3647,1,2,0:2:0:0:
310,206,3736,1,2,0:2:0:0:
255,239,3825,1,2,0:2:0:0:
36,103,4093,1,2,0:2:0:0:
257,239,4361,1,2,0:2:0:0:
202,206,4450,1,2,0:2:0:0:
202,206,4539,1,2,0:2:0:0:
257,239,4628,1,2,0:2:0:0:
490,108,4897,5,2,0:2:0:0:
169,104,5165,2,0,L|19:104,1,150,2|2,0:2|0:2,0:0:0:0:
244,221,5701,2,0,L|94:221,2,150,2|2|2,0:2|0:2|0:2,0:0:0:0:
23,221,6504,5,2,0:2:0:0:
448,149,6772,2,0,L|356:149,1,75,2|2,0:2|0:2,0:0:0:0:
471,97,7040,2,0,L|379:97,1,75,2|2,0:2|0:2,0:0:0:0:
88,53,7308,2,0,L|282:53,1,150,2|2,0:2|0:2,0:0:0:0:
166,117,7665,1,2,0:2:0:0:
238,53,7754,1,2,0:2:0:0:
166,117,7843,1,2,0:2:0:0:
488,281,8111,6,0,L|313:280,2,150,2|2|2,0:2|0:2|0:2,0:0:0:0:
119,303,8915,2,0,L|120:134,1,150,2|2,0:2|0:2,0:0:0:0:
274,156,9451,1,2,0:2:0:0:
38,39,9718,6,0,L|218:38,1,150,2|2,0:2|0:2,0:0:0:0:
127,101,10076,1,2,0:2:0:0:
67,105,10165,1,2,0:2:0:0:
127,101,10254,1,2,0:2:0:0:
462,38,10522,2,0,L|282:37,1,150,2|2,0:2|0:2,0:0:0:0:
373,100,10880,1,2,0:2:0:0:
433,104,10969,1,2,0:2:0:0:
373,100,11058,1,2,0:2:0:0:
47,320,11326,6,0,L|46:205,1,75,2|0,0:2|0:0,0:0:0:0:
168,242,11593,2,0,L|19:246,1,150,2|2,0:2|0:2,0:0:0:0:
350,307,12129,2,0,L|350:211,1,75,2|0,0:2|0:0,0:0:0:0:
228,185,12397,2,0,L|406:185,1,150,2|2,0:2|0:2,0:0:0:0:
49,86,12933,6,0,L|152:85,1,75,2|0,0:2|0:0,0:0:0:0:
199,84,13201,1,2,0:2:0:0:
123,85,13334,1,0,0:0:0:0:
371,332,13468,2,0,L|374:241,1,75,2|0,0:2|0:0,0:0:0:0:
104,333,13736,2,0,L|187:334,1,75,2|0,0:2|0:0,0:0:0:0:
443,330,14004,2,0,L|446:243,1,75,2|0,0:2|0:0,0:0:0:0:
343,349,14272,1,2,0:2:0:0:
139,220,14406,1,0,0:0:0:0:
349,173,14540,6,0,L|192:173,1,150,6|0,3:2|0:0,0:0:0:0:
44,317,15076,2,0,L|44:159,1,150,0|2,3:0|3:2,0:0:0:0:
195,163,15611,2,0,L|367:163,1,150,2|2,3:2|0:0,0:0:0:0:
268,99,16013,1,0,0:0:0:0:
44,317,16147,6,0,L|42:131,1,150,2|2,3:2|0:0,0:0:0:0:
119,171,16549,1,0,0:0:0:0:
195,357,16683,2,0,L|195:200,1,150,2|0,3:2|0:0,0:0:0:0:
363,226,17218,2,0,L|362:50,1,150,0|2,3:0|0:0,0:0:0:0:
35,76,17754,6,0,L|197:76,1,150,2|2,3:2|0:0,0:0:0:0:
110,20,18156,1,2,0:0:0:0:
35,76,18290,2,0,L|197:76,1,150,0|2,3:0|0:0,0:0:0:0:
347,356,18826,2,0,L|349:198,1,150,2|2,3:2|0:0,0:0:0:0:
273,352,19227,1,0,0:0:0:0:
67,238,19361,6,0,L|218:235,1,150,2|2,3:2|0:0,0:0:0:0:
370,165,19897,2,0,L|219:162,1,150,2|2,3:2|0:0,0:0:0:0:
377,95,20433,2,0,L|226:92,1,150,2|2,3:2|0:0,0:0:0:0:
301,29,20834,1,2,0:0:0:0:
38,205,20968,6,0,L|142:203,1,75,6|0,3:2|0:0,0:0:0:0:
25,206,21236,1,2,0:0:0:0:
359,232,21370,2,0,L|174:232,1,150,0|0,3:0|3:0,0:0:0:0:
20,88,21772,2,0,L|111:88,1,75,8|0,0:0|0:0,0:0:0:0:
345,342,22040,2,0,L|345:247,1,75,2|8,0:0|0:0,0:0:0:0:
135,338,22308,1,2,3:2:0:0:
472,173,22576,6,0,L|368:171,1,75,2|8,3:2|0:0,0:0:0:0:
485,174,22844,1,2,0:0:0:0:
180,112,22977,2,0,L|358:112,1,150,8|0,0:0|3:0,0:0:0:0:
48,285,23379,2,0,L|49:193,1,75,6|0,3:2|0:0,0:0:0:0:
324,205,23647,2,0,L|248:207,1,75,2|0,3:2|3:0,0:0:0:0:
483,207,23915,2,0,L|483:127,1,75,2|0,3:2|3:0,0:0:0:0:
137,156,24183,6,0,B|137:56|137:56|272:56,1,225,6|2,0:0|3:2,0:0:0:0:
465,57,24986,2,0,L|466:-22,1,75,2|0,0:0|0:0,0:0:0:0:
390,60,25254,2,0,L|236:60,1,150,2|0,0:0|3:0,0:0:0:0:
320,125,25656,1,0,0:0:0:0:
76,314,25790,6,0,L|71:212,1,75,2|0,3:2|0:0,0:0:0:0:
150,231,26058,2,0,L|241:233,1,75,2|0,0:0|3:0,0:0:0:0:
104,163,26326,2,0,P|68:115|131:74,1,150,2|0,3:2|0:0,0:0:0:0:
204,70,26727,1,0,0:0:0:0:
280,68,26861,1,0,3:0:0:0:
204,70,26995,1,0,3:0:0:0:
129,73,27129,2,0,L|131:-1,1,75,2|8,0:0|3:0,0:0:0:0:
341,165,27397,6,0,P|393:152|432:68,1,150,6|2,0:0|0:0,0:0:0:0:
347,80,27799,2,0,L|182:81,1,150,2|0,3:2|0:0,0:0:0:0:
276,209,28201,2,0,L|277:126,1,75,2|0,0:0|0:0,0:0:0:0:
60,289,28468,2,0,L|216:290,1,150,2|2,3:2|0:0,0:0:0:0:
130,228,28870,1,0,0:0:0:0:
318,227,29004,6,0,L|470:226,1,150,2|0,3:2|0:0,0:0:0:0:
391,159,29406,1,0,3:0:0:0:
324,109,29540,1,0,3:0:0:0:
324,109,29674,1,0,0:0:0:0:
455,101,29808,2,0,L|456:23,1,75,2|0,3:2|0:0,0:0:0:0:
189,33,30076,2,0,L|350:31,1,150,6|2,3:2|0:0,0:0:0:0:
92,224,30611,6,0,L|91:143,1,75,6|0,0:0|0:0,0:0:0:0:
335,153,30879,2,0,L|221:154,1,75,2|0,0:0|0:0,0:0:0:0:
41,52,31147,2,0,L|227:52,1,150,2|0,3:2|3:0,0:0:0:0:
111,123,31549,1,0,0:0:0:0:
111,123,31683,1,0,3:0:0:0:
220,119,31817,2,0,L|314:120,2,75,0|2|0,0:0|3:2|0:0,0:0:0:0:
17,221,32218,6,0,L|118:221,1,75,6|8,0:0|0:0,0:0:0:0:
54,220,32419,1,8,0:0:0:0:
17,221,32486,1,2,3:2:0:0:
264,279,32620,2,0,L|356:279,2,75,8|2|8,0:0|3:2|0:0,0:0:0:0:
140,299,33022,2,0,L|48:299,2,75,0|0|0,3:0|0:0|3:0,0:0:0:0:
19,236,33424,1,0,0:0:0:0:
342,308,33558,2,0,L|342:209,1,75,0|0,3:0|0:0,0:0:0:0:
70,121,33826,6,0,L|252:121,1,150,4|2,3:2|0:0,0:0:0:0:
142,61,34227,1,2,3:2:0:0:
329,147,34361,2,0,L|329:50,1,75,2|0,3:2|0:0,0:0:0:0:
219,52,34629,2,0,L|126:53,1,75,2|0,3:2|0:0,0:0:0:0:
382,254,34897,2,0,L|467:257,1,75,10|8,0:3|0:3,0:0:0:0:
154,364,35165,2,0,L|154:271,1,75,2|0,0:0|0:0,0:0:0:0:
281,229,35433,6,0,L|101:228,1,150,4|2,3:2|0:0,0:0:0:0:
209,163,35834,1,2,0:0:0:0:
20,142,35968,2,0,L|20:45,1,75,2|0,3:2|0:0,0:0:0:0:
130,48,36236,2,0,L|223:49,1,75,2|0,3:2|0:0,0:0:0:0:
404,56,36504,2,0,L|316:53,1,75,10|8,3:3|3:0,0:0:0:0:
111,260,36772,2,0,L|111:181,1,75,2|0,0:0|0:0,0:0:0:0:
414,174,37040,6,0,L|328:176,1,75,6|0,0:0|0:0,0:0:0:0:
111,185,37308,2,0,L|107:90,1,75,2|0,0:0|3:0,0:0:0:0:
339,175,37576,2,0,L|442:173,1,75,2|0,3:2|0:0,0:0:0:0:
96,281,37843,2,0,L|171:281,1,75,2|0,3:2|0:0,0:0:0:0:
364,293,38111,2,0,L|445:295,1,75,10|8,3:0|3:0,0:0:0:0:
211,116,38379,2,0,L|125:119,1,75,2|0,0:0|0:0,0:0:0:0:
355,32,38647,6,0,L|190:31,1,150,2|2,3:2|0:0,0:0:0:0:
288,94,39049,1,0,3:0:0:0:
57,292,39183,2,0,L|56:197,1,75,2|0,0:0|0:0,0:0:0:0:
283,213,39451,2,0,L|173:212,1,75,2|8,3:2|0:3,0:0:0:0:
19,117,39718,2,0,L|129:116,1,75,6|0,3:2|0:0,0:0:0:0:
285,126,39986,1,10,0:0:0:0:
330,112,40052,1,8,0:0:0:0:
330,112,40119,1,8,0:0:0:0:
285,126,40186,1,8,0:0:0:0:
104,197,40254,6,0,L|13:199,2,75,4|0|2,0:0|0:0|0:0,0:0:0:0:
227,195,40656,1,10,3:0:0:0:
31,62,40790,2,0,L|208:61,1,150,2|2,3:2|0:0,0:0:0:0:
99,18,41192,1,0,0:0:0:0:
371,59,41326,6,0,L|194:58,2,150,10|2|4,3:0|0:0|3:2,0:0:0:0:
123,245,42129,2,0,L|123:146,1,75,2|0,0:0|0:0,0:0:0:0:
319,302,42397,2,0,L|146:300,1,150,2|8,3:2|3:0,0:0:0:0:
493,148,42933,2,0,L|399:150,1,75,10|0,0:0|0:0,0:0:0:0:
127,61,43201,2,0,L|233:61,1,75,2|0,3:2|3:0,0:0:0:0:
475,330,43468,6,0,L|477:245,1,75,14|0,0:0|0:0,0:0:0:0:
187,133,43736,2,0,L|104:134,1,75,2|0,3:0|3:0,0:0:0:0:
411,40,44004,2,0,L|494:41,1,75,10|0,3:0|0:0,0:0:0:0:
221,170,44272,1,10,0:0:0:0:
438,250,44540,1,2,3:2:0:0:
350,223,44673,1,0,3:0:0:0:
346,132,44807,1,0,3:0:0:0:
430,98,44941,1,0,0:0:0:0:
145,252,45076,6,0,L|49:251,1,75,4|0,3:2|0:0,0:0:0:0:
295,257,45343,1,8,0:0:0:0:
170,167,45477,1,8,0:0:0:0:
445,334,45611,2,0,L|446:247,1,75,0|0,3:0|3:0,0:0:0:0:
335,205,45879,1,2,0:0:0:0:
445,259,46013,1,2,0:0:0:0:
170,199,46147,1,10,0:0:0:0:
415,87,46415,2,0,L|308:87,1,75,2|0,3:2|0:0,0:0:0:0:
90,38,46683,6,0,L|257:38,1,150,4|10,3:2|3:0,0:0:0:0:
160,119,47084,1,0,0:0:0:0:
360,288,47218,2,0,L|361:210,1,75,10|0,3:0|0:0,0:0:0:0:
222,290,47486,2,0,L|320:291,1,75,8|0,3:0|0:0,0:0:0:0:
435,212,47754,2,0,L|337:213,1,75,8|0,3:0|0:0,0:0:0:0:
148,112,48022,2,0,L|255:112,1,75,10|0,3:0|0:0,0:0:0:0:
423,62,48290,6,0,L|256:62,1,150,6|10,3:2|3:0,0:0:0:0:
353,143,48691,1,8,3:0:0:0:
153,312,48825,2,0,L|152:234,1,75,10|8,3:0|3:0,0:0:0:0:
291,314,49093,2,0,L|193:315,1,75,8|8,3:0|0:0,0:0:0:0:
78,236,49361,2,0,L|176:237,1,75,8|8,3:0|0:0,0:0:0:0:
354,243,49629,1,2,0:0:0:0:
388,232,49695,1,0,0:0:0:0:
404,200,49762,1,8,0:0:0:0:
390,166,49829,1,8,0:0:0:0:
167,157,49897,6,0,B|39:157|39:157|389:157|389:157|116:157,1,750,6|0,3:2|0:0,0:0:0:0:
485,106,51504,5,14,0:0:0:0:
239,94,51638,2,0,L|239:18,1,75
485,106,51906,1,12,0:0:0:0:
239,94,52040,2,0,L|330:94,1,75
101,303,52308,2,0,P|55:270|121:190,1,112.500004291535,10|0,0:0|0:0,0:0:0:0:
354,350,52576,2,0,P|400:317|334:237,1,112.500004291535,2|8,3:2|3:0,0:0:0:0:
76,221,52843,1,10,3:0:0:0:
29,195,52909,1,0,0:0:0:0:
30,141,52976,1,8,3:0:0:0:
77,118,53043,1,0,0:0:0:0:
271,109,53111,6,0,L|401:110,2,112.500004291535,6|0|2,0:0|0:0|0:0,0:0:0:0:
40,24,53513,2,0,L|292:25,1,225.000008583069,2|0,3:0|0:0,0:0:0:0:
129,240,53915,2,0,L|127:120,1,112.500004291535,10|0,0:0|0:0,0:0:0:0:
263,119,54183,2,0,L|376:121,2,112.500004291535,2|0|2,0:0|0:0|3:2,0:0:0:0:
179,119,54584,1,0,0:0:0:0:
417,324,54718,6,0,L|445:86,1,225.000008583069,2|0,3:0|0:0,0:0:0:0:
175,316,55120,2,0,L|403:319,1,225.000008583069,2|2,3:2|0:0,0:0:0:0:
171,175,55522,2,0,P|90:164|62:32,1,225.000008583069,10|2,0:0|0:0,0:0:0:0:
144,42,55924,1,2,0:0:0:0:
57,40,56058,1,2,0:0:0:0:
144,42,56192,1,2,0:0:0:0:
368,262,56326,6,0,L|368:135,1,112.500004291535,6|0,3:2|0:0,0:0:0:0:
233,259,56593,1,2,0:0:0:0:
481,90,56727,2,0,L|245:89,1,225.000008583069,2|2,3:0|0:0,0:0:0:0:
369,157,57129,2,0,L|505:156,1,112.500004291535,10|0,0:0|0:0,0:0:0:0:
225,271,57397,2,0,L|366:272,1,112.500004291535,2|0,0:0|0:0,0:0:0:0:
35,220,57665,2,0,L|34:84,1,112.500004291535,2|0,3:2|0:0,0:0:0:0:
291,186,57933,5,2,3:2:0:0:
156,185,58067,1,10,0:0:0:0:
446,130,58201,1,2,0:0:0:0:
344,131,58334,1,2,3:2:0:0:
343,29,58468,1,2,0:0:0:0:
444,27,58602,1,10,0:0:0:0:
367,30,58736,1,10,0:0:0:0:
296,30,58870,1,0,3:0:0:0:
367,30,59004,1,8,0:0:0:0:
444,27,59138,1,0,3:0:0:0:
196,195,59272,2,0,L|75:195,1,112.500004291535,0|0,3:0|3:0,0:0:0:0:
343,110,59540,6,0,L|116:108,1,225.000008583069,4|2,3:2|0:0,0:0:0:0:
203,42,59942,2,0,L|451:43,1,225.000008583069,0|0,3:0|3:0,0:0:0:0:
157,299,60343,2,0,L|152:164,1,112.500004291535,10|0,0:0|0:0,0:0:0:0:
395,227,60611,2,0,L|253:224,1,112.500004291535,2|0,0:0|0:0,0:0:0:0:
495,164,60879,2,0,L|353:161,1,112.500004291535,2|0,3:2|0:0,0:0:0:0:
46,42,61147,6,0,L|309:40,1,225.000008583069,10|0,0:0|0:0,0:0:0:0:
25,305,61549,2,0,L|26:187,1,112.500004291535,2|0,3:2|0:0,0:0:0:0:
266,200,61817,1,2,3:2:0:0:
27,130,61951,2,0,L|168:129,1,112.500004291535,10|0,0:0|0:0,0:0:0:0:
429,57,62218,2,0,L|285:57,1,112.500004291535,2|8,3:0|0:0,0:0:0:0:
27,130,62486,2,0,L|167:130,1,112.500004291535,2|0,3:2|3:0,0:0:0:0:
461,132,62754,5,4,3:2:0:0:
137,239,63022,2,0,L|21:238,2,112.500004291535,2|2|2,0:0|0:0|0:0,0:0:0:0:
250,239,63424,1,0,0:0:0:0:
115,159,63558,2,0,L|111:30,1,112.500004291535,8|0,0:0|0:0,0:0:0:0:
363,130,63826,2,0,L|238:127,2,112.500004291535,2|2|2,0:0|0:0|3:2,0:0:0:0:
491,138,64227,1,2,0:0:0:0:
153,321,64361,6,0,L|291:322,1,112.500004291535,10|0,0:0|3:0,0:0:0:0:
390,325,64629,1,0,3:0:0:0:
156,238,64763,2,0,L|294:239,1,112.500004291535,10|0,0:0|3:0,0:0:0:0:
393,242,65031,1,0,3:0:0:0:
84,189,65165,2,0,L|85:67,1,112.500004291535,10|0,0:0|3:0,0:0:0:0:
211,78,65433,1,0,3:0:0:0:
447,170,65567,1,10,0:0:0:0:
306,165,65701,1,8,0:0:0:0:
447,170,65834,1,8,0:0:0:0:
58,316,65968,6,0,L|195:316,2,112.500004291535,6|0|2,0:0|0:0|0:0,0:0:0:0:
309,315,66370,2,0,P|381:251|274:190,1,225.000008583069,2|2,3:2|3:2,0:0:0:0:
165,104,66772,2,0,L|445:104,2,225.000008583069,10|2|2,0:0|0:0|3:2,0:0:0:0:
492,278,67576,6,0,L|494:157,1,112.500004291535,2|0,3:2|0:0,0:0:0:0:
359,189,67843,1,0,0:0:0:0:
492,278,67977,2,0,L|361:278,2,112.500004291535,2|0|2,3:2|0:0|3:2,0:0:0:0:
220,281,68379,2,0,P|148:217|255:156,1,225.000008583069,10|2,0:0|0:0,0:0:0:0:
311,143,68781,1,8,0:0:0:0:
222,144,68915,1,2,0:0:0:0:
133,146,69049,1,0,3:0:0:0:
373,40,69183,6,0,L|236:40,1,112.500004291535,6|0,0:0|0:0,0:0:0:0:
397,103,69451,1,2,0:0:0:0:
146,283,69584,2,0,L|433:283,1,225.000008583069,2|0,3:2|3:0,0:0:0:0:
235,210,69986,2,0,L|231:79,1,112.500004291535,10|0,0:0|0:0,0:0:0:0:
466,38,70254,2,0,L|231:37,1,225.000008583069,2|2,0:0|3:2,0:0:0:0:
493,242,70790,6,0,L|370:241,1,112.500004291535,2|8,3:2|0:0,0:0:0:0:
130,235,71058,2,0,L|264:237,3,112.500004291535,2|2|2|2,0:0|3:2|0:0|3:2,0:0:0:0:
378,163,71593,2,0,L|381:47,1,112.500004291535,10|0,0:0|3:0,0:0:0:0:
245,167,71861,2,0,L|385:168,1,112.500004291535,8|8,0:0|0:0,0:0:0:0:
217,328,72129,2,0,L|220:212,1,112.500004291535,0|0,3:0|3:0,0:0:0:0:
459,324,72397,6,0,L|208:320,2,225.000008583069,4|2|2,3:2|0:0|0:0,0:0:0:0:
223,242,73201,2,0,L|96:240,1,112.500004291535,10|0,0:0|0:0,0:0:0:0:
359,247,73468,2,0,L|361:126,1,112.500004291535,2|0,0:0|0:0,0:0:0:0:
225,127,73736,1,2,3:2:0:0:
360,134,73870,1,0,0:0:0:0:
90,49,74004,6,0,L|328:44,1,225.000008583069,10|0,0:0|0:0,0:0:0:0:
78,313,74406,2,0,L|75:197,1,112.500004291535,2|0,3:2|0:0,0:0:0:0:
319,313,74674,1,2,3:2:0:0:
78,313,74808,2,0,L|220:314,1,112.500004291535,10|0,0:0|0:0,0:0:0:0:
464,93,75076,2,0,L|339:94,1,112.500004291535,2|0,0:0|0:0,0:0:0:0:
70,53,75343,6,0,L|325:50,1,225.000008583069,2|4,3:2|0:0,0:0:0:0:
28,188,75879,2,0,L|161:189,1,112.500004291535,2|2,0:0|3:2,0:0:0:0:
384,306,76147,2,0,L|144:306,1,225.000008583069,2|8,0:0|0:0,0:0:0:0:
421,240,76683,2,0,L|421:110,1,112.500004291535,2|2,3:2|0:0,0:0:0:0:
285,132,76951,1,2,3:2:0:0:
421,127,77084,1,2,0:0:0:0:
128,77,77218,5,14,0:0:0:0:
268,65,77352,1,0,3:0:0:0:
128,77,77486,1,0,3:0:0:0:
427,338,77620,2,0,L|431:95,1,225.000008583069,2|0,3:2|3:0,0:0:0:0:
116,187,78022,1,10,0:0:0:0:
364,184,78156,1,0,3:2:0:0:
116,187,78290,1,2,3:2:0:0:
427,338,78424,2,0,L|178:338,1,225.000008583069,2|0,0:0|3:0,0:0:0:0:
470,215,78826,5,6,0:0:0:0:
330,202,78960,1,8,0:0:0:0:
470,215,79094,1,0,3:0:0:0:
173,343,79227,2,0,L|169:100,1,225.000008583069,6|0,3:2|3:0,0:0:0:0:
424,121,79629,1,6,3:2:0:0:
169,118,79763,2,0,L|134:69,2,56.2500021457673,8|8|0,0:0|0:0|3:0,0:0:0:0:
306,117,80031,1,6,3:2:0:0:
52,124,80165,1,0,3:0:0:0:
306,117,80299,1,0,3:0:0:0:
495,306,80433,6,0,B|271:303|271:303|271:74|271:74|493:74|493:74|271:74|271:74|271:303|271:303|47:303|47:303|271:303|271:303|102:159|102:159|102:159|102:159|322:161|322:161|102:159|102:159|100:76|100:76|102:313,1,2475.00009441376,6|2,0:0|0:0,0:0:0:0:
266,241,83647,6,0,L|266:155,1,75,6|0,3:2|0:0,0:0:0:0:
179,161,83915,1,2,0:0:0:0:
304,81,84049,2,0,L|408:81,2,75,2|0|2,3:2|0:0|0:0,0:0:0:0:
97,321,84451,1,2,0:0:0:0:
22,283,84584,1,2,0:0:0:0:
21,203,84718,1,2,0:0:0:0:
155,209,84852,1,2,0:0:0:0:
230,166,84985,1,2,0:0:0:0:
233,93,85119,1,2,0:0:0:0:
23,36,85254,6,0,L|109:34,1,75,2|0,0:0|0:0,0:0:0:0:
339,296,85656,2,0,L|339:202,1,75,2|2,0:0|0:0,0:0:0:0:
260,220,85924,1,2,0:0:0:0:
180,219,86058,1,2,0:0:0:0:
260,220,86192,1,2,0:0:0:0:
136,326,86326,2,0,L|40:325,2,75
344,329,86727,1,6,0:0:0:0:
