osu file format v14

[General]
AudioFilename: audio.mp3
AudioLeadIn: 0
PreviewTime: 52241
Countdown: 0
SampleSet: Soft
StackLeniency: 0.7
Mode: 2
LetterboxInBreaks: 0
WidescreenStoryboard: 1

[Editor]
DistanceSpacing: 1.4
BeatDivisor: 4
GridSize: 16
TimelineZoom: 1.4

[Metadata]
Title:Missing Promise (TV Size)
TitleUnicode:Missing Promise (TV Size)
Artist:Suzuki Konomi
ArtistUnicode:鈴木このみ
Creator:Terton
Version:Rain
Source:ひぐらしのなく頃に卒
Tags:Onegai SkyFlame 07th expansion when cicadas they cry higurashi no naku koro ni sotsu graduation anime ending ed japanese pop j-pop jpop
BeatmapID:3360474
BeatmapSetID:1590404

[Difficulty]
HPDrainRate:6
CircleSize:4
OverallDifficulty:9
ApproachRate:9
SliderMultiplier:2.7
SliderTickRate:2

[Events]
//Background and Video events
0,0,"bg.jpg",0,0
//Break Periods
//Storyboard Layer 0 (Background)
//Storyboard Layer 1 (Fail)
//Storyboard Layer 2 (Pass)
//Storyboard Layer 3 (Foreground)
//Storyboard Layer 4 (Overlay)
//Storyboard Sound Samples

[TimingPoints]
76,535.714285714286,3,2,17,45,1,0
210,-100,3,2,2,45,0,0
344,-100,3,2,3,45,0,0
478,-100,3,2,4,45,0,0
612,-100,3,2,5,45,0,0
745,-100,3,2,6,45,0,0
880,-100,3,2,7,45,0,0
1148,-100,3,2,8,45,0,0
1237,-100,3,2,7,45,0,0
1327,-100,3,2,8,45,0,0
1416,-100,3,2,5,45,0,0
1684,-100,3,2,4,45,0,0
1952,-100,3,2,5,45,0,0
2219,-100,3,2,9,45,0,0
2487,-100,3,2,6,45,0,0
2754,-100,3,2,5,45,0,0
3023,-100,3,2,4,45,0,0
3291,-100,3,2,10,45,0,0
3559,-100,3,2,3,45,0,0
3648,-100,3,2,4,45,0,0
3738,-100,3,2,3,45,0,0
3827,-100,3,2,10,45,0,0
4095,-100,3,2,3,45,0,0
4451,-100,3,2,4,45,0,0
4541,-100,3,2,3,45,0,0
4630,-100,3,2,10,45,0,0
4898,-100,3,2,3,45,0,0
5166,-100,3,2,2,45,0,0
5434,-100,3,2,11,45,0,0
5702,-100,3,2,12,45,0,0
5969,-100,3,2,13,45,0,0
6237,-100,3,2,17,45,0,0
6505,-100,3,2,14,45,0,0
6773,-100,3,2,17,45,0,0
6907,-100,3,2,13,45,0,0
7041,-100,3,2,12,45,0,0
7175,-100,3,2,10,45,0,0
7309,-100,3,2,2,45,0,0
7576,-100,3,2,11,45,0,0
7666,-100,3,2,2,45,0,0
7755,-100,3,2,11,45,0,0
7845,-100,3,2,12,45,0,0
8112,-100,3,2,13,45,0,0
8380,-100,3,2,12,45,0,0
8648,-100,3,2,4,45,0,0
8916,-100,3,2,10,45,0,0
9183,-100,3,2,12,45,0,0
9451,-100,3,2,13,45,0,0
9719,-100,3,2,15,45,0,0
9986,-100,3,2,17,45,0,0
10077,-100,3,2,13,45,0,0
10166,-100,3,2,17,45,0,0
10255,-100,3,2,15,45,0,0
10523,-100,3,2,17,45,0,0
10881,-100,3,2,13,45,0,0
10970,-100,3,2,17,45,0,0
11059,-100,3,2,15,45,0,0
11327,-100,3,2,17,45,0,0
11594,-100,3,2,10,45,0,0
11862,-100,3,2,13,45,0,0
12130,-100,3,2,12,45,0,0
12398,-100,3,2,11,45,0,0
12666,-100,3,2,4,45,0,0
12934,-100,3,2,2,45,0,0
13202,-100,3,2,8,45,0,0
13469,-100,3,2,16,45,0,0
13737,-100,3,2,4,45,0,0
14005,-100,3,2,6,45,0,0
14273,-100,3,2,7,45,0,0
14540,-100,3,2,1,45,0,0
20968,-100,3,2,1,60,0,0
24183,-100,3,2,1,45,0,0
32822,-100,3,2,1,55,0,0
39986,-100,3,2,1,40,0,0
40187,-100,3,2,1,55,0,0
46683,-100,3,2,1,40,0,0
47687,-100,3,2,1,5,0,0
47754,-100,3,2,1,40,0,0
48223,-100,3,2,1,5,0,0
48290,-100,3,2,1,60,0,0
49898,-100,3,2,1,50,0,0
51505,-100,3,2,1,60,0,0
51907,-100,3,2,1,70,0,0
53111,-100,4,2,1,80,0,1
64361,-100,4,2,1,80,0,0
65968,-100,4,2,1,80,0,1
80433,-100,4,2,1,80,0,0
80835,-100,4,2,1,60,0,0

[Colours]
Combo1 : 228,228,3
Combo2 : 255,0,6
Combo3 : 0,128,13

[HitObjects]
370,307,76,6,0,L|370:203,1,67.5,2|2,0:2|0:2,0:0:0:0:
296,243,343,2,0,L|296:139,1,67.5,2|2,0:2|0:0,0:0:0:0:
370,239,611,1,2,0:0:0:0:
444,238,745,1,2,0:0:0:0:
220,368,879,2,0,L|212:210,1,135,2|2,0:0|0:2,0:0:0:0:
263,231,1236,1,2,0:2:0:0:
213,233,1326,1,2,0:2:0:0:
163,235,1415,1,2,0:2:0:0:
490,100,1683,6,0,L|345:97,2,135,2|2|2,0:2|0:2|0:2,0:0:0:0:
139,36,2486,2,0,L|284:33,2,135,2|2|2,0:2|0:2|0:2,0:0:0:0:
331,134,3290,5,2,0:2:0:0:
143,239,3558,1,2,0:2:0:0:
76,213,3647,1,2,0:2:0:0:
76,213,3736,1,2,0:2:0:0:
143,239,3826,1,2,0:2:0:0:
331,240,4093,1,2,0:2:0:0:
143,239,4361,1,2,0:2:0:0:
210,213,4450,1,2,0:2:0:0:
210,213,4539,1,2,0:2:0:0:
143,239,4629,1,2,0:2:0:0:
481,148,4897,5,2,0:2:0:0:
366,147,5165,1,2,0:2:0:0:
481,148,5433,1,2,0:2:0:0:
150,317,5701,1,2,0:2:0:0:
265,316,5969,1,2,0:2:0:0:
150,317,6237,1,2,0:2:0:0:
337,244,6504,6,0,L|351:104,1,135,2|2,0:2|0:2,0:0:0:0:
276,105,6906,1,2,0:2:0:0:
350,109,7040,1,2,0:2:0:0:
425,102,7174,1,2,0:2:0:0:
195,307,7308,2,0,L|57:310,1,135,2|2,0:2|0:2,0:0:0:0:
110,252,7664,1,2,0:2:0:0:
60,309,7754,1,2,0:2:0:0:
60,309,7843,1,2,0:2:0:0:
398,179,8111,6,0,L|252:176,2,135,2|2|2,0:2|0:2|0:2,0:0:0:0:
39,66,8915,2,0,L|185:63,2,135,2|2|2,0:2|0:2|0:2,0:0:0:0:
390,76,9718,5,2,0:2:0:0:
202,181,9986,1,2,0:2:0:0:
135,155,10075,1,2,0:2:0:0:
135,155,10164,1,2,0:2:0:0:
202,181,10254,1,2,0:2:0:0:
391,230,10522,1,2,0:2:0:0:
169,276,10789,1,2,0:2:0:0:
236,250,10878,1,2,0:2:0:0:
236,250,10967,1,2,0:2:0:0:
169,276,11057,1,2,0:2:0:0:
496,222,11326,5,2,0:2:0:0:
374,231,11593,1,2,0:2:0:0:
496,222,11861,1,2,0:2:0:0:
496,222,12129,1,2,0:2:0:0:
307,128,12397,1,2,0:2:0:0:
496,222,12665,6,0,L|494:84,1,135,2|2,0:2|0:2,0:0:0:0:
155,338,13201,2,0,L|157:200,1,135,2|2,0:2|0:2,0:0:0:0:
348,198,13736,1,2,0:2:0:0:
20,122,14004,2,0,L|167:120,1,135,2|2,0:2|0:2,0:0:0:0:
487,98,14540,6,0,L|487:243,1,135,6|0,3:2|0:0,0:0:0:0:
419,226,14942,2,0,L|217:227,1,202.5,0|2,0:0|3:2,0:0:0:0:
352,149,15611,1,2,3:2:0:0:
163,127,15879,1,2,0:0:0:0:
491,351,16147,6,0,L|492:207,1,135,2|2,3:2|0:0,0:0:0:0:
356,344,16683,2,0,L|524:340,1,135,2|0,3:2|0:0,0:0:0:0:
356,344,17218,1,0,3:0:0:0:
165,337,17486,1,2,0:0:0:0:
492,195,17754,6,0,L|332:197,1,135,2|2,3:2|0:0,0:0:0:0:
432,126,18156,2,0,L|432:-21,1,135,2|0,0:0|0:0,0:0:0:0:
364,15,18558,1,2,0:0:0:0:
175,27,18826,1,2,3:2:0:0:
40,35,19093,1,2,0:0:0:0:
367,335,19361,6,0,L|375:186,1,135,2|2,3:2|0:0,0:0:0:0:
192,342,19897,2,0,L|200:193,1,135,2|2,3:2|0:0,0:0:0:0:
16,155,20433,2,0,L|172:155,1,135,2|2,3:2|0:0,0:0:0:0:
482,159,20968,5,6,3:2:0:0:
482,159,21102,1,0,0:0:0:0:
482,159,21236,1,2,0:0:0:0:
232,67,21370,2,0,L|68:69,1,135,0|0,3:0|3:0,0:0:0:0:
324,192,21772,2,0,L|394:191,1,67.5,8|0,0:0|0:0,0:0:0:0:
185,343,22040,2,0,L|181:246,1,67.5,2|8,0:0|0:0,0:0:0:0:
407,269,22308,1,2,3:2:0:0:
216,171,22576,5,2,3:2:0:0:
135,157,22709,1,8,0:0:0:0:
135,157,22843,1,2,0:0:0:0:
216,171,22977,1,8,0:0:0:0:
493,116,23379,2,0,L|339:116,2,135,6|2|2,3:2|3:2|3:2,0:0:0:0:
86,76,24183,6,0,L|87:211,1,135,6|0,0:0|0:0,0:0:0:0:
154,206,24584,2,0,L|367:205,1,202.5,2|2,3:2|0:0,0:0:0:0:
221,141,25254,1,2,0:0:0:0:
412,123,25522,1,0,3:0:0:0:
59,360,25790,6,0,L|58:216,1,135,2|2,3:2|0:0,0:0:0:0:
194,353,26326,2,0,L|26:349,1,135,2|0,3:2|0:0,0:0:0:0:
194,353,26861,1,0,3:0:0:0:
385,346,27129,1,2,0:0:0:0:
58,204,27397,6,0,L|218:206,1,135,6|2,0:0|0:0,0:0:0:0:
118,135,27799,2,0,L|118:-12,1,135,2|0,3:2|0:0,0:0:0:0:
186,24,28201,1,2,0:0:0:0:
375,36,28469,1,2,3:2:0:0:
375,36,28736,1,2,0:0:0:0:
31,214,29004,6,0,L|325:212,1,270,2|0,3:2|3:0,0:0:0:0:
111,99,29808,1,2,3:2:0:0:
300,212,30076,2,0,L|456:214,1,135,6|2,3:2|0:0,0:0:0:0:
97,326,30611,6,0,L|91:188,1,135,6|2,0:0|0:0,0:0:0:0:
285,74,31147,2,0,L|143:76,1,135,2|0,3:2|3:0,0:0:0:0:
218,13,31549,1,0,0:0:0:0:
419,328,31683,2,0,L|425:190,1,135,0|2,3:0|3:2,0:0:0:0:
87,192,32218,5,6,0:0:0:0:
168,188,32352,2,0,L|179:131,2,33.75,8|8|2,0:0|0:0|3:2,0:0:0:0:
87,192,32620,1,8,0:0:0:0:
364,188,32754,1,2,3:2:0:0:
448,166,32888,1,8,0:0:0:0:
448,166,33022,1,0,3:0:0:0:
364,188,33156,1,0,0:0:0:0:
131,355,33290,2,0,L|124:250,1,67.5,0|0,3:0|0:0,0:0:0:0:
214,286,33558,1,0,3:0:0:0:
130,287,33692,1,0,0:0:0:0:
462,352,33826,6,0,L|469:210,1,135,4|2,3:2|0:0,0:0:0:0:
387,210,34227,1,2,3:2:0:0:
157,98,34361,2,0,L|11:96,1,135,2|2,3:2|3:2,0:0:0:0:
213,141,34897,1,10,0:3:0:0:
226,92,35031,1,8,0:3:0:0:
240,43,35165,1,2,0:0:0:0:
49,233,35433,6,0,L|216:236,1,135,4|2,3:2|0:0,0:0:0:0:
251,240,35834,1,2,0:0:0:0:
482,336,35968,2,0,L|486:168,1,135,2|2,3:2|3:2,0:0:0:0:
295,343,36504,2,0,L|299:175,1,135,10|2,3:3|0:0,0:0:0:0:
231,198,36906,1,0,0:0:0:0:
23,85,37040,6,0,L|179:84,1,135,6|2,0:0|0:0,0:0:0:0:
346,26,37576,2,0,L|199:24,1,135,2|2,3:2|3:2,0:0:0:0:
401,122,38111,1,10,3:0:0:0:
469,118,38245,1,8,3:0:0:0:
401,122,38379,1,2,0:0:0:0:
50,347,38647,6,0,L|40:182,1,135,2|2,3:2|0:0,0:0:0:0:
124,213,39049,1,0,3:0:0:0:
349,337,39183,2,0,L|524:338,1,135,2|2,0:0|3:2,0:0:0:0:
406,276,39584,1,8,0:3:0:0:
124,341,39718,1,6,3:2:0:0:
313,216,39986,1,10,0:0:0:0:
355,190,40052,1,8,0:0:0:0:
372,144,40119,1,8,0:0:0:0:
355,97,40186,1,8,0:0:0:0:
188,88,40253,5,4,0:0:0:0:
60,212,40522,1,2,0:0:0:0:
128,188,40656,1,10,3:0:0:0:
434,141,40790,2,0,L|442:-1,1,135,2|2,3:2|0:0,0:0:0:0:
245,50,41326,1,10,3:0:0:0:
165,69,41459,1,0,0:0:0:0:
165,69,41593,1,2,0:0:0:0:
245,50,41727,1,0,0:0:0:0:
479,251,41861,6,0,L|290:247,1,135,4|2,3:2|0:0,0:0:0:0:
277,245,42263,1,0,0:0:0:0:
36,356,42397,2,0,L|31:216,1,135,2|8,3:2|3:0,0:0:0:0:
487,135,42933,2,0,L|336:137,1,135,10|2,0:0|3:2,0:0:0:0:
23,50,43468,6,0,L|174:52,1,135,14|2,0:0|3:0,0:0:0:0:
236,47,43870,1,0,3:0:0:0:
354,50,44004,1,10,3:0:0:0:
23,284,44272,1,10,0:0:0:0:
467,331,44540,2,0,L|474:170,1,135,2|0,3:2|3:0,0:0:0:0:
405,192,44942,1,0,0:0:0:0:
167,192,45076,6,0,L|86:195,1,67.5,4|0,3:2|0:0,0:0:0:0:
340,73,45343,2,0,L|432:68,1,67.5,8|8,0:0|0:0,0:0:0:0:
171,108,45611,1,0,3:0:0:0:
93,109,45745,1,0,3:0:0:0:
171,108,45879,1,2,0:0:0:0:
496,117,46147,1,10,0:0:0:0:
294,258,46415,2,0,L|195:259,1,67.5,2|0,3:2|0:0,0:0:0:0:
485,237,46683,5,4,3:2:0:0:
351,177,46951,1,10,3:0:0:0:
217,175,47218,1,10,3:0:0:0:
351,177,47486,1,8,3:0:0:0:
490,228,47754,1,8,3:0:0:0:
351,177,48022,1,10,3:0:0:0:
26,309,48290,6,0,L|18:206,1,67.5,6|0,3:2|0:0,0:0:0:0:
83,239,48558,1,10,3:0:0:0:
138,206,48691,1,8,3:0:0:0:
133,142,48825,1,10,3:0:0:0:
73,119,48959,1,8,3:0:0:0:
16,49,49093,2,0,L|96:47,1,67.5,8|8,3:0|0:0,0:0:0:0:
318,39,49361,2,0,L|411:39,1,67.5,8|8,3:0|0:0,0:0:0:0:
84,296,49629,2,0,L|17:295,1,67.5,2|8,0:0|0:0,0:0:0:0:
408,305,49897,6,0,B|408:169|408:169|138:169|138:169|137:4,1,540,6|0,3:2|0:0,0:0:0:0:
350,28,51236,1,0,0:0:0:0:
24,290,51504,6,0,L|179:291,1,135,14|0,0:0|0:0,0:0:0:0:
466,169,51906,2,0,L|311:170,1,135,12|0,0:0|0:0,0:0:0:0:
30,168,52308,1,10,0:0:0:0:
222,166,52576,2,0,L|126:167,1,67.5,2|8,3:2|3:0,0:0:0:0:
398,60,52843,2,0,L|473:59,1,67.5,10|8,3:0|3:0,0:0:0:0:
151,352,53111,6,0,P|116:290|174:282,1,135,6|2,0:0|0:0,0:0:0:0:
366,313,53513,2,0,P|401:251|343:243,1,135,2|0,3:0|0:0,0:0:0:0:
150,118,53915,2,0,L|12:120,2,135,10|2|2,0:0|0:0|3:2,0:0:0:0:
482,33,54718,6,0,L|308:33,1,135,2|0,3:0|0:0,0:0:0:0:
415,98,55120,1,2,3:2:0:0:
202,239,55254,2,0,L|106:239,1,67.5,0|2,0:0|0:0,0:0:0:0:
389,306,55522,2,0,L|397:209,1,67.5,10|0,0:0|0:0,0:0:0:0:
137,319,55790,2,0,L|63:320,2,67.5,2|2|2,0:0|0:0|0:0,0:0:0:0:
222,319,56192,1,2,0:0:0:0:
474,173,56326,6,0,L|295:171,1,135,6|2,3:2|0:0,0:0:0:0:
62,58,56727,2,0,L|241:56,1,135,2|2,3:0|0:0,0:0:0:0:
469,363,57129,2,0,L|470:214,1,135,10|2,0:0|0:0,0:0:0:0:
344,225,57665,1,2,3:2:0:0:
19,58,57933,6,0,L|96:57,1,67.5,2|10,3:2|0:0,0:0:0:0:
352,54,58201,2,0,L|455:55,2,67.5,2|2|2,0:0|3:2|0:0,0:0:0:0:
267,57,58602,1,10,0:0:0:0:
35,338,58736,2,0,L|25:232,1,67.5,10|0,0:0|3:0,0:0:0:0:
264,328,59004,2,0,L|254:222,1,67.5,8|0,0:0|3:0,0:0:0:0:
490,329,59272,2,0,L|480:223,1,67.5,0|0,3:0|3:0,0:0:0:0:
184,148,59540,6,0,L|42:148,1,135,4|2,3:2|0:0,0:0:0:0:
118,77,59942,1,0,3:0:0:0:
341,66,60076,2,0,L|423:65,1,67.5,0|0,0:0|3:0,0:0:0:0:
185,228,60343,2,0,L|97:228,1,67.5,10|0,0:0|0:0,0:0:0:0:
432,262,60611,2,0,L|431:181,1,67.5,2|0,0:0|0:0,0:0:0:0:
346,194,60879,1,2,3:2:0:0:
21,97,61147,6,0,L|171:95,1,135,10|0,0:0|0:0,0:0:0:0:
454,39,61549,2,0,L|304:37,1,135,2|2,3:2|3:2,0:0:0:0:
31,209,61951,2,0,L|32:128,1,67.5,10|0,0:0|0:0,0:0:0:0:
264,212,62218,2,0,L|347:214,1,67.5,2|8,3:0|0:0,0:0:0:0:
77,159,62486,2,0,L|79:63,1,67.5,2|0,3:2|3:0,0:0:0:0:
391,360,62754,6,0,L|390:212,1,135,4|2,3:2|0:0,0:0:0:0:
296,222,63156,1,2,0:0:0:0:
187,223,63290,2,0,L|186:153,1,67.5,2|0,0:0|0:0,0:0:0:0:
406,158,63558,2,0,L|412:24,1,135,8|2,0:0|0:0,0:0:0:0:
338,20,63959,1,2,0:0:0:0:
412,23,64093,1,2,3:2:0:0:
486,25,64227,1,2,0:0:0:0:
175,318,64361,6,0,P|135:254|194:232,1,135,10|0,0:0|3:0,0:0:0:0:
403,196,64763,2,0,P|443:132|384:110,1,135,10|0,0:0|3:0,0:0:0:0:
168,68,65165,2,0,L|24:68,1,135,10|0,0:0|3:0,0:0:0:0:
285,317,65567,2,0,L|429:317,1,135,10|8,0:0|0:0,0:0:0:0:
151,352,65968,6,0,P|110:297|177:297,1,135,6|2,0:0|0:0,0:0:0:0:
366,303,66370,2,0,P|407:248|340:248,1,135,2|2,3:2|3:2,0:0:0:0:
150,108,66772,2,0,L|288:110,2,135,10|2|2,0:0|0:0|3:2,0:0:0:0:
482,33,67575,5,2,3:2:0:0:
414,33,67708,1,0,0:0:0:0:
347,33,67842,1,0,0:0:0:0:
415,98,67977,1,2,3:2:0:0:
202,239,68111,2,0,L|106:239,1,67.5,0|2,0:0|3:2,0:0:0:0:
387,306,68379,2,0,L|463:308,1,67.5,10|0,0:0|0:0,0:0:0:0:
137,319,68647,2,0,L|63:320,2,67.5,2|8|2,0:0|0:0|0:0,0:0:0:0:
222,319,69049,1,0,3:0:0:0:
474,173,69183,6,0,L|295:171,1,135,6|2,0:0|0:0,0:0:0:0:
62,58,69584,2,0,L|241:56,1,135,2|0,3:2|3:0,0:0:0:0:
469,363,69986,2,0,L|470:214,1,135,10|2,0:0|0:0,0:0:0:0:
344,225,70522,1,2,3:2:0:0:
19,58,70790,6,0,L|19:140,1,67.5,2|8,3:2|0:0,0:0:0:0:
352,42,71058,2,0,L|249:43,2,67.5,2|2|2,0:0|3:2|0:0,0:0:0:0:
437,45,71459,1,2,3:2:0:0:
204,330,71593,2,0,L|286:331,1,67.5,10|0,0:0|3:0,0:0:0:0:
492,195,71861,2,0,L|425:195,1,67.5,8|8,0:0|0:0,0:0:0:0:
118,191,72129,2,0,L|111:117,1,67.5,0|0,3:0|3:0,0:0:0:0:
343,143,72397,6,0,L|485:143,1,135,4|2,3:2|0:0,0:0:0:0:
409,72,72799,1,0,0:0:0:0:
186,61,72933,2,0,L|104:60,1,67.5,2|0,0:0|0:0,0:0:0:0:
342,223,73200,2,0,L|430:223,1,67.5,10|0,0:0|0:0,0:0:0:0:
82,257,73468,2,0,L|83:176,1,67.5,2|0,0:0|0:0,0:0:0:0:
168,189,73736,1,2,3:2:0:0:
495,92,74004,6,0,L|345:90,1,135,10|0,0:0|0:0,0:0:0:0:
73,34,74406,2,0,L|223:32,1,135,2|2,3:2|3:2,0:0:0:0:
496,204,74808,2,0,L|495:123,1,67.5,10|0,0:0|0:0,0:0:0:0:
263,207,75075,2,0,L|180:209,1,67.5,2|0,0:0|0:0,0:0:0:0:
450,154,75343,2,0,L|448:58,1,67.5,2|0,3:2|0:0,0:0:0:0:
136,355,75611,6,0,L|137:207,1,135,4|2,0:0|0:0,0:0:0:0:
245,220,76013,1,2,3:2:0:0:
355,218,76147,2,0,L|359:128,1,67.5,2|0,0:0|0:0,0:0:0:0:
121,153,76415,2,0,L|115:19,1,135,8|2,0:0|3:2,0:0:0:0:
189,15,76816,1,2,0:0:0:0:
115,18,76950,1,2,3:2:0:0:
41,20,77084,1,2,0:0:0:0:
352,313,77218,6,0,P|392:249|333:227,1,135,14|0,0:0|3:0,0:0:0:0:
124,191,77620,2,0,P|84:127|143:105,1,135,2|0,3:2|3:0,0:0:0:0:
359,50,78022,2,0,L|224:50,1,135,10|2,0:0|3:2,0:0:0:0:
16,305,78424,2,0,L|160:305,1,135,2|0,0:0|3:0,0:0:0:0:
347,226,78826,5,6,0:0:0:0:
431,187,78959,1,8,0:0:0:0:
431,187,79093,1,0,3:0:0:0:
167,153,79227,1,6,3:2:0:0:
79,150,79360,1,0,0:0:0:0:
167,153,79494,1,0,3:0:0:0:
393,77,79629,1,6,3:2:0:0:
478,68,79763,2,0,L|485:7,2,33.75,8|8|0,0:0|0:0|3:0,0:0:0:0:
167,338,80031,2,0,P|127:274|186:252,1,135,6|0,3:2|3:0,0:0:0:0:
438,225,80433,5,6,0:0:0:0:
256,192,80701,12,2,83379,0:0:0:0:
72,273,83647,6,0,L|67:178,1,67.5,6|0,3:2|0:0,0:0:0:0:
143,205,83915,1,2,0:0:0:0:
218,201,84049,2,0,L|223:106,1,67.5,2|0,3:2|0:0,0:0:0:0:
147,133,84317,1,2,0:0:0:0:
73,90,84451,1,2,0:0:0:0:
157,72,84584,1,2,0:0:0:0:
158,10,84718,1,2,0:0:0:0:
73,0,84852,1,2,0:0:0:0:
74,15,84986,1,2,0:0:0:0:
158,10,85120,1,2,0:0:0:0:
361,116,85254,6,0,L|363:39,1,67.5,2|0,0:0|0:0,0:0:0:0:
126,336,85656,2,0,L|125:250,1,67.5,2|2,0:0|0:0,0:0:0:0:
39,229,85924,2,0,L|38:143,1,67.5,2|2,0:0|0:0,0:0:0:0:
127,81,86192,1,2,0:0:0:0:
38,161,86326,1,0,0:0:0:0:
127,81,86459,1,0,0:0:0:0:
201,82,86593,1,0,0:0:0:0:
46,1,86727,1,6,0:0:0:0:
