osu file format v14

[General]
AudioFilename: audio.mp3
AudioLeadIn: 0
PreviewTime: 52241
Countdown: 0
SampleSet: Soft
StackLeniency: 0.7
Mode: 2
LetterboxInBreaks: 0
WidescreenStoryboard: 1

[Editor]
DistanceSpacing: 1.4
BeatDivisor: 4
GridSize: 32
TimelineZoom: 1.4

[Metadata]
Title:Missing Promise (TV Size)
TitleUnicode:Missing Promise (TV Size)
Artist:Suzuki Konomi
ArtistUnicode:鈴木このみ
Creator:Terton
Version:Platter
Source:ひぐらしのなく頃に卒
Tags:Onegai SkyFlame 07th expansion when cicadas they cry higurashi no naku koro ni sotsu graduation anime ending ed japanese pop j-pop jpop
BeatmapID:3360473
BeatmapSetID:1590404

[Difficulty]
HPDrainRate:5
CircleSize:3.5
OverallDifficulty:8
ApproachRate:8
SliderMultiplier:2.3
SliderTickRate:2

[Events]
//Background and Video events
0,0,"bg.jpg",0,0
//Break Periods
//Storyboard Layer 0 (Background)
//Storyboard Layer 1 (Fail)
//Storyboard Layer 2 (Pass)
//Storyboard Layer 3 (Foreground)
//Storyboard Layer 4 (Overlay)
//Storyboard Sound Samples

[TimingPoints]
76,535.714285714286,3,2,17,45,1,0
210,-100,3,2,2,45,0,0
344,-100,3,2,3,45,0,0
478,-100,3,2,4,45,0,0
612,-100,3,2,5,45,0,0
745,-100,3,2,6,45,0,0
880,-100,3,2,7,45,0,0
1148,-100,3,2,8,45,0,0
1237,-100,3,2,7,45,0,0
1327,-100,3,2,8,45,0,0
1416,-100,3,2,5,45,0,0
1684,-100,3,2,4,45,0,0
1952,-100,3,2,5,45,0,0
2219,-100,3,2,9,45,0,0
2487,-100,3,2,6,45,0,0
2754,-100,3,2,5,45,0,0
3023,-100,3,2,4,45,0,0
3291,-100,3,2,10,45,0,0
3559,-100,3,2,3,45,0,0
3648,-100,3,2,4,45,0,0
3738,-100,3,2,3,45,0,0
3827,-100,3,2,10,45,0,0
4095,-100,3,2,3,45,0,0
4451,-100,3,2,4,45,0,0
4541,-100,3,2,3,45,0,0
4630,-100,3,2,10,45,0,0
4898,-100,3,2,3,45,0,0
5166,-100,3,2,2,45,0,0
5434,-100,3,2,11,45,0,0
5702,-100,3,2,12,45,0,0
5969,-100,3,2,13,45,0,0
6237,-100,3,2,17,45,0,0
6505,-100,3,2,14,45,0,0
6773,-100,3,2,17,45,0,0
6907,-100,3,2,13,45,0,0
7041,-100,3,2,12,45,0,0
7175,-100,3,2,10,45,0,0
7309,-100,3,2,2,45,0,0
7576,-100,3,2,11,45,0,0
7666,-100,3,2,2,45,0,0
7755,-100,3,2,11,45,0,0
7845,-100,3,2,12,45,0,0
8112,-100,3,2,13,45,0,0
8380,-100,3,2,12,45,0,0
8648,-100,3,2,4,45,0,0
8916,-100,3,2,10,45,0,0
9183,-100,3,2,12,45,0,0
9451,-100,3,2,13,45,0,0
9719,-100,3,2,15,45,0,0
9986,-100,3,2,17,45,0,0
10077,-100,3,2,13,45,0,0
10166,-100,3,2,17,45,0,0
10255,-100,3,2,15,45,0,0
10523,-100,3,2,17,45,0,0
10881,-100,3,2,13,45,0,0
10970,-100,3,2,17,45,0,0
11059,-100,3,2,15,45,0,0
11327,-100,3,2,17,45,0,0
11594,-100,3,2,10,45,0,0
11862,-100,3,2,13,45,0,0
12130,-100,3,2,12,45,0,0
12398,-100,3,2,11,45,0,0
12666,-100,3,2,4,45,0,0
12934,-100,3,2,2,45,0,0
13202,-100,3,2,8,45,0,0
13469,-100,3,2,16,45,0,0
13737,-100,3,2,4,45,0,0
14005,-100,3,2,6,45,0,0
14273,-100,3,2,7,45,0,0
14540,-100,3,2,1,45,0,0
20968,-100,3,2,1,60,0,0
24183,-100,3,2,1,45,0,0
32822,-100,3,2,1,55,0,0
39986,-100,3,2,1,40,0,0
40120,-100,3,2,1,40,0,0
40187,-100,3,2,1,55,0,0
46683,-100,3,2,1,40,0,0
47687,-100,3,2,1,5,0,0
47754,-100,3,2,1,40,0,0
48223,-100,3,2,1,5,0,0
48290,-100,3,2,1,60,0,0
49898,-100,3,2,1,50,0,0
51505,-100,3,2,1,60,0,0
51907,-100,3,2,1,70,0,0
53111,-100,4,2,1,80,0,1
64361,-100,4,2,1,80,0,0
65968,-100,4,2,1,80,0,1
80433,-100,4,2,1,80,0,0
80835,-100,4,2,1,60,0,0

[Colours]
Combo1 : 228,228,3
Combo2 : 255,0,6
Combo3 : 0,128,13

[HitObjects]
337,70,76,6,0,L|483:69,2,115,2|2|2,0:2|0:2|0:0,0:0:0:0:
131,286,879,2,0,L|125:119,1,115,2|2,0:0|0:2,0:0:0:0:
243,159,1415,1,2,0:2:0:0:
126,171,1683,5,2,0:2:0:0:
18,172,1951,1,2,0:2:0:0:
126,171,2218,1,2,0:2:0:0:
332,242,2486,1,2,0:2:0:0:
446,229,2754,1,2,0:2:0:0:
332,242,3022,1,2,0:2:0:0:
125,244,3290,5,2,0:2:0:0:
241,164,3558,1,2,0:2:0:0:
272,145,3647,1,2,0:2:0:0:
272,108,3736,1,2,0:2:0:0:
241,89,3825,1,2,0:2:0:0:
34,77,4093,1,2,0:2:0:0:
149,73,4361,1,2,0:2:0:0:
187,71,4450,1,2,0:2:0:0:
225,70,4539,1,2,0:2:0:0:
263,69,4628,1,2,0:2:0:0:
55,214,4897,5,2,0:2:0:0:
170,209,5165,1,2,0:2:0:0:
286,206,5433,1,2,0:2:0:0:
79,317,5701,1,2,0:2:0:0:
195,308,5968,1,2,0:2:0:0:
79,317,6236,2,0,L|75:187,1,115,2|2,0:2|0:2,0:0:0:0:
283,184,6772,6,0,L|429:183,1,115,2|2,0:2|0:2,0:0:0:0:
189,316,7308,2,0,L|70:315,1,115,2|2,0:2|0:2,0:0:0:0:
190,237,7844,1,2,0:2:0:0:
76,141,8112,5,2,0:2:0:0:
76,141,8380,1,2,0:2:0:0:
192,139,8647,1,2,0:2:0:0:
401,280,8915,1,2,0:2:0:0:
401,280,9183,1,2,0:2:0:0:
286,279,9451,1,2,0:2:0:0:
78,269,9719,5,2,0:2:0:0:
226,197,9987,1,2,0:2:0:0:
257,178,10076,1,2,0:2:0:0:
257,141,10165,1,2,0:2:0:0:
226,122,10254,1,2,0:2:0:0:
19,110,10522,1,2,0:2:0:0:
134,106,10790,1,2,0:2:0:0:
172,104,10879,1,2,0:2:0:0:
210,103,10968,1,2,0:2:0:0:
248,102,11057,1,2,0:2:0:0:
39,216,11326,5,2,0:2:0:0:
41,290,11593,1,2,0:2:0:0:
156,288,11861,1,2,0:2:0:0:
269,292,12129,1,2,0:2:0:0:
156,288,12397,1,2,0:2:0:0:
363,212,12665,6,0,L|367:91,1,115,2|2,0:2|0:2,0:0:0:0:
159,141,13201,2,0,L|155:20,1,115,2|2,0:2|0:2,0:0:0:0:
366,97,13736,1,2,0:2:0:0:
155,26,14004,1,2,0:2:0:0:
155,26,14272,1,2,0:2:0:0:
485,338,14540,6,0,L|486:196,1,115,6|0,3:2|0:0,0:0:0:0:
416,215,14942,2,0,L|203:207,1,172.5,0|2,0:0|3:2,0:0:0:0:
358,118,15611,1,2,3:2:0:0:
473,119,15879,1,2,0:0:0:0:
265,298,16147,6,0,L|110:300,1,115,2|2,3:2|0:0,0:0:0:0:
267,119,16683,2,0,P|346:69|240:14,1,230,2|0,3:2|3:0,0:0:0:0:
154,36,17486,1,2,0:0:0:0:
362,198,17754,6,0,L|366:60,1,115,2|2,3:2|0:0,0:0:0:0:
296,98,18156,2,0,L|469:102,1,172.5,2|2,0:0|0:0,0:0:0:0:
270,243,18826,2,0,L|149:243,1,115,2|2,3:2|0:0,0:0:0:0:
387,160,19361,6,0,L|527:161,1,115,2|2,3:2|0:0,0:0:0:0:
312,55,19897,2,0,L|460:55,1,115,2|2,3:2|0:0,0:0:0:0:
231,333,20433,2,0,L|379:333,1,115,2|2,3:2|0:0,0:0:0:0:
16,171,20968,5,6,3:2:0:0:
16,100,21102,1,0,0:0:0:0:
16,171,21236,1,2,0:0:0:0:
234,235,21370,2,0,L|380:233,1,115,0|0,3:0|3:0,0:0:0:0:
279,163,21772,1,8,0:0:0:0:
77,75,22040,1,2,0:0:0:0:
311,33,22308,1,2,3:2:0:0:
103,299,22576,5,2,3:2:0:0:
27,299,22709,1,8,0:0:0:0:
103,299,22843,1,2,0:0:0:0:
322,308,22977,2,0,L|479:309,1,115,8|0,0:0|3:0,0:0:0:0:
367,251,23379,1,6,3:2:0:0:
168,172,23647,1,2,3:2:0:0:
387,92,23915,1,2,3:2:0:0:
46,217,24183,6,0,L|39:71,1,115,6|0,0:0|0:0,0:0:0:0:
110,89,24584,2,0,L|298:87,1,172.5,2|2,3:2|0:0,0:0:0:0:
166,228,25254,1,2,0:0:0:0:
49,221,25522,1,0,3:0:0:0:
259,343,25790,6,0,L|257:201,1,115,2|2,3:2|0:0,0:0:0:0:
139,194,26326,2,0,P|57:137|151:88,1,230,2|0,3:2|3:0,0:0:0:0:
251,76,27129,1,2,0:0:0:0:
462,196,27397,6,0,L|336:195,1,115,6|2,0:0|0:0,0:0:0:0:
277,194,27799,2,0,L|273:42,1,115,2|0,3:2|0:0,0:0:0:0:
345,72,28201,1,2,0:0:0:0:
462,74,28468,1,2,3:2:0:0:
345,72,28736,1,2,0:0:0:0:
16,251,29004,6,0,L|265:248,1,230,2|0,3:2|3:0,0:0:0:0:
127,166,29808,1,2,3:2:0:0:
336,322,30076,2,0,L|338:177,1,115,6|2,3:2|0:0,0:0:0:0:
127,149,30611,6,0,L|125:4,1,115,6|2,0:0|0:0,0:0:0:0:
461,38,31147,2,0,L|226:33,1,230,2|0,3:2|3:0,0:0:0:0:
347,105,31951,1,2,3:2:0:0:
18,225,32218,5,6,0:0:0:0:
94,211,32352,2,0,L|103:157,2,28.75,8|8|2,0:0|0:0|3:2,0:0:0:0:
18,225,32620,1,8,0:0:0:0:
235,323,32754,2,0,L|242:229,1,57.5,2|8,3:2|0:0,0:0:0:0:
164,269,33022,2,0,L|171:175,1,57.5,0|0,3:0|0:0,0:0:0:0:
243,194,33290,1,0,3:0:0:0:
316,167,33424,1,0,0:0:0:0:
316,167,33558,1,0,3:0:0:0:
243,194,33692,1,0,0:0:0:0:
44,72,33826,6,0,L|194:69,1,115,4|2,3:2|0:0,0:0:0:0:
104,131,34227,1,2,3:2:0:0:
45,260,34361,2,0,L|32:131,1,115,2|2,3:2|3:2,0:0:0:0:
242,195,34897,2,0,L|384:196,1,115,10|2,0:3|0:0,0:0:0:0:
149,79,35433,5,4,3:2:0:0:
273,72,35701,1,2,0:0:0:0:
215,48,35834,1,2,0:0:0:0:
157,27,35968,2,0,L|13:30,1,115,2|2,3:2|3:2,0:0:0:0:
253,341,36504,2,0,L|255:188,1,115,10|2,3:3|0:0,0:0:0:0:
47,217,37040,5,6,0:0:0:0:
161,211,37308,1,2,0:0:0:0:
47,217,37576,1,2,3:2:0:0:
47,217,37843,1,2,3:2:0:0:
257,129,38111,2,0,L|355:130,2,57.5,10|8|2,3:0|3:0|0:0,0:0:0:0:
46,57,38647,6,0,L|176:54,1,115,2|2,3:2|0:0,0:0:0:0:
371,230,39183,2,0,L|223:229,1,115,2|2,0:0|3:2,0:0:0:0:
315,158,39584,1,8,0:3:0:0:
374,155,39718,2,0,L|376:12,1,115,6|10,3:2|0:0,0:0:0:0:
316,37,40120,1,8,0:0:0:0:
93,47,40254,6,0,L|81:164,1,115,4|2,0:0|0:0,0:0:0:0:
141,162,40656,1,10,3:0:0:0:
198,157,40790,2,0,L|340:155,1,115,2|2,3:2|0:0,0:0:0:0:
102,274,41326,2,0,L|234:272,1,115,10|2,3:0|0:0,0:0:0:0:
428,270,41861,5,4,3:2:0:0:
312,188,42129,1,2,0:0:0:0:
428,270,42397,1,2,3:2:0:0:
428,270,42665,1,8,3:0:0:0:
80,230,42933,2,0,L|72:106,1,115,10|2,0:0|3:2,0:0:0:0:
142,109,43334,1,0,3:0:0:0:
347,105,43468,6,0,L|481:105,2,115,14|2|10,0:0|3:0|3:0,0:0:0:0:
139,219,44272,1,10,0:0:0:0:
475,227,44540,2,0,L|337:227,1,115,2|0,3:2|3:0,0:0:0:0:
29,303,45076,5,4,3:2:0:0:
237,308,45343,1,8,0:0:0:0:
237,308,45611,1,0,3:0:0:0:
121,303,45879,2,0,L|122:235,1,57.5,2|2,0:0|0:0,0:0:0:0:
191,237,46147,1,10,0:0:0:0:
76,158,46415,1,2,3:2:0:0:
453,233,46683,6,0,L|460:105,1,115,4|10,3:2|3:0,0:0:0:0:
341,325,47218,2,0,L|348:197,1,115,10|8,3:0|3:0,0:0:0:0:
226,204,47754,1,8,3:0:0:0:
347,210,48022,1,10,3:0:0:0:
17,201,48290,6,0,L|17:72,1,115,6|10,3:2|3:0,0:0:0:0:
129,293,48825,2,0,L|129:159,1,115,10|8,3:0|3:0,0:0:0:0:
340,172,49361,1,8,3:0:0:0:
129,178,49629,1,2,0:0:0:0:
475,96,49897,6,0,P|359:143|511:220,1,345,6|0,3:2|0:0,0:0:0:0:
365,338,50968,1,0,0:0:0:0:
476,250,51236,1,0,0:0:0:0:
98,320,51504,6,0,L|294:317,1,172.5,14|12,0:0|0:0,0:0:0:0:
201,243,52040,1,0,0:0:0:0:
411,143,52308,1,10,0:0:0:0:
201,243,52576,2,0,L|199:98,1,115,2|10,3:2|3:0,0:0:0:0:
268,127,52977,1,8,3:0:0:0:
468,45,53111,6,0,L|317:44,1,115,6|2,0:0|0:0,0:0:0:0:
351,117,53513,2,0,L|496:119,1,115,2|0,3:0|0:0,0:0:0:0:
396,202,53915,1,10,0:0:0:0:
280,206,54183,1,2,0:0:0:0:
161,210,54451,1,2,3:2:0:0:
369,342,54718,6,0,L|376:226,1,115,2|0,3:0|0:0,0:0:0:0:
305,217,55120,2,0,L|155:217,1,115,2|2,3:2|0:0,0:0:0:0:
262,143,55522,1,10,0:0:0:0:
377,141,55790,1,2,0:0:0:0:
377,141,56058,1,2,0:0:0:0:
38,81,56326,6,0,L|227:80,1,172.5,6|2,3:2|3:0,0:0:0:0:
96,215,56995,1,2,0:0:0:0:
166,268,57129,2,0,L|28:269,1,115,10|2,0:0|0:0,0:0:0:0:
166,299,57665,1,2,3:2:0:0:
496,265,57933,6,0,L|495:138,1,115,2|2,3:2|0:0,0:0:0:0:
425,143,58334,1,2,3:2:0:0:
495,150,58468,1,2,0:0:0:0:
495,150,58602,1,10,0:0:0:0:
296,308,58736,1,10,0:0:0:0:
164,308,59004,1,8,0:0:0:0:
38,304,59272,1,0,3:0:0:0:
401,207,59540,6,0,L|407:89,1,115,4|2,3:2|0:0,0:0:0:0:
337,84,59942,2,0,P|281:32|360:20,1,172.5,0|10,3:0|0:0,0:0:0:0:
461,18,60611,1,2,0:0:0:0:
345,5,60879,1,2,3:2:0:0:
16,71,61147,6,0,L|17:205,1,115,10|0,0:0|0:0,0:0:0:0:
87,188,61549,2,0,L|246:187,1,115,2|2,3:2|3:2,0:0:0:0:
130,115,61951,1,10,0:0:0:0:
17,114,62218,1,2,3:0:0:0:
17,114,62486,1,2,3:2:0:0:
352,322,62754,6,0,L|362:156,1,115,4|2,3:2|0:0,0:0:0:0:
289,208,63156,1,2,0:0:0:0:
219,204,63290,1,2,0:0:0:0:
426,107,63558,1,8,0:0:0:0:
207,82,63826,1,2,0:0:0:0:
138,52,63959,1,2,0:0:0:0:
138,52,64093,1,2,3:2:0:0:
207,82,64227,1,2,0:0:0:0:
433,53,64361,6,0,L|438:194,1,115,10|0,0:0|3:0,0:0:0:0:
367,172,64763,2,0,L|217:175,1,115,10|0,0:0|3:0,0:0:0:0:
44,325,65165,2,0,L|180:326,1,115,10|0,0:0|3:0,0:0:0:0:
231,249,65567,2,0,L|117:250,1,115,10|8,0:0|0:0,0:0:0:0:
334,314,65968,5,6,0:0:0:0:
203,237,66236,1,2,0:0:0:0:
138,209,66370,2,0,L|10:207,1,115,2|2,3:2|3:2,0:0:0:0:
99,131,66772,1,10,0:0:0:0:
218,124,67040,1,2,0:0:0:0:
99,131,67308,1,2,3:2:0:0:
445,338,67576,6,0,L|471:202,1,115,2|0,3:2|0:0,0:0:0:0:
397,213,67977,2,0,L|243:216,1,115,2|2,3:2|3:2,0:0:0:0:
352,135,68379,1,10,0:0:0:0:
477,132,68647,1,2,0:0:0:0:
352,135,68915,1,2,0:0:0:0:
16,67,69183,6,0,L|161:66,1,115,6|2,0:0|0:0,0:0:0:0:
60,133,69584,2,0,L|56:258,1,115,2|0,3:2|3:0,0:0:0:0:
126,245,69986,1,10,0:0:0:0:
258,238,70254,1,2,0:0:0:0:
385,236,70522,1,2,3:2:0:0:
54,102,70790,6,0,L|54:8,1,57.5,2|8,3:2|0:0,0:0:0:0:
135,41,71058,2,0,L|30:45,1,57.5,2|2,0:0|3:2,0:0:0:0:
87,103,71326,2,0,L|192:107,1,57.5,2|2,0:0|3:2,0:0:0:0:
363,223,71593,2,0,L|507:225,2,115,10|8|0,0:0|0:0|3:0,0:0:0:0:
27,230,72397,6,0,L|196:225,1,115,4|2,3:2|0:0,0:0:0:0:
71,153,72799,2,0,L|55:18,1,115
127,35,73201,1,10,0:0:0:0:
335,34,73468,1,2,0:0:0:0:
127,35,73736,1,2,3:2:0:0:
467,311,74004,6,0,L|466:165,1,115,10|0,0:0|0:0,0:0:0:0:
396,199,74406,2,0,L|250:199,1,115,2|2,3:2|3:2,0:0:0:0:
350,128,74808,1,10,0:0:0:0:
218,124,75076,1,2,0:0:0:0:
85,121,75343,1,2,3:2:0:0:
443,336,75611,6,0,L|450:192,1,115,4|2,0:0|0:0,0:0:0:0:
378,217,76013,1,2,3:2:0:0:
167,211,76147,2,0,L|34:210,1,115,2|8,0:0|0:0,0:0:0:0:
387,124,76683,2,0,L|394:25,1,57.5,2|2,3:2|0:0,0:0:0:0:
331,55,76951,2,0,L|232:53,1,57.5,2|2,3:2|0:0,0:0:0:0:
486,225,77218,6,0,L|282:219,1,172.5,14|2,0:0|3:2,0:0:0:0:
385,147,77754,1,0,0:0:0:0:
36,336,78022,2,0,L|20:179,1,115,10|2,0:0|3:2,0:0:0:0:
93,213,78424,1,2,0:0:0:0:
162,204,78558,1,0,0:0:0:0:
494,89,78826,6,0,L|356:87,1,115,6|0,0:0|3:0,0:0:0:0:
160,135,79227,2,0,L|154:8,1,115,6|0,3:2|3:0,0:0:0:0:
224,15,79629,1,6,3:2:0:0:
155,20,79763,1,8,0:0:0:0:
45,22,79897,1,0,3:0:0:0:
269,88,80031,2,0,L|101:86,1,115,6|0,3:2|3:0,0:0:0:0:
435,262,80433,5,6,0:0:0:0:
256,192,80701,12,0,86861,0:0:0:0:
