osu file format v14

[General]
AudioFilename: audio.mp3
AudioLeadIn: 0
PreviewTime: 16
Countdown: 0
SampleSet: Soft
StackLeniency: 0.4
Mode: 0
LetterboxInBreaks: 0
WidescreenStoryboard: 1

[Editor]
Bookmarks: 15212,24855,40926,53783,66640,86861
DistanceSpacing: 1.9
BeatDivisor: 4
GridSize: 4
TimelineZoom: 2.2

[Metadata]
Title:Missing Promise (TV Size)
TitleUnicode:Missing Promise (TV Size)
Artist:Suzuki Konomi
ArtistUnicode:鈴木このみ
Creator:Lanzhu
Version:Spkztro's Insane
Source:ひぐらしのなく頃に卒
Tags:the moment Spkz cry higurashi no naku koro ni sotsu cicadas when nytrocide_ graduation ending anime ed jpop j-pop pop japanese erisu mayuzumi fuyuko heyimjarvis nextplay My_Angel_Kanan Onegai SkyFlame Azunyan- 07th expansion they
BeatmapID:3112792
BeatmapSetID:1510767

[Difficulty]
HPDrainRate:5
CircleSize:3.8
OverallDifficulty:8.5
ApproachRate:9
SliderMultiplier:1.6
SliderTickRate:1

[Events]
//Background and Video events
0,0,"begeh.jpg",0,0
Video,-752,"bg.mp4"
//Break Periods
//Storyboard Layer 0 (Background)
//Storyboard Layer 1 (Fail)
//Storyboard Layer 2 (Pass)
//Storyboard Layer 3 (Foreground)
//Storyboard Layer 4 (Overlay)
//Storyboard Sound Samples

[TimingPoints]
76,535.714285714286,3,2,17,45,1,0
76,-66.6666666666667,3,2,17,45,0,0
209,-66.6666666666667,3,2,2,45,0,0
343,-66.6666666666667,3,2,3,45,0,0
477,-66.6666666666667,3,2,4,45,0,0
611,-66.6666666666667,3,2,5,45,0,0
745,-66.6666666666667,3,2,6,45,0,0
879,-66.6666666666667,3,2,7,45,0,0
1147,-66.6666666666667,3,2,8,45,0,0
1236,-66.6666666666667,3,2,7,45,0,0
1326,-66.6666666666667,3,2,8,45,0,0
1415,-66.6666666666667,3,2,5,45,0,0
1683,-66.6666666666667,3,2,4,45,0,0
1951,-66.6666666666667,3,2,5,45,0,0
2218,-66.6666666666667,3,2,9,45,0,0
2486,-66.6666666666667,3,2,6,45,0,0
2754,-66.6666666666667,3,2,5,45,0,0
3022,-66.6666666666667,3,2,4,45,0,0
3290,-66.6666666666667,3,2,10,45,0,0
3558,-66.6666666666667,3,2,3,45,0,0
3647,-66.6666666666667,3,2,4,45,0,0
3737,-66.6666666666667,3,2,3,45,0,0
3826,-66.6666666666667,3,2,10,45,0,0
4093,-66.6666666666667,3,2,3,45,0,0
4450,-66.6666666666667,3,2,4,45,0,0
4540,-66.6666666666667,3,2,3,45,0,0
4629,-66.6666666666667,3,2,10,45,0,0
4897,-66.6666666666667,3,2,3,45,0,0
5165,-66.6666666666667,3,2,2,45,0,0
5433,-66.6666666666667,3,2,11,45,0,0
5701,-66.6666666666667,3,2,12,45,0,0
5969,-66.6666666666667,3,2,13,45,0,0
6237,-66.6666666666667,3,2,17,45,0,0
6504,-66.6666666666667,3,2,14,45,0,0
6637,-66.6666666666667,3,2,14,45,0,0
6772,-66.6666666666667,3,2,17,45,0,0
6905,-66.6666666666667,3,2,13,45,0,0
7040,-66.6666666666667,3,2,12,45,0,0
7173,-66.6666666666667,3,2,10,45,0,0
7308,-66.6666666666667,3,2,2,45,0,0
7576,-66.6666666666667,3,2,11,45,0,0
7665,-66.6666666666667,3,2,2,45,0,0
7755,-66.6666666666667,3,2,11,45,0,0
7844,-66.6666666666667,3,2,12,45,0,0
8111,-66.6666666666667,3,2,13,45,0,0
8379,-66.6666666666667,3,2,12,45,0,0
8647,-66.6666666666667,3,2,4,45,0,0
8915,-66.6666666666667,3,2,10,45,0,0
9183,-66.6666666666667,3,2,12,45,0,0
9451,-66.6666666666667,3,2,13,45,0,0
9718,-66.6666666666667,3,2,15,45,0,0
9986,-66.6666666666667,3,2,17,45,0,0
10075,-66.6666666666667,3,2,13,45,0,0
10165,-66.6666666666667,3,2,17,45,0,0
10254,-66.6666666666667,3,2,15,45,0,0
10522,-66.6666666666667,3,2,17,45,0,0
10879,-66.6666666666667,3,2,13,45,0,0
10969,-66.6666666666667,3,2,17,45,0,0
11058,-66.6666666666667,3,2,15,45,0,0
11326,-66.6666666666667,3,2,17,45,0,0
11593,-66.6666666666667,3,2,10,45,0,0
11861,-66.6666666666667,3,2,13,45,0,0
12129,-66.6666666666667,3,2,12,45,0,0
12397,-66.6666666666667,3,2,11,45,0,0
12665,-66.6666666666667,3,2,4,45,0,0
12933,-66.6666666666667,3,2,2,45,0,0
13201,-66.6666666666667,3,2,8,45,0,0
13468,-66.6666666666667,3,2,16,45,0,0
13736,-66.6666666666667,3,2,4,45,0,0
14004,-66.6666666666667,3,2,6,45,0,0
14272,-66.6666666666667,3,2,7,45,0,0
14540,-71.4285714285714,3,2,1,45,0,0
14942,-71.4285714285714,3,2,1,45,0,0
20968,-62.5,3,2,1,60,0,0
24183,-62.5,3,2,1,45,0,0
32822,-62.5,3,2,1,55,0,0
33826,-58.8235294117647,3,2,1,55,0,0
42933,-50,3,2,1,55,0,0
44004,-58.8235294117647,3,2,1,55,0,0
46684,-58.8235294117647,3,2,1,40,0,0
48291,-58.8235294117647,3,2,1,60,0,0
49898,-58.8235294117647,3,2,1,50,0,0
51505,-58.8235294117647,3,2,1,60,0,0
51907,-58.8235294117647,3,2,1,70,0,0
53111,-50,3,2,1,80,0,1
65901,-50,3,2,1,80,0,0
65968,-50,3,2,1,80,0,1
80433,-58.8235294117647,3,2,1,80,0,0
80835,-58.8235294117647,3,2,1,60,0,0
86861,-58.8235294117647,3,2,1,60,0,0

[Colours]
Combo1 : 151,108,208
Combo2 : 83,142,208
Combo3 : 255,62,62
Combo4 : 227,211,102

[HitObjects]
75,243,76,6,0,P|81:214|94:187,1,60.0000022888184,2|2,0:2|0:2,0:2:0:0:
186,82,343,2,0,P|197:109|202:139,1,60.0000022888184,2|2,0:2|0:2,0:2:0:0:
200,259,611,2,0,P|229:253|259:253,1,60.0000022888184,2|2,0:2|0:2,0:2:0:0:
324,109,879,6,0,P|308:134|298:162,1,60.0000022888184,2|0,0:2|0:0,0:0:0:0:
274,269,1147,1,2,0:2:0:0:
274,269,1236,1,2,0:2:0:0:
274,269,1326,1,2,0:2:0:0:
274,269,1415,1,2,0:2:0:0:
421,217,1683,5,2,0:2:0:0:
108,193,1951,1,2,0:2:0:0:
437,191,2218,1,2,0:2:0:0:
243,88,2486,5,2,0:2:0:0:
139,271,2754,1,2,0:2:0:0:
330,358,3022,1,2,0:2:0:0:
57,316,3290,6,0,P|46:287|45:258,1,60.0000022888184,2|0,0:2|0:0,0:0:0:0:
88,182,3558,1,2,0:2:0:0:
88,182,3647,1,2,0:2:0:0:
88,182,3737,1,2,0:2:0:0:
88,182,3826,1,2,0:2:0:0:
134,63,4093,6,0,P|144:91|145:120,1,60.0000022888184,2|0,0:2|0:0,0:0:0:0:
103,197,4361,1,2,0:2:0:0:
103,197,4450,1,2,0:2:0:0:
103,197,4540,1,2,0:2:0:0:
103,197,4629,1,2,0:2:0:0:
271,75,4897,5,2,0:2:0:0:
391,192,5165,1,2,0:2:0:0:
376,359,5433,1,2,0:2:0:0:
247,100,5701,5,2,0:2:0:0:
353,203,5969,1,2,0:2:0:0:
339,351,6237,1,2,0:2:0:0:
390,192,6504,6,0,P|396:162|396:132,1,60.0000022888184,2|0,0:2|0:0,0:0:0:0:
390,76,6772,1,2,0:2:0:0:
352,32,6905,1,2,0:2:0:0:
302,6,7040,1,2,0:2:0:0:
246,2,7173,1,2,0:2:0:0:
194,52,7308,6,0,P|204:79|209:124,1,60.0000022888184,2|0,0:2|0:0,0:0:0:0:
190,218,7576,1,2,0:2:0:0:
190,218,7665,1,2,0:2:0:0:
190,218,7755,1,2,0:2:0:0:
190,218,7844,1,2,0:2:0:0:
253,361,8111,5,2,0:2:0:0:
223,196,8379,1,2,0:2:0:0:
112,70,8647,1,2,0:2:0:0:
55,274,8915,5,2,0:2:0:0:
176,176,9183,1,2,0:2:0:0:
332,166,9451,1,2,0:2:0:0:
167,49,9718,6,0,P|136:55|111:70,1,60.0000022888184,2|0,0:2|0:0,0:0:0:0:
71,147,9986,1,2,0:2:0:0:
71,147,10075,1,2,0:2:0:0:
71,147,10165,1,2,0:2:0:0:
71,147,10254,1,2,0:2:0:0:
184,257,10522,6,0,P|177:226|162:201,1,60.0000022888184,2|0,0:2|0:0,0:0:0:0:
86,161,10790,1,2,0:2:0:0:
86,161,10879,1,2,0:2:0:0:
86,161,10969,1,2,0:2:0:0:
86,161,11058,1,2,0:2:0:0:
5,285,11326,5,2,0:2:0:0:
188,330,11593,1,2,0:2:0:0:
8,196,11861,1,2,0:2:0:0:
220,164,12129,1,2,0:2:0:0:
390,11,12397,5,2,0:2:0:0:
322,285,12665,1,2,0:2:0:0:
219,79,12933,1,2,0:2:0:0:
512,73,13201,1,2,0:2:0:0:
312,199,13468,1,2,0:2:0:0:
490,280,13736,1,2,0:2:0:0:
188,181,14004,1,2,0:2:0:0:
372,377,14272,1,2,0:2:0:0:
204,357,14540,6,0,P|149:335|76:337,1,111.999996582031,6|0,3:2|0:0,0:0:0:0:
0,244,14942,2,0,P|55:222|128:224,1,111.999996582031,2|0,0:0|0:0,0:0:0:0:
221,250,15343,2,0,P|223:217|231:180,1,55.9999982910157,2|0,0:0|0:0,0:0:0:0:
318,149,15611,2,0,P|316:116|308:79,1,55.9999982910157,2|0,3:2|0:0,0:0:0:0:
214,61,15879,2,0,P|216:28|224:-9,1,55.9999982910157,2|0,0:0|0:0,0:0:0:0:
332,0,16147,1,2,3:2:0:0:
151,139,16415,1,2,0:0:0:0:
391,198,16683,2,0,P|478:188|506:308,1,223.999993164063,2|0,3:2|3:0,0:0:0:0:
367,347,17486,1,2,0:0:0:0:
276,245,17754,6,0,P|211:234|149:263,1,111.999996582031,2|2,3:2|0:0,0:0:0:0:
74,361,18156,2,0,P|85:296|56:234,1,111.999996582031,2|0,0:0|0:0,0:0:0:0:
0,180,18558,2,0,P|-3:155|7:120,1,55.9999982910157,2|0,0:0|0:0,0:0:0:0:
80,57,18826,2,0,P|134:69|201:59,1,111.999996582031,2|2,3:2|0:0,0:0:0:0:
296,10,19361,2,0,P|350:-2|417:8,1,111.999996582031,2|2,3:2|0:0,0:0:0:0:
504,90,19897,6,0,L|496:149,1,55.9999982910157,2|0,3:2|0:0,0:0:0:0:
389,142,20165,2,0,L|397:201,1,55.9999982910157,2|0,0:0|0:0,0:0:0:0:
488,258,20433,2,0,L|480:317,1,55.9999982910157,2|0,3:2|0:0,0:0:0:0:
411,384,20701,1,2,0:0:0:0:
302,287,20968,6,0,B|245:276|165:280,1,128,6|2,3:2|0:0,0:0:0:0:
31,188,21370,1,0,3:0:0:0:
31,188,21504,2,0,P|22:229|19:264,1,64,2|0,0:0|3:0,0:0:0:0:
74,378,21772,5,8,0:0:0:0:
109,125,22040,2,0,P|103:83|94:49,1,64,2|8,0:0|0:0,0:0:0:0:
250,158,22308,2,0,P|255:116|264:82,1,64,2|0,3:2|0:0,0:0:0:0:
158,230,22576,5,2,3:2:0:0:
450,255,22843,2,0,P|485:259|522:271,1,64,2|8,0:0|0:0,0:0:0:0:
423,129,23111,2,0,P|458:124|495:112,1,64,2|0,0:0|3:0,0:0:0:0:
341,213,23379,5,6,3:2:0:0:
492,374,23647,2,0,P|460:369|428:369,1,64,2|0,3:2|0:0,0:0:0:0:
254,305,23915,2,0,P|285:300|317:300,1,64,2|0,3:2|0:0,0:0:0:0:
432,240,24183,6,0,P|444:177|429:116,1,128,6|2,0:0|0:0,0:0:0:0:
451,34,24585,2,0,P|402:74|339:81,1,128,2|0,3:2|0:0,0:0:0:0:
247,54,24986,2,0,P|186:34|123:38,2,128,2|2|0,0:0|0:0|0:0,0:0:0:0:
104,234,25790,6,0,P|187:216|193:301,1,192,2|0,3:2|0:0,0:0:0:0:
60,338,26326,2,0,P|91:343|118:359,1,64,2|0,3:2|0:0,0:0:0:0:
194,300,26593,2,0,P|220:316|252:321,1,64,2|0,0:0|0:0,0:0:0:0:
332,264,26861,2,0,P|326:233|310:206,1,64,0|0,3:0|0:0,0:0:0:0:
416,313,27129,2,0,P|399:340|394:371,1,64,2|0,0:0|0:0,0:0:0:0:
332,264,27397,6,0,P|380:224|443:218,1,128,6|2,0:0|0:0,0:0:0:0:
512,104,27799,1,2,3:2:0:0:
512,104,27933,2,0,L|448:95,1,64,0|0,3:0|0:0,0:0:0:0:
359,59,28201,2,0,L|295:67,1,64,2|0,0:0|0:0,0:0:0:0:
212,114,28468,2,0,L|148:105,1,64,2|0,3:2|0:0,0:0:0:0:
54,9,28736,2,0,L|118:18,1,64,2|0,0:0|0:0,0:0:0:0:
38,130,29004,6,0,P|36:40|73:-9,1,128,2|0,3:2|0:0,0:0:0:0:
123,87,29406,1,0,3:0:0:0:
123,87,29540,2,0,P|131:117|132:149,1,64,0|0,3:0|0:0,0:0:0:0:
61,217,29808,2,0,P|53:247|52:279,1,64,2|0,3:2|0:0,0:0:0:0:
133,354,30076,6,0,L|324:370,1,192,6|0,3:2|0:0,0:0:0:0:
433,165,30611,2,0,P|373:184|320:307,1,192,6|0,0:0|0:0,0:0:0:0:
288,159,31147,2,0,P|267:99|218:59,1,128,2|0,3:2|3:0,0:0:0:0:
92,53,31549,1,0,0:0:0:0:
92,53,31683,2,0,L|15:64,1,64,0|0,3:0|0:0,0:0:0:0:
89,194,31951,2,0,L|166:205,1,64,2|0,3:2|0:0,0:0:0:0:
190,355,32218,5,6,0:0:0:0:
126,361,32352,1,8,0:0:0:0:
67,336,32486,1,10,0:2:0:0:
28,285,32620,1,8,0:0:0:0:
18,221,32754,1,10,0:2:0:0:
41,161,32887,1,8,0:0:0:0:
91,120,33021,1,8,0:2:0:0:
153,108,33155,1,8,0:0:0:0:
213,129,33290,6,0,P|241:149|255:175,1,64,8|0,0:0|0:0,0:0:0:0:
436,278,33558,2,0,P|451:250|477:232,1,64,8|0,0:0|0:0,0:0:0:0:
346,130,33826,6,0,B|367:175|346:220|346:220|320:275|347:327,1,204.000003890991,4|2,3:2|3:2,0:0:0:0:
212,350,34361,2,0,L|143:336,1,68.0000012969971,2|0,3:2|0:0,0:0:0:0:
188,188,34629,2,0,L|257:174,1,68.0000012969971,2|0,3:2|0:0,0:0:0:0:
89,62,34897,1,10,0:3:0:0:
89,62,35031,1,8,0:3:0:0:
89,62,35165,2,0,P|48:121|47:185,1,136.000002593994,2|4,0:0|3:2,0:0:0:0:
392,55,35701,5,2,0:0:0:0:
392,55,35834,1,2,0:0:0:0:
392,55,35968,2,0,P|359:46|325:45,1,68.0000012969971,2|0,3:2|0:0,0:0:0:0:
167,117,36236,2,0,P|200:115|233:107,1,68.0000012969971,2|0,3:2|0:0,0:0:0:0:
69,22,36504,2,0,P|60:54|59:88,1,68.0000012969971,10|8,3:3|3:0,0:0:0:0:
158,184,36772,2,0,P|166:151|167:117,1,68.0000012969971,2|0,0:0|0:0,0:0:0:0:
0,323,37040,6,0,B|64:301|64:301|132:297,1,136.000002593994,6|2,0:0|0:0,0:0:0:0:
270,344,37442,1,0,3:0:0:0:
270,344,37576,2,0,L|348:357,1,68.0000012969971,2|0,3:2|0:0,0:0:0:0:
225,195,37843,2,0,L|158:184,1,68.0000012969971,2|0,3:2|0:0,0:0:0:0:
347,81,38111,1,10,3:0:0:0:
347,81,38245,1,8,3:0:0:0:
347,81,38379,2,0,L|413:64,1,68.0000012969971,2|0,0:0|0:0,0:0:0:0:
512,274,38647,6,0,P|493:208|512:138,1,136.000002593994,2|2,3:2|0:0,0:0:0:0:
351,85,39049,1,0,3:0:0:0:
351,85,39183,2,0,P|366:115|373:148,1,68.0000012969971,2|0,0:0|0:0,0:0:0:0:
376,303,39451,2,0,P|369:336|353:366,1,68.0000012969971,2|8,3:2|0:3,0:0:0:0:
282,272,39718,1,6,3:2:0:0:
282,272,39785,1,0,0:0:0:0:
282,272,39852,1,0,0:0:0:0:
244,214,39986,5,10,0:0:0:0:
185,179,40119,1,8,0:0:0:0:
117,167,40254,2,0,P|83:165|50:173,1,68.0000012969971,4|0,0:0|0:0,0:0:0:0:
45,300,40522,5,2,0:0:0:0:
45,300,40656,1,10,3:0:0:0:
45,300,40790,2,0,L|52:372,1,68.0000012969971,2|0,3:2|0:0,0:0:0:0:
237,281,41058,2,0,L|244:209,1,68.0000012969971,2|0,0:0|0:0,0:0:0:0:
429,300,41326,2,0,L|436:372,1,68.0000012969971,10|8,3:0|3:0,0:0:0:0:
469,190,41593,2,0,P|401:182|340:227,1,136.000002593994,2|4,0:0|3:2,0:0:0:0:
432,70,42129,6,0,P|434:31|446:-6,1,68.0000012969971,2|0,0:0|0:0,0:0:0:0:
333,122,42397,2,0,P|320:84|299:52,1,68.0000012969971,2|0,3:2|0:0,0:0:0:0:
469,190,42665,2,0,P|490:157|519:131,1,68.0000012969971,8|0,3:0|0:0,0:0:0:0:
291,240,42933,2,0,P|212:207|120:218,1,160,10|2,0:0|3:2,0:0:0:0:
19,288,43334,1,0,3:0:0:0:
19,288,43468,2,0,L|4:209,1,80,14|0,0:0|0:0,0:0:0:0:
97,136,43736,2,0,L|111:57,1,80,2|0,3:2|3:0,0:0:0:0:
12,1,44004,1,10,3:0:0:0:
116,226,44272,1,10,0:0:0:0:
201,50,44540,6,0,B|244:23|298:50|298:50|364:82|409:49,1,204.000003890991,2|0,3:2|0:0,0:0:0:0:
497,12,45076,2,0,P|508:49|513:82,1,68.0000012969971,4|0,3:2|0:0,0:0:0:0:
423,153,45343,1,8,0:0:0:0:
423,153,45477,1,8,0:0:0:0:
423,153,45611,2,0,P|412:190|407:223,1,68.0000012969971,0|0,3:0|3:0,0:0:0:0:
477,318,45879,5,2,0:0:0:0:
302,373,46147,1,10,0:0:0:0:
407,218,46415,1,2,3:2:0:0:
293,257,46683,6,0,P|262:264|218:293,1,68.0000012969971,4|0,3:2|0:0,0:0:0:0:
174,192,46951,2,0,P|145:177|110:137,1,68.0000012969971,10|0,3:0|0:0,0:0:0:0:
116,307,47218,2,0,P|92:328|69:375,1,68.0000012969971,10|0,3:0|0:0,0:0:0:0:
26,210,47486,2,0,P|9:183|-1:131,1,68.0000012969971,8|0,3:0|0:0,0:0:0:0:
64,48,47754,5,8,3:0:0:0:
0,302,48022,1,10,3:0:0:0:
174,192,48290,2,0,P|243:174|310:199,1,136.000002593994,6|10,3:2|3:0,0:0:0:0:
373,299,48692,1,8,3:0:0:0:
490,255,48826,2,0,P|486:216|488:185,1,68.0000012969971,10|8,3:0|3:0,0:0:0:0:
425,123,49093,2,0,P|429:84|427:53,1,68.0000012969971,8|8,3:0|0:0,0:0:0:0:
500,1,49361,5,8,3:0:0:0:
342,87,49495,1,8,0:0:0:0:
512,100,49629,5,2,0:0:0:0:
382,0,49763,1,8,0:0:0:0:
382,0,49830,1,8,0:0:0:0:
382,0,49897,1,6,3:2:0:0:
189,266,51504,6,0,P|242:226|317:241,1,136.000002593994,14|0,0:0|0:0,0:0:0:0:
125,150,51906,2,0,P|63:125|-6:159,1,136.000002593994,12|0,0:0|0:0,0:0:0:0:
221,60,52308,2,0,P|258:49|309:64,1,68.0000012969971,10|0,0:0|0:0,0:0:0:0:
385,151,52576,1,2,3:2:0:0:
414,62,52709,1,8,3:0:0:0:
487,2,52843,1,10,3:0:0:0:
463,236,53111,6,0,P|382:253|302:233,1,160,6|2,0:0|0:0,0:0:0:0:
165,150,53513,2,0,P|87:132|9:149,1,160,2|0,3:0|0:0,0:0:0:0:
79,353,53915,2,0,P|94:316|95:276,1,80,10|0,0:0|0:0,0:0:0:0:
149,74,54183,2,0,P|150:114|166:151,1,80,2|0,0:0|0:0,0:0:0:0:
309,235,54451,2,0,P|348:234|385:218,1,80,2|0,3:2|0:0,0:0:0:0:
478,5,54718,6,0,L|460:164,1,160,2|0,3:0|0:0,0:0:0:0:
310,85,55120,1,2,3:2:0:0:
226,102,55254,1,2,0:0:0:0:
243,186,55388,1,2,0:0:0:0:
149,74,55522,1,10,0:0:0:0:
82,282,55790,5,2,0:0:0:0:
141,180,55924,1,2,0:0:0:0:
101,306,56058,1,2,0:0:0:0:
112,155,56192,1,2,0:0:0:0:
120,329,56326,6,0,P|197:311|276:321,1,160,6|2,3:2|0:0,0:0:0:0:
454,384,56727,2,0,P|436:307|446:228,1,160,2|2,3:0|0:0,0:0:0:0:
512,79,57129,2,0,P|475:63|435:61,1,80,10|0,0:0|0:0,0:0:0:0:
311,153,57397,2,0,P|271:151|235:136,1,80,2|0,0:0|0:0,0:0:0:0:
55,211,57665,2,0,P|57:171|72:134,1,80,2|2,3:2|0:0,0:0:0:0:
178,46,57933,5,2,3:2:0:0:
197,206,58067,1,10,0:0:0:0:
72,134,58201,1,2,0:0:0:0:
210,123,58334,1,2,3:2:0:0:
117,202,58468,1,2,0:0:0:0:
89,278,58602,1,10,0:0:0:0:
101,356,58736,6,0,P|139:345|178:339,1,80,10|0,0:0|0:0,0:0:0:0:
329,257,59004,2,0,P|300:230|276:199,1,80,8|0,0:0|3:0,0:0:0:0:
128,108,59272,2,0,P|119:147|104:184,1,80,0|0,3:0|3:0,0:0:0:0:
456,122,59540,6,0,B|397:155|343:110|343:110|286:65|233:90,1,240,4|0,3:2|3:0,0:0:0:0:
63,19,60076,1,2,0:0:0:0:
63,19,60209,1,0,3:0:0:0:
63,19,60343,2,0,P|104:7|161:8,1,80,10|0,0:0|0:0,0:0:0:0:
104,184,60611,2,0,P|63:196|6:195,1,80,2|0,0:0|0:0,0:0:0:0:
234,90,60879,2,0,P|246:49|245:-8,1,80,2|0,3:2|0:0,0:0:0:0:
194,244,61147,6,0,L|353:227,1,160,10|0,0:0|0:0,0:0:0:0:
407,29,61549,2,0,L|247:12,1,160,2|2,3:2|3:2,0:0:0:0:
57,22,61951,2,0,L|44:108,1,80,10|0,0:0|0:0,0:0:0:0:
194,245,62218,2,0,L|205:165,1,80,2|8,3:0|0:0,0:0:0:0:
77,216,62486,2,0,L|64:302,1,80,2|0,3:2|3:0,0:0:0:0:
135,65,62754,6,0,P|212:52|285:83,1,160,4|2,3:2|0:0,0:0:0:0:
359,356,63156,1,2,0:0:0:0:
359,356,63290,2,0,P|346:277|360:199,1,160,2|8,0:0|0:0,0:0:0:0:
435,113,63692,1,2,0:0:0:0:
367,61,63825,1,2,0:0:0:0:
285,83,63959,1,2,0:0:0:0:
252,162,64093,1,2,3:2:0:0:
175,200,64227,1,2,0:0:0:0:
59,64,64361,5,10,0:0:0:0:
93,245,64495,1,0,3:0:0:0:
93,245,64629,1,0,3:0:0:0:
143,81,64763,5,10,0:0:0:0:
15,207,64897,1,0,3:0:0:0:
15,207,65031,1,0,3:0:0:0:
167,215,65165,5,10,0:0:0:0:
6,126,65299,1,0,3:0:0:0:
6,126,65433,1,0,3:0:0:0:
213,54,65567,5,10,0:0:0:0:
220,239,65701,1,8,0:0:0:0:
220,239,65834,1,8,0:0:0:0:
137,165,65968,6,0,B|213:138|213:138|312:157,1,160,6|2,0:0|0:0,0:0:0:0:
422,228,66370,2,0,P|425:180|440:135,1,80,2|0,3:2|0:0,0:0:0:0:
376,337,66638,1,2,3:2:0:0:
258,309,66772,2,0,P|238:264|209:227,1,80,10|0,0:0|0:0,0:0:0:0:
63,196,67040,5,2,0:0:0:0:
305,160,67308,1,2,3:2:0:0:
102,292,67576,2,0,B|182:271|178:326|263:307,1,160,2|0,3:2|0:0,0:0:0:0:
361,378,67977,2,0,P|365:338|385:290,1,80,2|0,3:2|0:0,0:0:0:0:
466,208,68245,1,2,3:2:0:0:
232,226,68379,2,0,P|206:195|174:172,1,80,10|0,0:0|0:0,0:0:0:0:
375,118,68647,2,0,P|407:94|444:80,1,80,2|8,0:0|0:0,0:0:0:0:
231,58,68915,2,0,P|193:44|153:40,1,80,2|0,0:0|3:0,0:0:0:0:
87,175,69183,6,0,P|62:108|0:140,1,160,6|2,0:0|0:0,0:0:0:0:
198,225,69584,2,0,P|222:158|285:190,1,160,2|0,3:2|3:0,0:0:0:0:
98,302,69986,2,0,L|19:286,1,80,10|0,0:0|0:0,0:0:0:0:
202,351,70254,2,0,L|280:335,1,80,2|0,0:0|0:0,0:0:0:0:
382,281,70522,2,0,L|460:296,1,80,2|0,3:2|0:0,0:0:0:0:
265,133,70790,6,0,P|259:85|242:40,1,80,2|8,3:2|0:0,0:0:0:0:
266,243,71058,1,2,0:0:0:0:
389,139,71192,6,0,P|418:100|455:69,1,80,2|2,3:2|0:0,0:0:0:0:
312,313,71460,1,2,3:2:0:0:
437,251,71593,6,0,P|481:231|529:223,1,80,10|0,0:0|3:0,0:0:0:0:
385,355,71861,1,8,0:0:0:0:
359,189,71995,5,8,0:0:0:0:
484,340,72129,1,0,3:0:0:0:
292,308,72263,1,0,3:0:0:0:
455,253,72397,5,4,3:2:0:0:
469,241,72665,2,0,P|479:207|477:157,1,80,2|0,0:0|0:0,0:0:0:0:
411,81,72933,2,0,P|377:71|327:73,1,80,2|0,0:0|3:0,0:0:0:0:
250,135,73201,2,0,P|216:145|166:143,1,80,10|0,0:0|0:0,0:0:0:0:
84,88,73468,5,2,0:0:0:0:
233,286,73736,1,2,3:2:0:0:
10,183,74004,2,0,B|31:264|10:341,1,160,10|0,0:0|0:0,0:0:0:0:
232,304,74406,2,0,P|237:260|251:220,1,80,2|0,3:2|0:0,0:0:0:0:
126,372,74674,1,2,3:2:0:0:
308,377,74808,2,0,P|352:372|392:357,1,80,10|0,0:0|0:0,0:0:0:0:
512,257,75076,2,0,P|468:246|426:246,1,80,2|0,0:0|0:0,0:0:0:0:
327,281,75343,1,2,3:2:0:0:
512,372,75611,5,4,0:0:0:0:
324,173,75879,1,2,0:0:0:0:
324,173,76013,1,2,3:2:0:0:
324,173,76147,2,0,P|327:129|337:82,1,80,2|0,0:0|3:0,0:0:0:0:
383,15,76415,1,8,0:0:0:0:
149,275,76683,6,0,P|146:231|136:184,1,80,2|2,3:2|0:0,0:0:0:0:
90,117,76951,1,2,3:2:0:0:
90,117,77084,1,2,0:0:0:0:
252,205,77218,2,0,P|324:172|422:169,1,160,14|0,0:0|3:0,0:0:0:0:
512,96,77620,2,0,P|439:63|341:60,1,160,2|0,3:2|0:0,0:0:0:0:
243,83,78022,2,0,P|236:43|219:6,2,80,10|0|2,0:0|3:2|3:2,0:0:0:0:
252,205,78424,2,0,P|225:283|136:298,1,160,2|0,0:0|0:0,0:0:0:0:
1,166,78826,6,0,P|72:147|173:134,1,160,6|0,0:0|0:0,0:0:0:0:
331,255,79227,2,0,P|260:236|159:223,1,160,6|0,3:2|0:0,0:0:0:0:
66,259,79629,2,0,P|61:303|49:342,2,80,6|8|0,3:2|0:0|3:0,0:0:0:0:
81,148,80031,1,6,3:2:0:0:
81,148,80165,2,0,P|76:104|64:65,1,80,0|0,3:0|0:0,0:0:0:0:
174,223,80433,5,6,0:0:0:0:
256,192,80567,12,2,83379,0:0:0:0:
278,71,83647,6,0,P|314:69|368:51,2,68.0000012969971,6|2|2,3:2|0:0|0:0,0:0:0:0:
185,110,84049,2,0,P|149:108|95:90,2,68.0000012969971,2|0|2,3:2|0:0|0:0,0:0:0:0:
301,253,84451,2,0,P|306:289|302:325,1,68.0000012969971,2|2,0:0|0:0,0:0:0:0:
264,165,84718,1,2,0:0:0:0:
359,177,84852,2,0,P|395:172|430:176,1,68.0000012969971,2|2,0:0|0:0,0:0:0:0:
206,241,85120,1,2,0:0:0:0:
302,320,85254,5,2,0:0:0:0:
301,320,85388,2,0,P|201:338|110:382,1,204.000003890991,2|2,0:0|0:0,0:0:0:0:
123,269,85924,2,0,P|121:235|127:201,1,68.0000012969971,2|2,0:0|0:0,0:0:0:0:
21,178,86192,1,2,0:0:0:0:
21,178,86326,2,0,P|13:144|0:114,1,68.0000012969971,2|2,0:0|0:0,0:0:0:0:
115,87,86593,2,0,P|130:56|152:30,1,68.0000012969971,2|6,0:0|0:0,0:0:0:0:
