osu file format v14

[General]
AudioFilename: audio.mp3
AudioLeadIn: 0
PreviewTime: 16
Countdown: 0
SampleSet: Soft
StackLeniency: 0.4
Mode: 0
LetterboxInBreaks: 0
WidescreenStoryboard: 1

[Editor]
Bookmarks: 52914
DistanceSpacing: 1.4
BeatDivisor: 8
GridSize: 32
TimelineZoom: 2.2

[Metadata]
Title:Missing Promise (TV Size)
TitleUnicode:Missing Promise (TV Size)
Artist:Suzuki Konomi
ArtistUnicode:鈴木このみ
Creator:Lanzhu
Version:Next's Hard
Source:ひぐらしのなく頃に卒
Tags:the moment Spkz cry higurashi no naku koro ni sotsu cicadas when nytrocide_ graduation ending anime ed jpop j-pop pop japanese erisu mayuzumi fuyuko heyimjarvis nextplay My_Angel_Kanan Onegai SkyFlame Azunyan- 07th expansion they
BeatmapID:3093681
BeatmapSetID:1510767

[Difficulty]
HPDrainRate:4.5
CircleSize:3.8
OverallDifficulty:6.5
ApproachRate:8
SliderMultiplier:2.1
SliderTickRate:1

[Events]
//Background and Video events
0,0,"bg.jpg",0,0
Video,-752,"bg.mp4"
//Break Periods
//Storyboard Layer 0 (Background)
//Storyboard Layer 1 (Fail)
//Storyboard Layer 2 (Pass)
//Storyboard Layer 3 (Foreground)
//Storyboard Layer 4 (Overlay)
//Storyboard Sound Samples

[TimingPoints]
76,535.714285714286,3,2,17,45,1,0
76,-142.857142857143,4,2,17,45,0,0
77,-142.857142857143,4,2,17,45,0,0
210,-142.857142857143,4,2,2,45,0,0
344,-142.857142857143,4,2,3,45,0,0
477,-142.857142857143,4,2,4,45,0,0
612,-142.857142857143,4,2,5,45,0,0
746,-142.857142857143,4,2,6,45,0,0
880,-142.857142857143,4,2,7,45,0,0
1148,-142.857142857143,4,2,8,45,0,0
1237,-142.857142857143,4,2,7,45,0,0
1326,-142.857142857143,4,2,8,45,0,0
1415,-142.857142857143,4,2,5,45,0,0
1684,-142.857142857143,4,2,4,45,0,0
1952,-142.857142857143,4,2,5,45,0,0
2219,-142.857142857143,4,2,9,45,0,0
2486,-142.857142857143,4,2,6,45,0,0
2755,-142.857142857143,4,2,5,45,0,0
3023,-142.857142857143,4,2,4,45,0,0
3291,-142.857142857143,4,2,10,45,0,0
3559,-142.857142857143,4,2,3,45,0,0
3648,-142.857142857143,4,2,4,45,0,0
3737,-142.857142857143,4,2,3,45,0,0
3826,-142.857142857143,4,2,10,45,0,0
4094,-142.857142857143,4,2,3,45,0,0
4451,-142.857142857143,4,2,4,45,0,0
4540,-142.857142857143,4,2,3,45,0,0
4629,-142.857142857143,4,2,10,45,0,0
4898,-142.857142857143,4,2,3,45,0,0
5165,-142.857142857143,4,2,2,45,0,0
5434,-142.857142857143,4,2,11,45,0,0
5702,-142.857142857143,4,2,12,45,0,0
5969,-142.857142857143,4,2,13,45,0,0
6236,-142.857142857143,4,2,17,45,0,0
6505,-142.857142857143,4,2,14,45,0,0
6638,-142.857142857143,4,2,14,45,0,0
6773,-142.857142857143,4,2,17,45,0,0
6906,-142.857142857143,4,2,13,45,0,0
7041,-142.857142857143,4,2,12,45,0,0
7174,-142.857142857143,4,2,10,45,0,0
7309,-142.857142857143,4,2,2,45,0,0
7577,-142.857142857143,4,2,11,45,0,0
7666,-142.857142857143,4,2,2,45,0,0
7755,-142.857142857143,4,2,11,45,0,0
7844,-142.857142857143,4,2,12,45,0,0
8112,-142.857142857143,4,2,13,45,0,0
8379,-142.857142857143,4,2,12,45,0,0
8648,-142.857142857143,4,2,4,45,0,0
8916,-142.857142857143,4,2,10,45,0,0
9184,-142.857142857143,4,2,12,45,0,0
9451,-142.857142857143,4,2,13,45,0,0
9719,-142.857142857143,4,2,15,45,0,0
9987,-142.857142857143,4,2,17,45,0,0
10076,-142.857142857143,4,2,13,45,0,0
10165,-142.857142857143,4,2,17,45,0,0
10254,-142.857142857143,4,2,15,45,0,0
10523,-142.857142857143,4,2,17,45,0,0
10880,-142.857142857143,4,2,13,45,0,0
10969,-142.857142857143,4,2,17,45,0,0
11058,-142.857142857143,4,2,15,45,0,0
11327,-142.857142857143,4,2,17,45,0,0
11594,-142.857142857143,4,2,10,45,0,0
11862,-142.857142857143,4,2,13,45,0,0
12130,-142.857142857143,4,2,12,45,0,0
12398,-142.857142857143,4,2,11,45,0,0
12666,-142.857142857143,4,2,4,45,0,0
12934,-142.857142857143,4,2,2,45,0,0
13202,-142.857142857143,4,2,8,45,0,0
13469,-142.857142857143,4,2,16,45,0,0
13737,-142.857142857143,4,2,4,45,0,0
14005,-142.857142857143,4,2,6,45,0,0
14273,-142.857142857143,4,2,7,45,0,0
14540,-125,4,2,1,45,0,0
14943,-125,4,2,1,45,0,0
20968,-111.111111111111,4,2,1,60,0,0
22510,-111.111111111111,4,2,1,60,0,0
22577,-111.111111111111,4,2,1,60,0,0
24183,-125,4,2,1,45,0,0
28938,-125,4,2,1,45,0,0
29005,-125,4,2,1,45,0,0
32487,-125,4,2,1,45,0,0
32755,-125,4,2,1,45,0,0
32822,-125,4,2,1,55,0,0
33827,-125,4,2,1,55,0,0
37309,-125,4,2,1,55,0,0
38112,-125,4,2,1,55,0,0
40255,-125,4,2,1,55,0,0
41059,-125,4,2,1,55,0,0
43202,-125,4,2,1,55,0,0
43468,-111.111111111111,4,2,1,55,0,0
46684,-111.111111111111,4,2,1,40,0,0
46952,-111.111111111111,4,2,1,40,0,0
47219,-111.111111111111,4,2,1,40,0,0
47487,-111.111111111111,4,2,1,40,0,0
47755,-111.111111111111,4,2,1,40,0,0
48023,-111.111111111111,4,2,1,40,0,0
48291,-111.111111111111,4,2,1,60,0,0
49898,-111.111111111111,4,2,1,50,0,0
51505,-111.111111111111,4,2,1,60,0,0
51906,-111.111111111111,4,2,1,70,0,0
53111,-100,4,2,1,80,0,1
58737,-100,4,2,1,80,0,1
65567,-100,4,2,1,80,0,0
65768,-100,4,2,1,80,0,0
65968,-100,4,2,1,80,0,1
79898,-100,4,2,1,80,0,1
80433,-105.263157894737,4,2,1,80,0,0
80835,-105.263157894737,4,2,1,60,0,0
85254,-142.857142857143,4,2,1,60,0,0

[Colours]
Combo1 : 255,62,62
Combo2 : 191,191,0

[HitObjects]
57,49,76,6,0,L|54:100,1,36.749998878479,2|2,0:0|0:0,0:0:0:0:
77,155,343,2,0,L|80:206,1,36.749998878479,2|2,0:0|0:0,0:0:0:0:
55,262,611,2,0,L|51:308,1,36.749998878479,2|2,0:0|0:0,0:2:0:0:
101,355,879,1,2,0:0:0:0:
207,304,1147,2,0,B|224:307|224:307|246:303,3,24.4999992523194,2|2|2|2,0:0|0:0|0:0|0:0,0:0:0:0:
345,278,1683,5,2,0:0:0:0:
442,212,1951,1,2,0:0:0:0:
361,128,2218,2,0,P|370:86|362:53,1,73.4999977569581,2|2,0:0|0:0,0:0:0:0:
252,16,2754,2,0,L|192:20,1,36.749998878479,2|0,0:0|0:0,0:0:0:0:
140,28,3022,1,2,0:0:0:0:
46,99,3290,5,2,0:0:0:0:
130,180,3558,2,0,B|136:196|136:196|138:216,3,24.4999992523194,2|2|2|2,0:0|0:0|0:0|0:0,0:0:0:0:
29,238,4093,1,2,0:0:0:0:
134,289,4361,2,0,B|125:307|125:307|121:327,3,24.4999992523194,2|2|2|2,0:0|0:0|0:0|0:0,0:0:0:0:
233,268,4897,6,0,P|268:277|325:263,1,73.4999977569581,2|2,0:0|0:0,0:0:0:0:
384,185,5433,1,2,0:0:0:0:
300,102,5701,1,2,0:0:0:0:
188,139,5968,2,0,P|197:92|188:52,1,73.4999977569581,2|2,0:0|0:0,0:0:0:0:
299,15,6504,6,0,L|360:18,1,36.749998878479,2|2,0:0|0:0,0:0:0:0:
408,44,6772,2,0,L|455:41,1,36.749998878479,2|2,0:0|0:0,0:0:0:0:
507,88,7040,2,0,P|512:113|512:134,1,36.749998878479,2|2,0:0|0:0,0:0:0:0:
460,177,7308,1,2,0:0:0:0:
507,284,7576,2,0,B|491:288|491:288|469:287,3,24.4999992523194,2|2|2|2,0:0|0:0|0:0|0:0,0:0:0:0:
366,300,8111,6,0,P|347:320|293:329,1,73.4999977569581,2|2,0:0|0:0,0:0:0:0:
204,266,8647,1,2,0:0:0:0:
131,358,8915,1,2,0:0:0:0:
47,275,9183,2,0,P|53:239|54:195,1,73.4999977569581,2|2,0:0|0:0,0:0:0:0:
27,87,9718,5,2,0:0:0:0:
136,43,9986,2,0,B|151:41|151:41|165:43,3,24.4999992523194,2|2|2|2,0:0|0:0|0:0|0:0,0:0:0:0:
261,94,10522,1,2,0:0:0:0:
163,159,10790,2,0,B|147:160|147:160|130:156,3,24.4999992523194,2|2|2|2,0:0|0:0|0:0|0:0,0:0:0:0:
261,94,11325,5,2,0:0:0:0:
256,192,11458,12,2,14003,0:0:0:0:
250,130,14540,6,0,P|210:110|146:119,1,84,6|0,3:2|0:0,0:0:0:0:
103,130,14941,2,0,L|116:279,1,126,2|2,0:0|0:0,0:0:0:0:
146,362,15611,1,2,3:2:0:0:
244,318,15879,2,0,L|314:303,1,42,2|0,0:0|0:0,0:0:0:0:
348,275,16147,6,0,P|384:293|438:287,1,84,2|2,3:2|0:0,0:0:0:0:
452,184,16683,2,0,P|384:153|400:215,1,168,2|0,3:2|3:0,0:0:0:0:
284,214,17485,1,2,0:0:0:0:
249,110,17754,6,0,P|199:89|153:110,1,84,2|2,3:2|0:0,0:0:0:0:
119,144,18156,2,0,L|130:284,1,126,2|2,0:0|0:0,0:0:0:0:
231,308,18826,1,2,3:2:0:0:
284,214,19093,1,2,0:0:0:0:
381,258,19361,6,0,P|424:240|462:251,1,84,2|2,3:2|0:0,0:0:0:0:
424,353,19897,1,2,3:2:0:0:
317,376,20165,1,2,0:0:0:0:
231,308,20433,2,0,P|190:315|145:298,1,84,2|2,3:2|0:0,0:0:0:0:
65,212,20968,6,0,B|88:197|88:197|157:207,1,94.499997116089,6|2,3:2|0:0,0:0:0:0:
232,226,21370,1,0,3:0:0:0:
297,179,21504,1,2,0:0:0:0:
333,250,21638,1,0,3:0:0:0:
414,254,21772,2,0,L|482:242,1,47.2499985580445,8|0,0:0|0:0,0:0:0:0:
419,175,22040,2,0,L|442:110,1,47.2499985580445,2|8,0:0|0:0,0:0:0:0:
355,115,22308,2,0,L|310:62,1,47.2499985580445,2|0,3:2|0:0,0:0:0:0:
259,27,22576,5,2,3:2:0:0:
198,78,22709,2,0,L|135:71,1,47.2499985580445,8|2,0:0|0:0,0:0:0:0:
70,81,22977,2,0,P|90:122|85:187,1,94.499997116089,8|0,0:0|3:0,0:0:0:0:
50,240,23379,1,6,3:2:0:0:
106,297,23513,1,8,0:0:0:0:
166,244,23647,2,0,P|187:250|224:253,1,47.2499985580445,2|0,3:2|3:0,0:0:0:0:
282,212,23915,2,0,P|303:206|340:203,1,47.2499985580445,2|0,3:2|3:0,0:0:0:0:
406,226,24183,6,0,P|441:249|496:250,1,84,6|2,0:0|0:0,0:0:0:0:
509,187,24584,2,0,P|526:128|497:48,1,126,2|2,3:2|0:0,0:0:0:0:
402,51,25254,2,0,L|303:64,1,84,2|0,0:0|3:0,0:0:0:0:
208,62,25790,5,2,3:2:0:0:
113,119,26058,2,0,L|53:117,1,42,2|0,0:0|3:0,0:0:0:0:
10,154,26325,2,0,P|36:204|28:248,1,84,2|0,3:2|0:0,0:0:0:0:
25,330,26861,2,0,L|79:321,1,42,0|0,3:0|3:0,0:0:0:0:
129,289,27129,2,0,L|183:298,1,42,2|8,0:0|3:0,0:0:0:0:
240,278,27397,6,0,P|259:235|243:173,1,84,6|2,0:0|0:0,0:0:0:0:
231,131,27799,2,0,P|267:112|350:155,1,126,2|2,3:2|0:0,0:0:0:0:
397,235,28468,2,0,P|386:280|402:330,1,84,2|2,3:2|0:0,0:0:0:0:
495,271,29004,6,0,P|506:230|495:188,1,84,2|0,3:2|0:0,0:0:0:0:
488,81,29540,1,0,3:0:0:0:
388,34,29808,2,0,L|332:29,1,42,2|0,3:2|0:0,0:0:0:0:
277,24,30076,1,6,3:2:0:0:
176,66,30343,1,2,0:0:0:0:
72,30,30611,6,0,L|68:80,1,42,6|0,0:0|0:0,0:0:0:0:
14,119,30879,2,0,L|51:158,1,42,2|0,0:0|0:0,0:0:0:0:
53,220,31147,2,0,L|105:207,1,42,2|0,3:2|0:0,0:0:0:0:
157,176,31415,2,0,L|202:184,1,42,0|0,3:0|0:0,0:0:0:0:
265,157,31683,1,0,3:0:0:0:
373,178,31951,2,0,L|378:124,1,42,2|0,3:2|0:0,0:0:0:0:
337,247,32218,6,0,L|341:312,1,42,6|8,0:0|0:0,0:0:0:0:
267,291,32486,2,0,L|212:326,1,42,2|8,3:2|0:0,0:0:0:0:
172,354,32754,2,0,P|132:362|68:343,1,84,2|0,0:0|3:0,0:0:0:0:
13,279,33290,1,0,3:0:0:0:
101,215,33558,1,0,3:0:0:0:
207,237,33826,6,0,B|219:211|219:211|213:151,1,84,4|2,3:2|0:0,0:0:0:0:
209,84,34227,1,2,3:2:0:0:
263,37,34361,2,0,L|346:33,1,84,2|2,3:2|3:2,0:0:0:0:
487,60,34896,5,10,0:3:0:0:
487,60,35031,1,8,0:3:0:0:
441,116,35165,2,0,P|454:155|450:196,1,84,2|4,0:0|3:2,0:0:0:0:
356,260,35701,1,2,0:0:0:0:
356,260,35834,1,2,0:0:0:0:
299,304,35968,2,0,L|203:308,1,84,2|2,3:2|3:2,0:0:0:0:
108,320,36504,1,10,3:3:0:0:
108,320,36638,1,8,3:0:0:0:
73,254,36772,2,0,L|76:199,1,42,2|0,0:0|0:0,0:0:0:0:
127,161,37040,6,0,P|169:178|216:169,1,84,6|2,0:0|0:0,0:0:0:0:
302,114,37576,1,2,3:2:0:0:
402,160,37843,1,2,3:2:0:0:
501,113,38111,1,10,3:0:0:0:
501,113,38244,1,8,3:0:0:0:
504,184,38379,2,0,L|495:240,1,42,2|0,0:0|0:0,0:0:0:0:
472,293,38647,6,0,B|445:279|445:279|375:291,1,84,2|2,3:2|0:0,0:0:0:0:
322,303,39049,1,0,3:0:0:0:
267,349,39183,2,0,B|240:363|240:363|170:351,1,84,2|2,0:0|3:2,0:0:0:0:
120,327,39584,1,8,0:3:0:0:
49,337,39718,2,0,L|44:278,1,42,6|0,3:2|0:0,0:0:0:0:
78,231,39986,2,0,L|83:172,1,42,10|8,0:0|0:0,0:0:0:0:
65,119,40254,5,4,0:0:0:0:
166,18,40522,1,2,0:0:0:0:
226,56,40656,1,10,3:0:0:0:
283,13,40790,2,0,L|357:19,1,42,2|0,3:2|0:0,0:0:0:0:
396,15,41058,1,2,0:0:0:0:
484,77,41326,2,0,L|479:133,1,42,10|8,3:0|3:0,0:0:0:0:
434,173,41593,2,0,L|439:229,1,42,2|0,0:0|0:0,0:0:0:0:
471,278,41861,5,4,3:2:0:0:
381,340,42129,2,0,L|324:335,1,42,2|0,0:0|0:0,0:0:0:0:
267,346,42397,2,0,P|230:353|178:338,1,84,2|8,3:2|3:0,0:0:0:0:
92,286,42933,1,10,0:0:0:0:
167,208,43201,2,0,L|157:155,1,42,2|0,3:2|3:0,0:0:0:0:
144,87,43468,6,0,P|208:92|258:69,1,94.499997116089,14|2,0:0|3:2,0:0:0:0:
303,38,43870,1,0,3:0:0:0:
362,91,44004,2,0,L|423:84,1,47.2499985580445,10|0,3:0|0:0,0:0:0:0:
486,108,44272,2,0,L|474:171,1,47.2499985580445,10|0,0:0|0:0,0:0:0:0:
442,227,44540,2,0,P|396:211|345:218,1,94.499997116089,2|0,3:2|3:0,0:0:0:0:
248,282,45076,5,4,3:2:0:0:
164,195,45343,1,8,0:0:0:0:
164,195,45477,1,8,0:0:0:0:
83,201,45611,2,0,L|90:132,1,47.2499985580445,0|0,3:0|3:0,0:0:0:0:
66,75,45879,2,0,L|60:9,1,47.2499985580445,2|2,0:0|0:0,0:0:0:0:
141,14,46147,1,10,0:0:0:0:
251,72,46415,1,2,3:2:0:0:
363,17,46683,6,0,P|345:64|350:114,1,94.499997116089,4|10,3:2|3:0,0:0:0:0:
455,172,47218,2,0,P|459:116|442:78,1,94.499997116089,10|8,3:0|3:0,0:0:0:0:
351,208,47754,1,8,3:0:0:0:
413,314,48022,1,10,3:0:0:0:
294,343,48290,6,0,P|252:358|181:337,1,94.499997116089,6|10,3:2|3:0,0:0:0:0:
141,298,48692,1,8,3:0:0:0:
74,343,48826,2,0,L|23:344,1,47.2499985580445,10|8,3:0|3:0,0:0:0:0:
42,265,49093,2,0,L|15:221,1,47.2499985580445,8|8,3:0|0:0,0:0:0:0:
61,157,49361,2,0,P|61:129|64:93,1,47.2499985580445,8|8,3:0|0:0,0:0:0:0:
111,45,49629,1,2,0:0:0:0:
188,65,49763,6,0,L|185:96,2,23.6249992790222,8|8|6,0:0|0:0|3:2,0:0:0:0:
255,21,51504,6,0,P|286:54|346:38,1,94.499997116089,14|0,0:0|0:0,0:0:0:0:
404,29,51906,2,0,P|435:-4|495:12,1,94.499997116089,14|0,0:0|0:0,0:0:0:0:
512,70,52307,1,10,0:0:0:0:
487,192,52576,2,0,P|490:228|486:249,1,47.2499985580445,2|8,3:2|3:0,0:0:0:0:
434,299,52842,1,10,3:0:0:0:
434,299,52977,1,8,3:0:0:0:
387,214,53111,6,0,P|332:198|287:222,1,105,6|2,0:0|0:0,0:0:0:0:
235,282,53513,2,0,B|255:312|255:312|249:399,1,105,2|0,3:0|0:0,0:0:0:0:
175,340,53915,2,0,P|150:324|122:312,1,52.5,10|0,0:0|0:0,0:0:0:0:
45,302,54183,2,0,P|46:272|42:242,1,52.5,2|0,0:0|0:0,0:0:0:0:
0,177,54450,2,0,P|26:163|50:145,1,52.5,2|0,3:2|0:0,0:0:0:0:
125,97,54718,6,0,P|159:80|230:97,1,105,2|0,3:0|0:0,0:0:0:0:
304,113,55120,2,0,P|296:142|303:183,1,52.5,2|0,3:2|0:0,0:0:0:0:
361,219,55388,1,2,0:0:0:0:
372,302,55522,2,0,L|309:293,1,52.5,10|0,0:0|0:0,0:0:0:0:
436,346,55790,2,0,L|493:341,1,52.5,2|2,0:0|0:0,0:0:0:0:
370,381,56058,2,0,L|313:376,1,52.5,2|2,0:0|0:0,0:0:0:0:
224,355,56326,6,0,B|236:322|236:322|225:252,1,105,6|2,3:2|0:0,0:0:0:0:
142,233,56727,2,0,P|159:177|137:118,1,105,2|2,3:0|0:0,0:0:0:0:
73,178,57129,2,0,L|20:171,1,52.5,10|0,0:0|0:0,0:0:0:0:
9,86,57397,2,0,L|68:81,1,52.5,2|0,0:0|0:0,0:0:0:0:
122,23,57665,1,2,3:2:0:0:
201,49,57799,1,2,0:0:0:0:
290,19,57933,6,0,P|279:55|284:124,1,105,2|2,3:2|0:0,0:0:0:0:
349,179,58334,1,2,3:2:0:0:
307,252,58468,1,2,0:0:0:0:
372,304,58602,2,0,L|368:339,2,26.25,10|8|10,0:0|0:0|0:0,0:0:0:0:
453,280,58870,1,0,3:0:0:0:
433,199,59004,2,0,L|430:138,1,52.5,8|0,0:0|3:0,0:0:0:0:
425,62,59272,2,0,L|373:76,1,52.5,0|0,3:0|3:0,0:0:0:0:
296,20,59540,6,0,P|255:-1|187:4,1,105,4|2,3:2|0:0,0:0:0:0:
124,43,59942,1,0,3:0:0:0:
41,27,60076,2,0,L|45:96,1,52.5,2|0,0:0|3:0,0:0:0:0:
92,148,60343,2,0,L|88:217,1,52.5,10|0,0:0|0:0,0:0:0:0:
108,282,60611,2,0,P|134:273|169:270,1,52.5,2|0,0:0|0:0,0:0:0:0:
232,312,60879,2,0,P|260:319|295:322,1,52.5,2|0,3:2|0:0,0:0:0:0:
381,318,61147,6,0,B|365:286|365:286|373:204,1,105,10|0,0:0|0:0,0:0:0:0:
405,140,61549,2,0,P|356:117|285:141,1,105,2|2,3:2|3:2,0:0:0:0:
238,173,61951,2,0,L|178:167,1,52.5,10|0,0:0|0:0,0:0:0:0:
105,191,62218,2,0,P|113:225|117:250,1,52.5,2|8,3:0|0:0,0:0:0:0:
55,304,62486,2,0,P|47:335|43:363,1,52.5,2|0,3:2|3:0,0:0:0:0:
139,374,62754,6,0,L|204:357,1,52.5,4|0,3:2|0:0,0:0:0:0:
270,336,63022,1,2,0:0:0:0:
345,371,63156,1,2,0:0:0:0:
382,297,63290,2,0,P|373:250|395:186,1,105,2|8,0:0|0:0,0:0:0:0:
468,83,63826,2,0,L|474:26,1,52.5,2|2,0:0|0:0,0:0:0:0:
394,0,64093,1,2,3:2:0:0:
329,54,64227,1,2,0:0:0:0:
238,25,64361,6,0,P|203:4|135:91,1,157.5,10|10,0:0|0:0,0:0:0:0:
177,272,65165,1,10,0:0:0:0:
361,188,65567,6,0,L|356:229,5,26.25,10|8|8|8|8|8,0:0|0:0|0:0|0:0|0:0|0:0,0:0:0:0:
335,255,65968,6,0,P|358:301|352:363,1,105,6|2,0:0|0:0,0:0:0:0:
271,360,66370,2,0,B|243:337|243:337|161:351,1,105,2|2,3:2|3:2,0:0:0:0:
95,374,66772,2,0,L|90:311,1,52.5,10|0,0:0|0:0,0:0:0:0:
40,255,67040,2,0,L|51:197,1,52.5,2|0,0:0|0:0,0:0:0:0:
90,131,67308,2,0,P|81:103|79:74,1,52.5,2|0,3:2|0:0,0:0:0:0:
159,29,67576,6,0,P|184:47|271:36,1,105,2|0,3:2|0:0,0:0:0:0:
329,5,67977,1,2,3:2:0:0:
382,70,68111,2,0,L|375:131,1,52.5,0|2,0:0|3:2,0:0:0:0:
428,188,68379,2,0,P|442:231|423:302,1,105,10|2,0:0|0:0,0:0:0:0:
388,361,68781,1,8,0:0:0:0:
321,309,68915,2,0,L|263:298,1,52.5,2|0,0:0|3:0,0:0:0:0:
184,342,69183,6,0,P|145:357|78:331,1,105,6|2,0:0|0:0,0:0:0:0:
20,287,69584,2,0,B|19:182,1,105,2|0,3:2|3:0,0:0:0:0:
28,98,69986,2,0,L|86:104,1,52.5,10|0,0:0|0:0,0:0:0:0:
138,41,70254,2,0,L|196:35,1,52.5,2|0,0:0|0:0,0:0:0:0:
272,55,70522,1,2,3:2:0:0:
331,113,70656,1,0,0:0:0:0:
263,181,70790,6,0,B|293:202|293:202|369:201,1,105,2|2,3:2|0:0,0:0:0:0:
437,163,71192,1,2,3:2:0:0:
500,217,71325,2,0,P|491:244|487:280,1,52.5,2|2,0:0|3:2,0:0:0:0:
446,341,71593,2,0,P|419:350|383:354,1,52.5,10|0,0:0|3:0,0:0:0:0:
317,318,71861,1,8,0:0:0:0:
256,376,71995,1,8,0:0:0:0:
200,313,72129,2,0,L|205:247,1,52.5,0|0,3:0|3:0,0:0:0:0:
172,169,72397,6,0,P|123:185|72:173,1,105,4|2,3:2|0:0,0:0:0:0:
21,106,72799,1,0,0:0:0:0:
91,61,72933,2,0,L|157:56,1,52.5,2|0,0:0|3:0,0:0:0:0:
214,11,73201,2,0,L|280:16,1,52.5,10|0,0:0|0:0,0:0:0:0:
326,73,73468,2,0,P|306:121|317:172,1,105,2|2,0:0|3:2,0:0:0:0:
382,225,73870,1,0,0:0:0:0:
478,230,74004,6,0,B|490:270|490:270|475:331,1,105,10|0,0:0|0:0,0:0:0:0:
394,355,74406,2,0,P|346:370|284:348,1,105,2|2,3:2|3:2,0:0:0:0:
229,301,74808,2,0,L|159:311,1,52.5,10|0,0:0|0:0,0:0:0:0:
93,319,75076,2,0,P|103:267|78:216,1,105,2|2,0:0|3:2,0:0:0:0:
12,177,75477,1,0,3:0:0:0:
46,88,75611,6,0,L|98:89,1,52.5,4|0,0:0|0:0,0:0:0:0:
179,69,75879,1,2,0:0:0:0:
251,29,76013,1,2,3:2:0:0:
327,64,76147,2,0,P|374:48|429:59,1,105,2|8,0:0|0:0,0:0:0:0:
481,181,76683,1,2,3:2:0:0:
511,260,76817,1,2,0:0:0:0:
446,314,76951,2,0,L|447:372,1,52.5,2|2,3:2|0:0,0:0:0:0:
360,321,77218,6,0,P|315:335|253:321,1,105,14|0,0:0|3:0,0:0:0:0:
209,241,77620,2,0,B|204:121,1,105,2|0,3:2|0:0,0:0:0:0:
223,42,78022,2,0,P|171:39|138:0,1,105,10|2,0:0|3:2,0:0:0:0:
90,82,78424,2,0,P|38:86|5:125,1,105,2|0,0:0|0:0,0:0:0:0:
7,220,78826,5,6,0:0:0:0:
39,296,78959,2,0,L|90:306,1,52.5,8|0,0:0|0:0,0:0:0:0:
174,320,79226,1,6,3:2:0:0:
259,324,79361,2,0,P|250:294|249:267,1,52.5
309,212,79629,1,6,3:2:0:0:
347,137,79763,2,0,L|343:90,2,26.25,8|8|0,0:0|0:0|3:0,0:0:0:0:
412,190,80031,1,6,3:2:0:0:
470,130,80165,2,0,L|465:61,1,52.5,0|0,3:0|0:0,0:0:0:0:
398,18,80433,5,6,0:0:0:0:
256,192,80567,12,2,83110,0:0:0:0:
377,149,83647,6,0,P|387:193|373:244,1,99.7499973363877,6|2,3:2|0:0,0:0:0:0:
300,279,84049,1,2,3:2:0:0:
229,241,84183,1,0,0:0:0:0:
163,286,84317,2,0,L|168:325,2,24.9374993340969,2|2|2,0:0|0:0|0:0,0:0:0:0:
91,249,84584,2,0,L|100:178,1,49.8749986681939,2|2,0:0|0:0,0:0:0:0:
41,141,84852,2,0,L|32:70,1,49.8749986681939,2|2,0:0|0:0,0:0:0:0:
76,22,85120,1,2,0:0:0:0:
143,68,85254,6,0,B|212:40|267:48|332:128|332:128|389:189|443:203|502:169,1,404.249987663269,2|6,0:0|0:0,0:0:0:0:
