osu file format v14

[General]
AudioFilename: audio.mp3
AudioLeadIn: 0
PreviewTime: 16
Countdown: 0
SampleSet: Soft
StackLeniency: 0.4
Mode: 0
LetterboxInBreaks: 0
WidescreenStoryboard: 1

[Editor]
DistanceSpacing: 1
BeatDivisor: 8
GridSize: 32
TimelineZoom: 2.2

[Metadata]
Title:Missing Promise (TV Size)
TitleUnicode:Missing Promise (TV Size)
Artist:Suzuki Konomi
ArtistUnicode:鈴木このみ
Creator:Lanzhu
Version:Intermediate
Source:ひぐらしのなく頃に卒
Tags:the moment Spkz cry higurashi no naku koro ni sotsu cicadas when nytrocide_ graduation ending anime ed jpop j-pop pop japanese erisu mayuzumi fuyuko heyimjarvis nextplay My_Angel_Kanan Onegai SkyFlame Azunyan- 07th expansion they
BeatmapID:3095194
BeatmapSetID:1510767

[Difficulty]
HPDrainRate:4.2
CircleSize:3.5
OverallDifficulty:5.2
ApproachRate:6.2
SliderMultiplier:1.8
SliderTickRate:1

[Events]
//Background and Video events
0,0,"bg.jpg",0,0
Video,-752,"bg.mp4"
//Break Periods
//Storyboard Layer 0 (Background)
//Storyboard Layer 1 (Fail)
//Storyboard Layer 2 (Pass)
//Storyboard Layer 3 (Foreground)
//Storyboard Layer 4 (Overlay)
//Storyboard Sound Samples

[TimingPoints]
76,535.714285714286,3,2,1,45,1,0
76,-90.9090909090909,4,2,1,45,0,0
14541,-90.9090909090909,4,2,1,45,0,0
20969,-90.9090909090909,4,2,1,60,0,0
22510,-90.9090909090909,4,2,1,60,0,0
22577,-90.9090909090909,4,2,1,60,0,0
24184,-90.9090909090909,4,2,1,45,0,0
28938,-90.9090909090909,4,2,1,45,0,0
29005,-90.9090909090909,4,2,1,45,0,0
32487,-90.9090909090909,4,2,1,45,0,0
32755,-90.9090909090909,4,2,1,45,0,0
32822,-90.9090909090909,4,2,1,55,0,0
33827,-90.9090909090909,4,2,1,55,0,0
37242,-90.9090909090909,4,2,1,55,0,0
37309,-90.9090909090909,4,2,1,55,0,0
38045,-90.9090909090909,4,2,1,55,0,0
38112,-90.9090909090909,4,2,1,55,0,0
40255,-90.9090909090909,4,2,1,55,0,0
40992,-90.9090909090909,4,2,1,55,0,0
41059,-90.9090909090909,4,2,1,55,0,0
43135,-90.9090909090909,4,2,1,55,0,0
43202,-90.9090909090909,4,2,1,55,0,0
43469,-90.9090909090909,4,2,1,55,0,0
46684,-90.9090909090909,4,2,1,40,0,0
46885,-90.9090909090909,4,2,1,40,0,0
46952,-90.9090909090909,4,2,1,40,0,0
47152,-90.9090909090909,4,2,1,40,0,0
47219,-90.9090909090909,4,2,1,40,0,0
47420,-90.9090909090909,4,2,1,40,0,0
47487,-90.9090909090909,4,2,1,40,0,0
47688,-90.9090909090909,4,2,1,40,0,0
47755,-90.9090909090909,4,2,1,40,0,0
47956,-90.9090909090909,4,2,1,40,0,0
48023,-90.9090909090909,4,2,1,40,0,0
48291,-90.9090909090909,4,2,1,60,0,0
49898,-90.9090909090909,4,2,1,50,0,0
51505,-90.9090909090909,4,2,1,60,0,0
51907,-90.9090909090909,4,2,1,70,0,0
53111,-83.3333333333333,4,2,1,80,0,1
65969,-83.3333333333333,4,2,1,80,0,1
79898,-90.9090909090909,4,2,1,80,0,1
80433,-90.9090909090909,4,2,1,80,0,0
80835,-90.9090909090909,4,2,1,60,0,0

[Colours]
Combo1 : 255,62,62
Combo2 : 191,191,0

[HitObjects]
256,192,11326,12,2,14004,0:0:0:0:
464,324,14540,6,0,B|423:319|423:319|400:323|400:323|346:318,1,99.0000030212403,6|0,3:2|0:0,0:0:0:0:
319,302,14942,2,0,P|272:337|181:323,1,148.50000453186,2|2,0:0|0:0,0:0:0:0:
89,345,15611,1,2,3:2:0:0:
40,258,15879,1,2,0:0:0:0:
94,175,16147,2,0,P|149:163|201:184,1,99.0000030212403,2|2,3:2|0:0,0:0:0:0:
286,155,16683,2,0,L|394:189,2,99.0000030212403,2|0|0,3:2|0:0|3:0,0:0:0:0:
263,58,17486,2,0,L|321:45,1,49.5000015106202,2|0,0:0|0:0,0:0:0:0:
361,48,17754,6,0,P|402:43|457:93,1,99.0000030212403,2|2,3:2|0:0,0:0:0:0:
487,113,18156,1,2,0:0:0:0:
487,113,18290,1,0,3:0:0:0:
422,187,18558,1,2,0:0:0:0:
475,270,18826,1,2,3:2:0:0:
420,352,19093,1,2,0:0:0:0:
328,314,19361,2,0,L|227:350,1,99.0000030212403,2|2,3:2|0:0,0:0:0:0:
152,287,19897,2,0,L|246:256,1,99.0000030212403,2|2,3:2|0:0,0:0:0:0:
301,173,20433,2,0,L|252:138,1,49.5000015106202,2|0,3:2|0:0,0:0:0:0:
225,108,20701,2,0,L|155:115,1,49.5000015106202,2|2,0:0|0:0,0:0:0:0:
140,147,20968,5,6,3:2:0:0:
52,193,21236,2,0,L|31:138,1,49.5000015106202,2|0,0:0|3:0,0:0:0:0:
9,103,21504,2,0,L|29:53,1,49.5000015106202,2|0,0:0|3:0,0:0:0:0:
70,31,21772,1,8,0:0:0:0:
169,31,22040,2,0,L|226:55,1,49.5000015106202,2|8,0:0|0:0,0:0:0:0:
253,82,22308,2,0,L|300:61,1,49.5000015106202,2|0,3:2|0:0,0:0:0:0:
345,45,22576,1,2,3:2:0:0:
404,123,22843,2,0,P|404:147|392:170,1,49.5000015106202,2|8,0:0|0:0,0:0:0:0:
369,213,23111,2,0,P|344:218|319:214,1,49.5000015106202,2|0,0:0|3:0,0:0:0:0:
272,200,23379,2,0,L|216:215,1,49.5000015106202,6|0,3:2|0:0,0:0:0:0:
185,243,23647,1,2,3:2:0:0:
111,176,23915,1,2,3:2:0:0:
30,233,24183,6,0,P|53:280|50:337,1,99.0000030212403,6|2,0:0|0:0,0:0:0:0:
84,364,24584,2,0,P|125:340|182:349,1,99.0000030212403,2|0,3:2|0:0,0:0:0:0:
217,370,24986,1,2,0:0:0:0:
303,320,25254,1,2,0:0:0:0:
388,370,25522,1,0,0:0:0:0:
473,319,25790,2,0,B|484:273|484:273|470:219,1,99.0000030212403,2|2,3:2|0:0,0:0:0:0:
374,200,26326,2,0,B|324:179|287:198|274:269|185:231,1,198.000006042481,2|0,3:2|3:0,0:0:0:0:
117,165,27129,1,2,0:0:0:0:
174,83,27397,6,0,B|220:62|220:62|270:73,1,99.0000030212403,6|2,0:0|0:0,0:0:0:0:
297,112,27799,2,0,L|395:93,1,99.0000030212403,2|0,3:2|0:0,0:0:0:0:
440,74,28201,1,2,0:0:0:0:
486,160,28468,1,2,3:2:0:0:
439,247,28736,1,2,0:0:0:0:
493,329,29004,2,0,P|420:297|297:330,1,198.000006042481,2|0,3:2|3:0,0:0:0:0:
223,269,29808,1,2,3:2:0:0:
189,362,30076,1,6,3:2:0:0:
99,320,30343,1,2,0:0:0:0:
6,356,30611,6,0,L|14:252,1,99.0000030212403,6|2,0:0|0:0,0:0:0:0:
90,188,31147,2,0,L|77:89,1,99.0000030212403,2|0,3:2|3:0,0:0:0:0:
151,23,31683,1,0,3:0:0:0:
248,41,31951,1,2,3:2:0:0:
317,111,32218,2,0,L|380:92,1,49.5000015106202,6|8,0:0|0:0,0:0:0:0:
380,49,32486,2,0,L|437:62,1,49.5000015106202,2|8,3:2|0:0,0:0:0:0:
473,80,32754,1,2,3:2:0:0:
476,178,33022,1,0,3:0:0:0:
413,254,33290,1,0,3:0:0:0:
337,189,33558,1,0,3:0:0:0:
289,276,33826,6,0,P|237:295|183:286,1,99.0000030212403,4|2,3:2|0:0,0:0:0:0:
145,293,34227,2,0,P|137:245|143:182,1,99.0000030212403,2|0,3:2|0:0,0:0:0:0:
144,145,34629,1,2,3:2:0:0:
235,107,34897,1,10,0:3:0:0:
304,178,35165,2,0,P|308:225|308:279,1,99.0000030212403,2|4,0:0|3:2,0:0:0:0:
388,335,35701,2,0,L|381:393,2,49.5000015106202,2|2|2,0:0|0:0|3:2,0:0:0:0:
462,270,36236,1,2,3:2:0:0:
446,172,36504,1,10,3:3:0:0:
362,118,36772,1,2,0:0:0:0:
273,162,37040,6,0,B|227:153|227:153|172:177,1,99.0000030212403,6|2,0:0|0:0,0:0:0:0:
108,104,37576,1,2,3:2:0:0:
170,27,37843,1,2,3:2:0:0:
267,10,38111,1,10,3:0:0:0:
341,75,38379,1,2,0:0:0:0:
422,19,38647,2,0,L|478:32,1,49.5000015106202,2|0,3:2|0:0,0:0:0:0:
510,60,38915,1,2,0:0:0:0:
474,152,39183,1,2,0:0:0:0:
506,245,39451,2,0,L|481:294,1,49.5000015106202,2|8,3:2|0:3,0:0:0:0:
456,330,39718,1,6,3:2:0:0:
365,290,39986,2,0,L|305:314,1,49.5000015106202,10|8,0:0|0:0,0:0:0:0:
285,345,40254,6,0,P|246:325|193:332,1,99.0000030212403,4|2,0:0|0:0,0:0:0:0:
154,363,40656,1,10,3:0:0:0:
154,363,40790,2,0,P|101:372|52:348,1,99.0000030212403,2|2,3:2|0:0,0:0:0:0:
23,262,41326,2,0,L|38:199,1,49.5000015106202,10|8,3:0|3:0,0:0:0:0:
48,166,41593,1,2,0:0:0:0:
88,75,41861,2,0,B|140:73|140:73|197:108,1,99.0000030212403,4|2,3:2|0:0,0:0:0:0:
261,154,42397,1,2,3:2:0:0:
209,238,42665,1,8,3:0:0:0:
284,302,42933,2,0,L|349:288,1,49.5000015106202,10|0,0:0|0:0,0:0:0:0:
380,278,43201,2,0,L|398:222,1,49.5000015106202,2|0,3:2|3:0,0:0:0:0:
387,182,43468,5,14,0:0:0:0:
406,84,43736,1,2,3:2:0:0:
321,32,44004,2,0,L|243:41,1,49.5000015106202,10|0,3:0|0:0,0:0:0:0:
226,58,44272,2,0,L|235:107,1,49.5000015106202,10|0,0:0|0:0,0:0:0:0:
212,151,44540,2,0,B|164:131|164:131|118:144,1,99.0000030212403,2|0,3:2|3:0,0:0:0:0:
45,210,45076,1,4,3:2:0:0:
80,301,45343,2,0,L|146:317,1,49.5000015106202,8|8,0:0|0:0,0:0:0:0:
165,345,45611,2,0,L|213:329,1,49.5000015106202,0|0,3:0|3:0,0:0:0:0:
261,320,45879,1,2,0:0:0:0:
351,360,46147,1,10,0:0:0:0:
444,328,46415,1,2,3:2:0:0:
409,235,46683,6,0,L|415:131,1,99.0000030212403,4|10,3:2|3:0,0:0:0:0:
341,69,47218,2,0,L|335:167,1,99.0000030212403,10|8,3:0|3:0,0:0:0:0:
255,227,47754,2,0,L|260:128,1,99.0000030212403,8|10,3:0|3:0,0:0:0:0:
184,63,48290,1,6,3:2:0:0:
102,118,48558,1,10,3:0:0:0:
82,215,48826,1,10,3:0:0:0:
80,313,49093,2,0,L|157:296,1,49.5000015106202,8|8,3:0|0:0,0:0:0:0:
162,338,49361,2,0,L|221:324,1,49.5000015106202,8|8,3:0|0:0,0:0:0:0:
237,285,49629,2,0,L|296:271,1,49.5000015106202,2|8,0:0|0:0,0:0:0:0:
334,265,49897,1,6,3:2:0:0:
0,384,51504,6,0,P|50:354|111:372,1,99.0000030212403,14|0,0:0|0:0,0:0:0:0:
136,372,51906,2,0,P|180:364|245:353,1,99.0000030212403,12|0,0:0|0:0,0:0:0:0:
281,342,52308,1,10,0:0:0:0:
313,248,52576,2,0,L|390:265,1,49.5000015106202,2|8,3:2|3:0,0:0:0:0:
407,276,52843,2,0,L|482:247,1,49.5000015106202,10|8,3:0|3:0,0:0:0:0:
486,215,53111,6,0,P|478:164|480:93,1,107.999996704102,6|2,0:0|0:0,0:0:0:0:
454,58,53513,2,0,P|411:35|348:55,1,107.999996704102,2|0,3:0|0:0,0:0:0:0:
317,87,53915,1,10,0:0:0:0:
228,24,54183,2,0,L|162:50,1,53.9999983520508,2|0,0:0|0:0,0:0:0:0:
123,45,54451,2,0,L|96:108,1,53.9999983520508,2|0,3:2|0:0,0:0:0:0:
58,127,54718,2,0,P|70:173|75:243,1,107.999996704102,2|0,3:0|0:0,0:0:0:0:
65,286,55120,2,0,P|118:290|171:303,1,107.999996704102,2|2,3:2|0:0,0:0:0:0:
210,340,55522,1,10,0:0:0:0:
317,333,55790,2,0,L|332:279,1,53.9999983520508,2|2,0:0|0:0,0:0:0:0:
304,233,56058,2,0,L|281:174,1,53.9999983520508,2|2,0:0|0:0,0:0:0:0:
287,128,56326,6,0,P|341:121|406:161,1,107.999996704102,6|2,3:2|0:0,0:0:0:0:
434,170,56727,2,0,B|431:220|431:220|426:236|426:236|423:303,1,107.999996704102,2|2,3:0|0:0,0:0:0:0:
420,331,57129,1,10,0:0:0:0:
311,327,57397,2,0,L|236:314,1,53.9999983520508,2|0,0:0|0:0,0:0:0:0:
204,308,57665,1,2,3:2:0:0:
116,371,57933,2,0,P|76:339|72:267,1,107.999996704102,2|2,3:2|0:0,0:0:0:0:
61,235,58334,1,2,3:2:0:0:
61,235,58468,2,0,L|81:176,1,53.9999983520508,2|10,0:0|0:0,0:0:0:0:
126,159,58736,2,0,L|106:101,1,53.9999983520508,10|0,0:0|0:0,0:0:0:0:
85,58,59004,1,8,0:0:0:0:
179,5,59272,1,0,3:0:0:0:
272,59,59540,6,0,P|315:86|389:78,1,107.999996704102,4|2,3:2|0:0,0:0:0:0:
420,108,59942,1,0,3:0:0:0:
420,108,60076,2,0,L|416:179,1,53.9999983520508,2|0,0:0|3:0,0:0:0:0:
403,214,60343,2,0,P|343:221|288:236,1,107.999996704102,10|2,0:0|0:0,0:0:0:0:
192,203,60879,1,2,3:2:0:0:
98,254,61147,2,0,P|86:306|121:366,1,107.999996704102,10|0,0:0|0:0,0:0:0:0:
156,377,61549,2,0,B|202:369|202:369|217:374|217:374|263:365,1,107.999996704102,2|2,3:2|3:2,0:0:0:0:
313,349,61951,1,10,0:0:0:0:
420,340,62218,2,0,L|431:273,1,53.9999983520508,2|8,3:0|0:0,0:0:0:0:
454,238,62486,2,0,L|445:183,1,53.9999983520508,2|0,3:2|3:0,0:0:0:0:
415,138,62754,6,0,P|361:126|301:160,1,107.999996704102,4|2,3:2|0:0,0:0:0:0:
277,186,63156,1,2,0:0:0:0:
277,186,63290,1,2,0:0:0:0:
188,131,63558,1,8,0:0:0:0:
93,184,63826,2,0,P|105:212|113:242,1,53.9999983520508,2|2,0:0|0:0,0:0:0:0:
135,282,64093,2,0,P|122:310|115:340,1,53.9999983520508,2|2,3:2|0:0,0:0:0:0:
151,373,64361,2,0,B|176:339|225:345|225:345|253:366|315:355,2,161.999995056153,10|10|10,0:0|0:0|0:0,0:0:0:0:
43,359,65433,2,0,L|20:286,1,53.9999983520508,0|10,3:0|0:0,0:0:0:0:
21,253,65701,2,0,L|38:192,1,53.9999983520508,8|8,0:0|0:0,0:0:0:0:
59,152,65968,6,0,B|123:142|99:186|181:171,1,107.999996704102,6|2,0:0|0:0,0:0:0:0:
212,192,66370,2,0,B|267:205|267:205|347:178,1,107.999996704102,2|2,3:2|3:2,0:0:0:0:
369,180,66772,1,10,0:0:0:0:
423,86,67040,2,0,L|359:59,1,53.9999983520508,2|0,0:0|0:0,0:0:0:0:
328,34,67308,2,0,L|264:56,1,53.9999983520508,2|0,3:2|0:0,0:0:0:0:
248,97,67576,2,0,P|197:103|148:73,1,107.999996704102,2|0,3:2|0:0,0:0:0:0:
105,43,67977,2,0,B|58:67|58:67|43:121,1,107.999996704102,2|2,3:2|3:2,0:0:0:0:
59,172,68379,1,10,0:0:0:0:
91,274,68647,2,0,L|151:299,1,53.9999983520508,2|8,0:0|0:0,0:0:0:0:
190,316,68915,2,0,L|256:277,1,53.9999983520508,2|0,0:0|3:0,0:0:0:0:
290,296,69183,6,0,B|344:303|344:303|409:263,1,107.999996704102,6|2,0:0|0:0,0:0:0:0:
441,260,69584,2,0,P|459:198|415:128,1,107.999996704102,2|0,3:2|3:0,0:0:0:0:
416,112,69986,1,10,0:0:0:0:
316,70,70254,2,0,P|283:68|241:58,1,53.9999983520508,2|0,0:0|0:0,0:0:0:0:
208,62,70522,1,2,3:2:0:0:
100,74,70790,2,0,B|110:124|110:124|107:129|107:129|121:212,1,107.999996704102,2|2,3:2|0:0,0:0:0:0:
117,237,71191,1,2,3:2:0:0:
117,237,71325,2,0,P|147:237|181:245,1,53.9999983520508,2|2,0:0|3:2,0:0:0:0:
189,292,71593,2,0,L|251:282,1,53.9999983520508,10|0,0:0|3:0,0:0:0:0:
292,303,71861,1,8,0:0:0:0:
397,325,72129,1,0,3:0:0:0:
464,240,72397,6,0,B|457:196|457:196|459:182|459:182|449:123,1,107.999996704102,4|2,3:2|0:0,0:0:0:0:
434,26,72933,1,2,0:0:0:0:
343,84,73200,2,0,P|283:77|228:62,1,107.999996704102,10|2,0:0|0:0,0:0:0:0:
143,9,73736,1,2,3:2:0:0:
85,100,74004,2,0,P|138:101|186:152,1,107.999996704102,10|0,0:0|0:0,0:0:0:0:
168,188,74406,2,0,B|190:242|149:236|180:295,1,107.999996704102,2|2,3:2|3:2,0:0:0:0:
160,343,74808,1,10,0:0:0:0:
267,349,75076,2,0,P|294:354|327:332,1,53.9999983520508,2|0,0:0|0:0,0:0:0:0:
351,301,75343,2,0,L|346:248,1,53.9999983520508,2|0,3:2|3:0,0:0:0:0:
345,192,75611,6,0,B|400:186|400:186|459:217,1,107.999996704102,4|2,0:0|0:0,0:0:0:0:
496,233,76013,1,2,3:2:0:0:
496,233,76147,1,2,0:0:0:0:
453,334,76415,1,8,0:0:0:0:
351,370,76683,2,0,L|291:348,1,53.9999983520508,2|2,3:2|0:0,0:0:0:0:
258,317,76951,2,0,L|193:332,1,53.9999983520508,2|2,3:2|0:0,0:0:0:0:
160,298,77218,2,0,P|71:298|43:194,2,161.999995056153,14|2|10,0:0|3:2|0:0,0:0:0:0:
191,255,78156,1,0,3:2:0:0:
191,255,78290,2,0,L|170:182,1,53.9999983520508,2|2,3:2|0:0,0:0:0:0:
148,156,78558,1,0,3:0:0:0:
173,50,78826,6,0,P|229:39|284:64,1,107.999996704102,6|0,0:0|0:0,0:0:0:0:
304,102,79227,2,0,P|360:113|415:88,1,107.999996704102,6|0,3:2|0:0,0:0:0:0:
463,89,79629,1,6,3:2:0:0:
463,89,79763,2,0,L|453:162,1,53.9999983520508,8|0,0:0|3:0,0:0:0:0:
436,188,80031,2,0,L|443:241,1,49.5000015106202,6|0,3:2|3:0,0:0:0:0:
388,319,80433,6,0,P|338:302|271:316,1,99.0000030212403,6|0,0:0|0:0,0:0:0:0:
251,333,80834,2,0,P|201:350|134:336,1,99.0000030212403,2|2,3:2|0:0,0:0:0:0:
110,342,81236,1,2,0:0:0:0:
110,342,81370,2,0,L|105:232,1,99.0000030212403,2|2,0:0|0:0,0:0:0:0:
83,198,81772,1,2,0:0:0:0:
118,105,82040,2,0,B|168:93|168:93|225:122,1,99.0000030212403,2|0,3:0|0:0,0:0:0:0:
250,153,82442,1,2,3:2:0:0:
250,153,82576,2,0,P|242:202|242:263,1,99.0000030212403,2|2,0:0|0:0,0:0:0:0:
257,297,82977,1,0,0:0:0:0:
257,297,83111,2,0,L|325:287,1,49.5000015106202,2|2,0:0|0:0,0:0:0:0:
357,308,83379,1,2,0:0:0:0:
441,256,83647,6,0,B|447:207|447:207|424:145,1,99.0000030212403,6|2,3:2|0:0,0:0:0:0:
416,112,84049,2,0,P|366:95|299:109,1,99.0000030212403,2|2,3:2|0:0,0:0:0:0:
279,123,84450,1,2,0:0:0:0:
279,123,84584,2,0,L|169:118,1,99.0000030212403,2|2,0:0|0:0,0:0:0:0:
132,115,84986,1,2,0:0:0:0:
72,194,85254,2,0,B|48:187|48:187|44:189|44:189|14:183,2,49.5000015106202,2|2|0,0:0|0:0|0:0,0:0:0:0:
103,239,85656,1,2,0:0:0:0:
103,239,85790,2,0,L|172:262,1,49.5000015106202,2|2,0:0|0:0,0:0:0:0:
189,284,86058,2,0,P|330:263|379:359,1,247.500007553101,2|6,0:0|0:0,0:0:0:0:
