osu file format v14

[General]
AudioFilename: audio.mp3
AudioLeadIn: 0
PreviewTime: 16
Countdown: 0
SampleSet: Soft
StackLeniency: 0.4
Mode: 0
LetterboxInBreaks: 0
WidescreenStoryboard: 1

[Editor]
Bookmarks: 52914
DistanceSpacing: 1
BeatDivisor: 8
GridSize: 32
TimelineZoom: 2.2

[Metadata]
Title:Missing Promise (TV Size)
TitleUnicode:Missing Promise (TV Size)
Artist:Suzuki Konomi
ArtistUnicode:鈴木このみ
Creator:Lanzhu
Version:Easy
Source:ひぐらしのなく頃に卒
Tags:the moment Spkz cry higurashi no naku koro ni sotsu cicadas when nytrocide_ graduation ending anime ed jpop j-pop pop japanese erisu mayuzumi fuyuko heyimjarvis nextplay My_Angel_Kanan Onegai SkyFlame Azunyan- 07th expansion they
BeatmapID:3093679
BeatmapSetID:1510767

[Difficulty]
HPDrainRate:2
CircleSize:2
OverallDifficulty:2.5
ApproachRate:3.5
SliderMultiplier:1.8
SliderTickRate:1

[Events]
//Background and Video events
0,0,"bg.jpg",0,0
Video,-752,"bg.mp4"
//Break Periods
2,50097,51731
//Storyboard Layer 0 (Background)
//Storyboard Layer 1 (Fail)
//Storyboard Layer 2 (Pass)
//Storyboard Layer 3 (Foreground)
//Storyboard Layer 4 (Overlay)
//Storyboard Sound Samples

[TimingPoints]
76,535.714285714286,3,2,1,45,1,0
76,-100,4,2,1,45,0,0
14541,-100,4,2,1,45,0,0
20969,-100,4,2,1,60,0,0
22510,-100,4,2,1,60,0,0
22577,-100,4,2,1,60,0,0
24184,-100,4,2,1,45,0,0
28938,-100,4,2,1,45,0,0
29005,-100,4,2,1,45,0,0
32487,-100,4,2,1,45,0,0
32755,-100,4,2,1,45,0,0
32822,-100,4,2,1,55,0,0
33827,-100,4,2,1,55,0,0
37242,-100,4,2,1,55,0,0
37309,-100,4,2,1,55,0,0
38045,-100,4,2,1,55,0,0
38112,-100,4,2,1,55,0,0
40255,-100,4,2,1,55,0,0
40992,-100,4,2,1,55,0,0
41059,-100,4,2,1,55,0,0
43135,-100,4,2,1,55,0,0
43202,-100,4,2,1,55,0,0
43469,-100,4,2,1,55,0,0
46684,-100,4,2,1,40,0,0
46885,-100,4,2,1,40,0,0
46952,-100,4,2,1,40,0,0
47152,-100,4,2,1,40,0,0
47219,-100,4,2,1,40,0,0
47420,-100,4,2,1,40,0,0
47487,-100,4,2,1,40,0,0
47688,-100,4,2,1,40,0,0
47755,-100,4,2,1,40,0,0
47956,-100,4,2,1,40,0,0
48023,-100,4,2,1,40,0,0
48291,-100,4,2,1,60,0,0
49898,-100,4,2,1,50,0,0
51505,-100,4,2,1,60,0,0
51907,-100,4,2,1,70,0,0
53111,-100,4,2,1,80,0,1
65969,-100,4,2,1,80,0,1
79898,-100,4,2,1,80,0,1
80433,-100,4,2,1,80,0,0
80835,-100,4,2,1,60,0,0

[Colours]
Combo1 : 255,62,62
Combo2 : 191,191,0

[HitObjects]
256,192,11326,12,2,13468,0:0:0:0:
467,323,14540,6,0,B|361:341|405:252|291:283,1,180,6|2,3:2|3:2,0:0:0:0:
220,242,15343,2,0,L|215:151,2,90,2|2|2,0:0|3:2|0:0,0:0:0:0:
169,316,16146,1,2,3:2:0:0:
147,27,17754,6,0,P|51:39|36:111,1,180,2|0,3:2|3:0,0:0:0:0:
114,151,18557,1,2,0:0:0:0:
185,206,18825,2,0,L|170:317,1,90,2|2,3:2|0:0,0:0:0:0:
239,356,19361,2,0,P|166:369|25:372,2,180,2|2|2,3:2|3:2|3:2,0:0:0:0:
418,373,20968,6,0,P|419:286|428:183,1,180,6|2,3:2|0:0,0:0:0:0:
435,103,21772,1,8,0:0:0:0:
349,76,22040,2,0,P|296:81|235:83,1,90,2|2,0:0|3:2,0:0:0:0:
191,142,22576,2,0,B|130:116|110:167|43:122,2,135,2|8|6,3:2|0:0|3:2,0:0:0:0:
250,209,23647,1,2,3:2:0:0:
332,173,23915,1,2,3:2:0:0:
390,104,24183,6,0,P|431:124|420:254,1,180,6|0,0:0|3:0,0:0:0:0:
412,331,24986,2,0,P|460:343|500:395,2,90,2|2|0,0:0|0:0|3:0,0:0:0:0:
320,335,25790,2,0,P|271:347|213:330,1,90,2|2,3:2|0:0,0:0:0:0:
150,304,26325,1,2,3:2:0:0:
235,20,27397,6,0,B|278:14|278:14|288:21|288:21|381:9,2,135,6|2|2,0:0|3:2|0:0,0:0:0:0:
159,68,28468,2,0,L|156:157,1,90,2|2,3:2|0:0,0:0:0:0:
137,246,29003,1,2,3:2:0:0:
380,128,29808,2,0,L|493:168,2,90,2|6|2,3:2|3:2|0:0,0:0:0:0:
316,63,30611,6,0,B|211:39|247:108|114:84,2,180,6|2|0,0:0|3:2|3:0,0:0:0:0:
380,128,31950,1,2,3:2:0:0:
347,211,32218,2,0,L|370:321,1,90,6|2,0:0|3:2,0:0:0:0:
294,355,32754,2,0,P|188:339|151:255,1,180,2|0,3:2|3:0,0:0:0:0:
103,207,33557,1,0,3:0:0:0:
43,274,33826,6,0,B|-8:198|-8:198|38:105,1,180,4|2,3:2|3:2,0:0:0:0:
98,59,34629,2,0,P|70:21|11:13,2,90,2|10|2,3:2|0:3|0:0,0:0:0:0:
160,123,35433,2,0,P|248:123|263:21,1,180,4|2,3:2|3:2,0:0:0:0:
355,0,36236,2,0,P|399:7|442:19,1,90,2|10,3:2|3:3,0:0:0:0:
402,100,36772,1,2,0:0:0:0:
424,186,37040,6,0,P|464:172|529:175,2,90,6|2|2,0:0|0:0|3:2,0:0:0:0:
359,248,37842,1,2,3:2:0:0:
295,312,38111,2,0,P|242:329|184:318,1,90,10|2,3:0|0:0,0:0:0:0:
123,293,38647,2,0,P|69:235|102:141,1,180,2|2,3:2|0:0,0:0:0:0:
183,124,39451,2,0,P|183:69|177:3,2,90,2|6|10,3:2|3:2|0:0,0:0:0:0:
236,196,40254,6,0,P|287:222|403:184,1,180,4|2,0:0|3:2,0:0:0:0:
414,99,41058,2,0,P|433:69|507:62,2,90,2|10|2,0:0|3:0|0:0,0:0:0:0:
325,84,41861,2,0,B|270:61|270:61|229:81|229:81|135:76,1,180,4|2,3:2|3:2,0:0:0:0:
71,112,42665,1,8,3:0:0:0:
29,191,42933,2,0,P|41:240|52:319,1,90,10|2,0:0|3:2,0:0:0:0:
135,302,43468,6,0,B|183:278|228:292|228:292|266:336|323:315,1,180,14|10,0:0|3:0,0:0:0:0:
392,326,44272,2,0,P|435:252|390:179,1,180,10|0,0:0|3:0,0:0:0:0:
309,140,45076,2,0,L|198:175,2,90,4|8|0,3:2|0:0|3:0,0:0:0:0:
349,59,45879,1,2,0:0:0:0:
264,28,46147,2,0,L|156:60,1,90,10|2,0:0|3:2,0:0:0:0:
99,98,46683,6,0,B|108:179|108:179|100:201|100:201|115:295,1,180,4|10,3:2|3:0,0:0:0:0:
21,272,47486,2,0,L|6:177,1,90,8|8,3:0|3:0,0:0:0:0:
12,92,48022,1,10,3:0:0:0:
60,15,48290,2,0,P|155:1|239:55,1,180,6|10,3:2|3:0,0:0:0:0:
223,129,49093,1,8,3:0:0:0:
293,184,49361,2,0,P|354:158|404:132,1,90,8|2,3:0|0:0,0:0:0:0:
455,105,49897,5,6,3:2:0:0:
30,342,53111,6,0,P|104:299|191:352,1,180,6|0,0:0|0:0,0:0:0:0:
262,378,53915,2,0,P|306:370|362:370,1,90,10|2,0:0|0:0,0:0:0:0:
440,354,54451,1,2,3:2:0:0:
476,271,54718,2,0,B|463:213|463:213|489:169|489:169|458:78,1,180,2|0,3:0|0:0,0:0:0:0:
476,13,55522,2,0,P|394:28|271:28,1,180,10|2,0:0|0:0,0:0:0:0:
208,13,56326,6,0,B|155:56|155:56|190:199,1,180,6|0,3:2|0:0,0:0:0:0:
146,247,57129,1,10,0:0:0:0:
65,206,57397,2,0,L|38:81,1,90,2|2,0:0|3:2,0:0:0:0:
107,51,57933,2,0,P|152:36|220:64,1,90,2|2,3:2|0:0,0:0:0:0:
261,102,58467,1,2,0:0:0:0:
341,62,58736,2,0,L|452:29,2,90,10|8|0,0:0|0:0|3:0,0:0:0:0:
261,102,59540,6,0,P|166:127|140:208,1,180,4|2,3:2|0:0,0:0:0:0:
202,260,60343,2,0,L|173:365,2,90,10|2|2,0:0|0:0|3:2,0:0:0:0:
266,196,61147,2,0,L|272:36,2,135,10|2|10,0:0|3:2|0:0,0:0:0:0:
317,269,62217,1,2,3:0:0:0:
405,286,62485,1,2,3:2:0:0:
465,352,62754,6,0,P|377:331|273:383,1,180,4|2,3:2|0:0,0:0:0:0:
215,321,63557,1,8,0:0:0:0:
140,371,63825,2,0,P|97:356|80:298,1,90,2|2,0:0|3:2,0:0:0:0:
36,236,64361,2,0,P|24:194|36:74,2,135,10|10|10,0:0|0:0|0:0,0:0:0:0:
78,318,65433,2,0,B|181:287,1,90,0|8,3:0|0:0,0:0:0:0:
249,263,65968,6,0,P|300:206|257:110,1,180,6|0,0:0|0:0,0:0:0:0:
181,89,66772,2,0,P|131:81|63:76,1,90,10|2,0:0|0:0,0:0:0:0:
10,37,67308,1,2,3:2:0:0:
2,126,67576,2,0,P|17:189|23:260,2,135,2|2|10,3:2|3:2|0:0,0:0:0:0:
10,37,68646,1,2,0:0:0:0:
89,79,68915,1,2,0:0:0:0:
164,30,69183,6,0,P|241:9|340:52,1,180,6|0,0:0|0:0,0:0:0:0:
376,122,69986,2,0,L|503:147,2,90,10|2|2,0:0|0:0|3:2,0:0:0:0:
299,172,70790,2,0,B|281:214|281:214|276:282,1,90,2|2,3:2|0:0,0:0:0:0:
267,347,71325,1,2,0:0:0:0:
176,345,71593,2,0,P|135:365|61:351,2,90,10|8|0,0:0|0:0|3:0,0:0:0:0:
150,258,72397,6,0,B|110:137|203:195|159:49,1,180,4|2,3:2|0:0,0:0:0:0:
239,31,73201,1,10,0:0:0:0:
298,98,73468,2,0,P|342:91|387:89,1,90,2|2,0:0|3:2,0:0:0:0:
427,170,74004,2,0,P|339:226|343:333,1,180,10|0,0:0|0:0,0:0:0:0:
247,335,74808,2,0,L|158:352,2,90,10|2|2,0:0|0:0|3:2,0:0:0:0:
328,294,75611,6,0,B|308:200|382:225|348:99,1,180,4|2,0:0|0:0,0:0:0:0:
302,45,76415,1,8,0:0:0:0:
245,114,76683,2,0,P|200:117|155:121,1,90,2|2,3:2|3:2,0:0:0:0:
65,124,77218,2,0,P|34:50|79:-9,2,135,14|2|10,0:0|3:2|0:0,0:0:0:0:
95,207,78289,1,2,3:2:0:0:
54,287,78557,1,0,3:0:0:0:
129,336,78826,2,0,B|191:338|191:338|211:352|211:352|273:354,2,135,6|6|6,0:0|3:2|3:2,0:0:0:0:
54,287,79897,2,0,L|98:203,1,90,0|0,3:0|3:0,0:0:0:0:
163,147,80433,6,0,B|211:116|283:214|348:166,1,180,6|2,0:0|0:0,0:0:0:0:
421,193,81235,1,2,0:0:0:0:
476,121,81504,2,0,P|462:80|419:48,1,90,2|2,0:0|0:0,0:0:0:0:
336,48,82040,2,0,P|213:5|105:77,1,270,2|2,3:0|0:0,0:0:0:0:
47,146,83111,2,0,P|31:196|29:242,1,90,2|2,0:0|0:0,0:0:0:0:
60,317,83647,6,0,P|102:244|182:267,1,180,6|0,3:2|0:0,0:0:0:0:
271,274,84450,2,0,L|286:143,2,90,2|2|2,0:0|0:0|0:0,0:0:0:0:
360,305,85254,2,0,P|443:293|491:216,1,180,2|2,0:0|0:0,0:0:0:0:
490,126,86057,1,2,0:0:0:0:
427,61,86325,2,0,B|359:73|359:73|356:68|356:68|270:80,1,135,2|6,0:0|0:0,0:0:0:0:
