osu file format v14

[General]
AudioFilename: audio.mp3
AudioLeadIn: 0
PreviewTime: 16
Countdown: 0
SampleSet: Soft
StackLeniency: 0.4
Mode: 0
LetterboxInBreaks: 0
WidescreenStoryboard: 0

[Editor]
Bookmarks: 52914
DistanceSpacing: 1.4
BeatDivisor: 4
GridSize: 32
TimelineZoom: 2.2

[Metadata]
Title:Missing Promise (TV Size)
TitleUnicode:Missing Promise (TV Size)
Artist:Suzuki Konomi
ArtistUnicode:鈴木このみ
Creator:Lanzhu
Version:Dementia
Source:ひぐらしのなく頃に卒
Tags:the moment Spkz cry higurashi no naku koro ni sotsu cicadas when nytrocide_ graduation ending anime ed jpop j-pop pop japanese erisu mayuzumi fuyuko heyimjarvis nextplay My_Angel_Kanan Onegai SkyFlame Azunyan- 07th expansion they
BeatmapID:3093678
BeatmapSetID:1510767

[Difficulty]
HPDrainRate:5.8
CircleSize:4
OverallDifficulty:9.2
ApproachRate:9.4
SliderMultiplier:3.4
SliderTickRate:1

[Events]
//Background and Video events
Video,-752,"bg.mp4"
0,0,"bg.jpg",0,0
//Break Periods
//Storyboard Layer 0 (Background)
//Storyboard Layer 1 (Fail)
//Storyboard Layer 2 (Pass)
//Storyboard Layer 3 (Foreground)
//Storyboard Layer 4 (Overlay)
//Storyboard Sound Samples

[TimingPoints]
76,535.714285714286,3,2,17,45,1,0
76,-166.666666666667,4,2,17,45,0,0
77,-166.666666666667,4,2,17,45,0,0
210,-166.666666666667,4,2,2,45,0,0
344,-166.666666666667,4,2,3,45,0,0
478,-166.666666666667,4,2,4,45,0,0
612,-166.666666666667,4,2,5,45,0,0
745,-166.666666666667,4,2,6,45,0,0
880,-166.666666666667,4,2,7,45,0,0
1148,-166.666666666667,4,2,8,45,0,0
1237,-166.666666666667,4,2,7,45,0,0
1327,-166.666666666667,4,2,8,45,0,0
1416,-166.666666666667,4,2,5,45,0,0
1684,-166.666666666667,4,2,4,45,0,0
1952,-166.666666666667,4,2,5,45,0,0
2219,-166.666666666667,4,2,9,45,0,0
2487,-166.666666666667,4,2,6,45,0,0
2754,-166.666666666667,4,2,5,45,0,0
3023,-166.666666666667,4,2,4,45,0,0
3291,-166.666666666667,4,2,10,45,0,0
3559,-166.666666666667,4,2,3,45,0,0
3648,-166.666666666667,4,2,4,45,0,0
3738,-166.666666666667,4,2,3,45,0,0
3827,-166.666666666667,4,2,10,45,0,0
4095,-166.666666666667,4,2,3,45,0,0
4451,-166.666666666667,4,2,4,45,0,0
4541,-166.666666666667,4,2,3,45,0,0
4630,-166.666666666667,4,2,10,45,0,0
4898,-166.666666666667,4,2,3,45,0,0
5166,-166.666666666667,4,2,2,45,0,0
5434,-166.666666666667,4,2,11,45,0,0
5702,-166.666666666667,4,2,12,45,0,0
5969,-166.666666666667,4,2,13,45,0,0
6237,-166.666666666667,4,2,17,45,0,0
6505,-166.666666666667,4,2,14,45,0,0
6638,-166.666666666667,4,2,14,45,0,0
6773,-166.666666666667,4,2,17,45,0,0
6907,-166.666666666667,4,2,13,45,0,0
7041,-166.666666666667,4,2,12,45,0,0
7175,-166.666666666667,4,2,10,45,0,0
7309,-166.666666666667,4,2,2,45,0,0
7576,-166.666666666667,4,2,11,45,0,0
7666,-166.666666666667,4,2,2,45,0,0
7755,-166.666666666667,4,2,11,45,0,0
7845,-166.666666666667,4,2,12,45,0,0
8112,-166.666666666667,4,2,13,45,0,0
8380,-166.666666666667,4,2,12,45,0,0
8648,-166.666666666667,4,2,4,45,0,0
8916,-166.666666666667,4,2,10,45,0,0
9183,-166.666666666667,4,2,12,45,0,0
9451,-166.666666666667,4,2,13,45,0,0
9719,-166.666666666667,4,2,15,45,0,0
9986,-166.666666666667,4,2,17,45,0,0
10077,-166.666666666667,4,2,13,45,0,0
10166,-166.666666666667,4,2,17,45,0,0
10255,-166.666666666667,4,2,15,45,0,0
10523,-166.666666666667,4,2,17,45,0,0
10881,-166.666666666667,4,2,13,45,0,0
10970,-166.666666666667,4,2,17,45,0,0
11059,-166.666666666667,4,2,15,45,0,0
11327,-166.666666666667,4,2,17,45,0,0
11594,-166.666666666667,4,2,10,45,0,0
11862,-166.666666666667,4,2,13,45,0,0
12130,-166.666666666667,4,2,12,45,0,0
12398,-166.666666666667,4,2,11,45,0,0
12666,-166.666666666667,4,2,4,45,0,0
12934,-166.666666666667,4,2,2,45,0,0
13202,-166.666666666667,4,2,8,45,0,0
13469,-166.666666666667,4,2,16,45,0,0
13737,-166.666666666667,4,2,4,45,0,0
14005,-166.666666666667,4,2,6,45,0,0
14273,-166.666666666667,4,2,7,45,0,0
14540,-142.857142857143,4,2,1,45,0,0
14943,-142.857142857143,4,2,1,45,0,0
20968,-125,4,2,1,60,0,0
22510,-125,4,2,1,60,0,0
22577,-125,4,2,1,60,0,0
24183,-133.333333333333,4,2,1,45,0,0
28938,-133.333333333333,4,2,1,45,0,0
29005,-133.333333333333,4,2,1,45,0,0
32487,-133.333333333333,4,2,1,45,0,0
32755,-133.333333333333,4,2,1,45,0,0
32822,-133.333333333333,4,2,1,55,0,0
33826,-117.647058823529,4,2,1,55,0,0
37242,-117.647058823529,4,2,1,55,0,0
37309,-117.647058823529,4,2,1,55,0,0
38045,-117.647058823529,4,2,1,55,0,0
38112,-117.647058823529,4,2,1,55,0,0
40255,-117.647058823529,4,2,1,55,0,0
40992,-117.647058823529,4,2,1,55,0,0
41059,-117.647058823529,4,2,1,55,0,0
43135,-117.647058823529,4,2,1,55,0,0
43202,-117.647058823529,4,2,1,55,0,0
43468,-105.263157894737,4,2,1,55,0,0
46683,-133.333333333333,4,2,1,40,0,0
46885,-133.333333333333,4,2,1,40,0,0
46950,-125,4,2,1,40,0,0
47152,-133.333333333333,4,2,1,40,0,0
47420,-133.333333333333,4,2,1,40,0,0
47486,-111.111111111111,4,2,1,40,0,0
47687,-111.111111111111,4,2,1,5,0,0
47754,-111.111111111111,4,2,1,40,0,0
48022,-111.111111111111,4,2,1,40,0,0
48223,-111.111111111111,4,2,1,5,0,0
48290,-105.263157894737,4,2,1,60,0,0
48492,-105.263157894737,4,2,1,60,0,0
48559,-105.263157894737,4,2,1,60,0,0
49898,-105.263157894737,4,2,1,50,0,0
51505,-105.263157894737,4,2,1,60,0,0
51907,-105.263157894737,4,2,1,70,0,0
53111,-83.3333333333333,4,2,1,80,0,1
57867,-90.9090909090909,4,2,1,80,0,1
57934,-90.9090909090909,4,2,1,80,0,1
58737,-90.9090909090909,4,2,1,80,0,1
61081,-90.9090909090909,4,2,1,80,0,1
61148,-90.9090909090909,4,2,1,80,0,1
65969,-90.9090909090909,4,2,1,80,0,1
66170,-90.9090909090909,4,2,1,80,0,1
66237,-90.9090909090909,4,2,1,80,0,1
73938,-90.9090909090909,4,2,1,80,0,1
74005,-90.9090909090909,4,2,1,80,0,1
75545,-90.9090909090909,4,2,1,80,0,1
75612,-90.9090909090909,4,2,1,80,0,1
79898,-90.9090909090909,4,2,1,80,0,1
80433,-111.111111111111,4,2,1,80,0,0
80835,-111.111111111111,4,2,1,60,0,0

[Colours]
Combo1 : 255,62,62
Combo2 : 191,191,0

[HitObjects]
99,304,76,6,0,L|27:325,2,50.9999984436036,2|2|2,0:2|0:2|0:2,0:0:0:0:
170,246,476,1,2,0:0:0:0:
291,233,610,1,2,0:0:0:0:
359,317,744,1,2,0:0:0:0:
460,268,878,1,2,0:0:0:0:
460,268,1147,5,2,0:2:0:0:
460,251,1236,1,2,0:2:0:0:
474,259,1326,1,2,0:2:0:0:
465,262,1415,1,2,0:2:0:0:
465,262,1683,6,0,L|456:189,1,50.9999984436036,2|0,0:2|0:0,0:0:0:0:
376,156,1951,2,0,L|367:229,1,50.9999984436036,2|0,0:2|0:0,0:0:0:0:
461,126,2218,1,2,0:2:0:0:
322,24,2486,2,0,L|203:41,1,101.999996887207,2|2,0:2|0:2,0:0:0:0:
221,38,3022,1,2,0:2:0:0:
15,146,3290,6,0,L|74:157,1,50.9999984436036,2|0,0:2|0:0,0:0:0:0:
139,202,3558,1,2,0:2:0:0:
156,202,3647,1,2,0:2:0:0:
148,216,3735,1,2,0:2:0:0:
145,207,3826,1,2,0:2:0:0:
145,207,4093,6,0,L|218:198,1,50.9999984436036,2|0,0:2|0:0,0:0:0:0:
56,339,4361,1,2,0:2:0:0:
73,339,4450,1,2,0:2:0:0:
65,325,4540,1,2,0:2:0:0:
62,334,4629,1,2,0:2:0:0:
62,334,4896,5,2,0:2:0:0:
22,197,5165,1,2,0:2:0:0:
109,81,5433,1,2,0:2:0:0:
0,195,5701,1,2,0:2:0:0:
75,353,5967,1,2,0:2:0:0:
83,200,6236,1,2,0:2:0:0:
83,200,6504,6,0,L|152:212,1,50.9999984436036,2|0,0:2|0:0,0:0:0:0:
201,318,6772,1,2,0:2:0:0:
290,246,6906,1,2,0:2:0:0:
355,330,7040,1,2,0:2:0:0:
427,254,7174,1,2,0:2:0:0:
502,328,7308,6,0,L|509:208,1,101.999996887207,2|2,0:2|0:2,0:0:0:0:
510,194,7665,1,2,0:2:0:0:
511,182,7754,1,2,0:2:0:0:
512,170,7842,1,2,0:2:0:0:
512,170,8111,5,2,0:2:0:0:
377,114,8379,1,2,0:2:0:0:
484,26,8647,1,2,0:2:0:0:
356,138,8915,2,0,B|306:123|307:158|245:133,2,101.999996887207,2|2|2,0:2|0:2|0:2,0:0:0:0:
241,47,9718,6,0,L|121:69,1,101.999996887207,2|2,0:2|0:2,0:0:0:0:
119,72,10076,1,2,0:2:0:0:
119,72,10165,1,2,0:2:0:0:
119,72,10254,1,2,0:2:0:0:
6,202,10522,6,0,L|126:224,1,101.999996887207,2|2,0:2|0:2,0:0:0:0:
128,227,10878,1,2,0:2:0:0:
128,227,10967,1,2,0:2:0:0:
128,227,11057,1,2,0:2:0:0:
128,227,11326,5,2,0:2:0:0:
209,348,11593,1,2,0:2:0:0:
72,327,11861,1,2,0:2:0:0:
239,253,12129,1,2,0:2:0:0:
372,349,12397,1,2,0:2:0:0:
502,264,12665,1,2,0:2:0:0:
353,240,12933,6,0,L|372:177,1,50.9999984436036,2|0,0:2|0:0,0:0:0:0:
435,152,13200,2,0,L|419:101,1,50.9999984436036,2|0,0:2|0:0,0:0:0:0:
345,45,13468,2,0,L|329:94,1,50.9999984436036,2|0,0:2|0:0,0:0:0:0:
257,191,13736,2,0,L|240:135,1,50.9999984436036,2|0,0:2|0:0,0:0:0:0:
196,17,14004,1,2,0:2:0:0:
34,195,14272,1,2,0:2:0:0:
111,13,14540,6,0,P|119:67|123:131,1,118.999996368408,6|0,3:2|0:0,0:0:0:0:
228,260,14942,2,0,P|233:200|242:141,1,118.999996368408,2|0,0:0|0:0,0:0:0:0:
107,338,15343,1,2,0:0:0:0:
322,303,15611,1,2,3:2:0:0:
88,202,15879,1,2,0:0:0:0:
282,177,16147,6,0,L|358:196,1,59.4999981842042,2|0,3:2|0:0,0:0:0:0:
466,295,16415,2,0,L|405:309,1,59.4999981842042,2|0,0:0|0:0,0:0:0:0:
459,170,16683,2,0,B|445:121|453:67|478:5|478:5|460:50|403:53,1,237.999992736817,2|0,3:2|3:0,0:0:0:0:
429,49,17486,6,0,L|350:38,1,59.4999981842042,2|0,0:0|0:0,0:0:0:0:
226,36,17754,2,0,P|239:91|242:166,1,118.999996368408,2|2,3:2|0:0,0:0:0:0:
367,239,18156,2,0,P|352:297|348:357,1,118.999996368408,2|0,0:0|0:0,0:0:0:0:
207,374,18558,1,2,0:0:0:0:
268,179,18826,1,2,3:2:0:0:
428,312,19093,1,2,0:0:0:0:
247,308,19361,6,0,L|165:323,1,59.4999981842042,2|0,3:2|0:0,0:0:0:0:
117,371,19629,2,0,L|35:356,1,59.4999981842042,2|0,0:0|0:0,0:0:0:0:
0,253,19897,2,0,L|62:240,1,59.4999981842042,2|0,3:2|0:0,0:0:0:0:
198,174,20165,2,0,L|138:162,1,59.4999981842042,2|0,0:0|0:0,0:0:0:0:
19,143,20433,1,2,3:2:0:0:
223,59,20701,1,2,0:0:0:0:
223,59,20767,1,2,0:0:0:0:
223,59,20834,1,2,0:0:0:0:
223,59,20901,1,2,0:0:0:0:
223,59,20968,6,0,P|260:65|310:72,1,68,6|0,3:2|0:0,0:0:0:0:
479,141,21236,1,2,0:0:0:0:
398,4,21370,2,0,L|376:155,1,136,0|0,3:0|3:0,0:0:0:0:
479,256,21772,2,0,L|385:244,1,68,8|0,0:0|0:0,0:0:0:0:
492,349,22040,2,0,L|398:337,1,68,2|8,0:0|0:0,0:0:0:0:
263,208,22308,6,0,P|209:206|169:256,1,102,2|0,3:2|0:0,0:0:0:0:
193,310,22576,2,0,L|215:382,1,68,2|8,3:2|0:0,0:0:0:0:
67,378,22843,2,0,L|89:306,1,68,2|8,0:0|0:0,0:0:0:0:
121,141,23111,1,2,0:0:0:0:
270,283,23245,1,0,3:0:0:0:
74,200,23379,6,0,P|137:215|191:155,1,136,6|2,3:2|3:2,0:0:0:0:
186,171,23781,1,0,3:0:0:0:
275,30,23915,1,2,3:2:0:0:
119,21,24049,1,0,3:0:0:0:
279,149,24183,6,0,B|311:125|335:130|359:176|419:136,1,127.500004863739,6|2,0:0|0:0,0:0:0:0:
512,72,24584,2,0,P|473:25|404:48,1,127.500004863739,2|0,3:2|0:0,0:0:0:0:
400,146,24986,2,0,L|388:224,1,63.7500024318696,2|0,0:0|0:0,0:0:0:0:
491,282,25254,2,0,L|500:346,1,63.7500024318696,2|0,0:0|3:0,0:0:0:0:
367,306,25522,1,0,3:0:0:0:
367,306,25790,6,0,L|300:325,1,63.7500024318696,2|0,3:2|0:0,0:0:0:0:
112,364,26058,1,2,0:0:0:0:
112,364,26192,1,0,3:0:0:0:
202,373,26326,2,0,L|192:245,1,127.500004863739,2|0,3:2|0:0,0:0:0:0:
192,245,26726,1,0,0:0:0:0:
73,172,26861,2,0,P|42:184|11:191,1,63.7500024318696,0|0,3:0|3:0,0:0:0:0:
117,86,27129,2,0,P|146:92|178:107,1,63.7500024318696,2|8,0:0|3:0,0:0:0:0:
347,131,27397,6,0,P|292:137|257:198,1,127.500004863739,6|2,0:0|0:0,0:0:0:0:
284,300,27799,2,0,B|416:281|280:305|423:286,1,127.500004863739,2|0,3:2|0:0,0:0:0:0:
493,174,28201,2,0,P|487:203|487:243,1,63.7500024318696,2|0,0:0|0:0,0:0:0:0:
354,111,28468,2,0,P|360:140|359:178,1,63.7500024318696,2|0,3:2|0:0,0:0:0:0:
484,47,28736,2,0,P|456:15|394:24,1,95.6250036478044,2|0,0:0|0:0,0:0:0:0:
333,36,29004,6,0,L|202:30,1,127.500004863739,2|0,3:2|0:0,0:0:0:0:
31,64,29406,1,0,3:0:0:0:
122,13,29540,2,0,P|119:42|118:83,1,63.7500024318696,0|0,3:0|0:0,0:0:0:0:
90,198,29808,1,2,3:2:0:0:
90,198,30076,2,0,P|57:191|25:187,1,63.7500024318696,6|0,3:2|0:0,0:0:0:0:
106,293,30343,2,0,P|139:286|171:282,1,63.7500024318696,2|0,0:0|0:0,0:0:0:0:
321,171,30611,5,6,0:0:0:0:
260,273,30879,1,2,0:0:0:0:
332,340,31147,5,2,3:2:0:0:
214,159,31415,1,0,3:0:0:0:
227,370,31683,5,0,3:0:0:0:
321,95,31951,1,2,3:2:0:0:
466,278,32218,6,0,L|382:268,1,63.7500024318696,6|8,0:0|0:0,0:0:0:0:
325,259,32419,1,8,0:0:0:0:
325,259,32486,1,2,3:2:0:0:
232,351,32620,1,8,0:0:0:0:
158,260,32754,1,2,3:2:0:0:
71,349,32888,1,8,0:0:0:0:
4,255,33022,2,0,L|15:171,1,63.7500024318696,0|0,3:0|0:0,0:0:0:0:
67,65,33290,2,0,B|99:62|136:75|172:99|185:139,1,127.500004863739,0|0,3:0|3:0,0:0:0:0:
175,119,33691,1,0,0:0:0:0:
337,30,33826,6,0,P|325:106|321:180,1,144.500002756119,4|2,3:2|0:0,0:0:0:0:
364,336,34227,1,2,3:2:0:0:
405,248,34361,2,0,P|371:255|328:260,1,72.2500013780594,2|0,3:2|0:0,0:0:0:0:
414,158,34629,2,0,P|447:162|485:171,1,72.2500013780594,2|0,3:2|0:0,0:0:0:0:
422,55,34897,2,0,P|388:61|347:68,1,72.2500013780594,10|8,0:3|0:3,0:0:0:0:
219,112,35165,2,0,P|287:122|310:187,1,144.500002756119,2|4,0:0|3:2,0:0:0:0:
230,191,35567,1,0,0:0:0:0:
163,54,35701,6,0,P|130:69|94:82,1,72.2500013780594,2|2,0:0|0:0,0:0:0:0:
10,163,35968,2,0,P|42:174|75:192,1,72.2500013780594,2|0,3:2|0:0,0:0:0:0:
179,265,36236,1,2,3:2:0:0:
179,265,36370,1,0,0:0:0:0:
74,349,36504,2,0,L|87:265,1,72.2500013780594,10|8,3:3|3:0,0:0:0:0:
266,384,36772,2,0,L|255:311,1,72.2500013780594,2|0,0:0|0:0,0:0:0:0:
267,190,37040,6,0,P|323:206|376:214,1,108.375002067089,6|0,0:0|0:0,0:0:0:0:
406,201,37308,2,0,L|391:128,1,72.2500013780594,2|0,0:0|3:0,0:0:0:0:
496,38,37576,2,0,B|483:71|483:71|481:111,1,72.2500013780594,2|0,3:2|0:0,0:0:0:0:
371,30,37843,2,0,L|263:42,1,108.375002067089,2|0,3:2|0:0,0:0:0:0:
263,55,38111,2,0,L|344:46,1,72.2500013780594,10|8,3:0|3:0,0:0:0:0:
203,134,38379,2,0,L|128:125,1,72.2500013780594,2|0,0:0|0:0,0:0:0:0:
25,32,38647,6,0,P|34:82|44:182,1,144.500002756119,2|2,3:2|0:0,0:0:0:0:
58,348,39049,1,0,3:0:0:0:
121,243,39183,2,0,P|85:252|26:263,1,72.2500013780594,2|0,0:0|0:0,0:0:0:0:
175,338,39451,2,0,P|208:344|245:353,1,72.2500013780594,2|8,3:2|0:3,0:0:0:0:
399,363,39718,1,6,3:2:0:0:
308,287,39852,1,0,0:0:0:0:
424,253,39986,1,10,0:0:0:0:
424,253,40053,1,8,0:0:0:0:
424,253,40120,2,0,L|413:197,1,36.1250006890297,8|8,0:0|0:0,0:0:0:0:
365,141,40254,6,0,P|303:129|257:201,1,144.500002756119,4|2,0:0|0:0,0:0:0:0:
230,266,40656,1,10,3:0:0:0:
163,331,40790,2,0,P|113:338|65:304,1,108.375002067089,2|0,3:2|0:0,0:0:0:0:
47,289,41058,2,0,L|61:210,1,72.2500013780594,2|0,0:0|0:0,0:0:0:0:
152,156,41326,2,0,L|138:85,1,72.2500013780594,10|8,3:0|3:0,0:0:0:0:
28,43,41593,1,2,0:0:0:0:
191,9,41727,1,0,0:0:0:0:
191,9,41794,1,0,0:0:0:0:
191,9,41861,6,0,P|326:32|333:32,1,144.500002756119,4|2,3:2|0:0,0:0:0:0:
332,31,42263,1,0,0:0:0:0:
470,92,42397,2,0,P|436:106|412:141,1,72.2500013780594,2|0,3:2|0:0,0:0:0:0:
308,185,42665,2,0,P|342:199|366:234,1,72.2500013780594,8|0,3:0|0:0,0:0:0:0:
476,320,42933,2,0,L|360:338,1,108.375002067089,10|0,0:0|0:0,0:0:0:0:
343,360,43201,2,0,L|255:349,1,72.2500013780594,2|0,3:2|3:0,0:0:0:0:
168,264,43468,6,0,P|240:217|292:261,1,161.499995687485,14|2,0:0|3:0,0:0:0:0:
163,280,43870,1,0,3:0:0:0:
212,173,44004,2,0,P|248:168|311:157,1,80.7499978437424,10|0,3:0|0:0,0:0:0:0:
400,92,44272,2,0,P|362:85|321:80,1,80.7499978437424,10|0,0:0|0:0,0:0:0:0:
169,27,44540,1,2,3:2:0:0:
153,115,44674,1,0,3:0:0:0:
135,208,44808,1,0,3:0:0:0:
135,208,45076,6,0,P|175:212|205:237,1,80.7499978437424,4|0,3:2|0:0,0:0:0:0:
310,294,45343,2,0,P|270:298|241:326,1,80.7499978437424,8|8,0:0|0:0,0:0:0:0:
116,362,45611,1,0,3:0:0:0:
26,295,45745,1,0,3:0:0:0:
26,295,45879,2,0,L|42:208,1,80.7499978437424,2|2,0:0|0:0,0:0:0:0:
63,46,46147,2,0,P|100:63|157:70,1,80.7499978437424,10|0,0:0|0:0,0:0:0:0:
240,152,46414,1,2,3:2:0:0:
275,77,46683,6,0,B|320:55|320:55|295:103,1,95.6250036478044,4|0,3:2|0:0,0:0:0:0:
283,222,46950,2,0,B|277:273|277:273|248:227,1,102,10|0,3:0|0:0,0:0:0:0:
154,178,47218,2,0,B|114:149|114:149|168:146,1,95.6250036478044,10|0,3:0|0:0,0:0:0:0:
356,146,47486,6,0,B|406:173|406:173|344:182,1,114.749996498108,8|0,3:0|0:0,0:0:0:0:
188,278,47754,2,0,B|139:307|139:307|161:250,1,114.749996498108,8|0,3:0|0:0,0:0:0:0:
167,69,48022,2,0,B|165:10|165:10|206:60,1,114.749996498108,10|0,3:0|0:0,0:0:0:0:
239,158,48290,6,0,B|276:162|276:162|279:165|279:165|330:171,1,80.7499978437424,6|0,3:2|0:0,0:0:0:0:
467,335,48558,1,10,3:0:0:0:
467,335,48692,1,8,3:0:0:0:
354,271,48826,1,10,3:0:0:0:
478,221,48959,1,8,3:0:0:0:
328,164,49093,1,8,3:0:0:0:
506,108,49227,1,8,0:0:0:0:
331,57,49361,1,8,3:0:0:0:
508,11,49495,1,8,0:0:0:0:
328,164,49629,1,2,0:0:0:0:
165,28,49762,1,8,0:0:0:0:
165,12,49829,1,8,0:0:0:0:
179,20,49896,1,6,3:2:0:0:
104,232,51504,6,0,B|59:253|48:257|25:265|5:260|25:251|48:257|60:261|116:265,1,161.499995687485,14|0,0:0|0:0,0:0:0:0:
277,241,51906,6,0,B|322:223|332:215|355:207|376:213|355:221|332:215|320:211|264:207,1,161.499995687485,12|0,0:0|0:0,0:0:0:0:
204,331,52308,6,0,L|192:244,1,80.7499978437424,10|0,0:0|0:0,0:0:0:0:
180,89,52576,1,2,3:2:0:0:
56,174,52709,1,8,3:0:0:0:
195,103,52843,1,10,3:0:0:0:
71,188,52976,1,8,3:0:0:0:
23,63,53111,6,0,B|136:41|86:166|197:190,1,203.999993774414,6|2,0:0|0:0,0:0:0:0:
336,65,53513,2,0,B|336:7|293:-43|218:-16|213:32|237:54|270:59,1,203.999993774414,2|0,3:0|0:0,0:0:0:0:
172,189,53915,2,0,P|215:167|279:163,1,101.999996887207,10|0,0:0|0:0,0:0:0:0:
512,293,54183,2,0,B|492:306|467:319|472:326|465:327|467:319|437:313|413:307,1,101.999996887207,2|0,0:0|0:0,0:0:0:0:
349,156,54451,1,2,3:2:0:0:
283,344,54584,1,0,0:0:0:0:
109,221,54718,6,0,P|157:225|220:234,1,101.999996887207,2|0,3:0|0:0,0:0:0:0:
210,232,54986,1,0,0:0:0:0:
101,373,55120,2,0,P|50:377|-1:384,1,101.999996887207,2|0,3:2|0:0,0:0:0:0:
167,186,55388,1,2,0:0:0:0:
34,120,55522,6,0,B|50:151|26:201|4:182|-17:227|4:279|4:279|10:264|25:252,1,203.999993774414,10|2,0:0|0:0,0:0:0:0:
176,87,55924,1,2,0:0:0:0:
176,87,56058,1,2,0:0:0:0:
0,0,56192,1,2,0:0:0:0:
123,158,56326,6,0,P|216:158|257:61,1,203.999993774414,6|2,3:2|0:0,0:0:0:0:
186,192,56727,2,0,B|224:242|182:306|174:256|155:324|166:335|153:340|181:398,1,203.999993774414,2|2,3:0|0:0,0:0:0:0:
292,211,57129,2,0,P|335:220|396:226,1,101.999996887207,10|0,0:0|0:0,0:0:0:0:
259,336,57397,2,0,P|302:327|363:321,1,101.999996887207,2|0,0:0|0:0,0:0:0:0:
471,235,57665,2,0,P|456:85|452:80,1,152.999995330811,2|0,3:2|0:0,0:0:0:0:
428,63,57933,6,0,B|449:58|480:48|473:63|483:60|468:52|500:42|517:28,1,93.5000028533936,2|10,3:2|0:0,0:0:0:0:
346,23,58201,1,2,0:0:0:0:
342,162,58334,1,2,3:2:0:0:
221,82,58468,1,2,0:0:0:0:
229,218,58601,1,10,0:0:0:0:
229,218,58669,1,8,0:0:0:0:
229,218,58736,5,10,0:0:0:0:
171,144,58870,1,0,3:0:0:0:
177,47,59004,1,8,0:0:0:0:
272,9,59138,1,0,3:0:0:0:
101,114,59272,1,0,3:0:0:0:
258,93,59406,1,0,3:0:0:0:
83,30,59540,6,0,B|91:32|123:122|51:123|120:199|106:230,1,187.000005706787,4|2,3:2|0:0,0:0:0:0:
107,213,59942,1,0,3:0:0:0:
94,364,60076,2,0,P|47:369|-13:394,1,93.5000028533936,2|0,0:0|3:0,0:0:0:0:
176,267,60343,2,0,P|223:272|283:297,1,93.5000028533936,10|0,0:0|0:0,0:0:0:0:
381,346,60611,1,2,0:0:0:0:
219,373,60745,1,0,0:0:0:0:
349,257,60879,2,0,P|431:247|475:297,1,140.25000428009,2|0,3:2|0:0,0:0:0:0:
494,360,61147,6,0,P|496:274|500:168,1,187.000005706787,10|0,0:0|0:0,0:0:0:0:
425,30,61549,2,0,P|466:40|528:52,1,93.5000028533936,2|0,3:2|0:0,0:0:0:0:
359,149,61817,1,2,3:2:0:0:
278,34,61951,2,0,P|237:44|175:56,1,93.5000028533936,10|0,0:0|0:0,0:0:0:0:
73,276,62218,2,0,L|84:169,1,93.5000028533936,2|8,3:0|0:0,0:0:0:0:
265,271,62486,2,0,L|254:164,1,93.5000028533936,2|0,3:2|3:0,0:0:0:0:
179,301,62754,6,0,B|217:282|247:296|262:311|230:299|264:289|275:333|296:331|289:308|267:319|328:359|380:312,1,187.000005706787,4|2,3:2|0:0,0:0:0:0:
256,178,63155,1,2,0:0:0:0:
365,336,63290,2,0,B|422:367|481:337|473:258|427:241|400:259|387:290,1,187.000005706787,2|8,0:0|0:0,0:0:0:0:
403,267,63692,1,0,0:0:0:0:
485,206,63826,1,2,0:0:0:0:
469,105,63959,1,2,0:0:0:0:
373,66,64093,1,2,3:2:0:0:
280,111,64227,1,2,0:0:0:0:
252,210,64361,5,10,0:0:0:0:
492,293,64495,1,0,3:0:0:0:
492,293,64629,1,0,3:0:0:0:
238,289,64763,5,10,0:0:0:0:
485,376,64897,1,0,3:0:0:0:
485,376,65031,1,0,3:0:0:0:
353,172,65165,5,10,0:0:0:0:
297,377,65299,1,0,3:0:0:0:
425,261,65433,1,0,3:0:0:0:
240,170,65567,1,10,0:0:0:0:
209,165,65633,1,8,0:0:0:0:
182,177,65700,1,8,0:0:0:0:
163,200,65767,1,8,0:0:0:0:
159,230,65834,1,8,0:0:0:0:
170,258,65901,1,8,0:0:0:0:
178,271,65968,6,0,P|109:264|53:315,1,140.25000428009,6|0,0:0|0:0,0:0:0:0:
10,360,66236,1,2,0:0:0:0:
90,234,66370,2,0,P|82:190|78:117,1,93.5000028533936,2|0,3:2|0:0,0:0:0:0:
108,14,66638,1,2,3:2:0:0:
0,149,66772,2,0,P|3:192|11:243,1,93.5000028533936,10|0,0:0|0:0,0:0:0:0:
165,98,67040,2,0,P|212:109|263:118,1,93.5000028533936,2|0,0:0|0:0,0:0:0:0:
179,331,67308,2,0,P|130:339|83:350,1,93.5000028533936,2|0,3:2|0:0,0:0:0:0:
250,235,67576,6,0,B|288:221|288:221|316:241|316:241|441:248,1,187.000005706787,2|0,3:2|0:0,0:0:0:0:
360,62,67977,2,0,B|341:106|341:106|350:172,1,93.5000028533936,2|0,3:2|0:0,0:0:0:0:
499,315,68245,1,2,3:2:0:0:
441,101,68379,2,0,B|411:86|377:91|338:130|370:126|341:110|355:140|362:106|338:130|333:150|300:155|243:114,1,187.000005706787,10|2,0:0|0:0,0:0:0:0:
153,35,68781,1,8,0:0:0:0:
153,35,68915,1,2,0:0:0:0:
305,63,69049,1,0,3:0:0:0:
99,119,69183,6,0,P|18:86|49:-6,1,187.000005706787,6|2,0:0|0:0,0:0:0:0:
138,134,69584,2,0,L|133:242,1,93.5000028533936,2|0,3:2|0:0,0:0:0:0:
133,227,69851,1,0,3:0:0:0:
304,289,69986,2,0,P|257:294|193:314,1,93.5000028533936,10|0,0:0|0:0,0:0:0:0:
75,369,70254,2,0,P|122:374|186:394,1,93.5000028533936,2|0,0:0|0:0,0:0:0:0:
6,299,70522,1,2,3:2:0:0:
6,299,70790,6,0,B|20:208|0:298|19:195,1,93.5000028533936,2|8,3:2|0:0,0:0:0:0:
174,151,71058,1,2,0:0:0:0:
14,100,71192,1,2,3:2:0:0:
185,37,71326,1,2,0:0:0:0:
5,10,71458,1,2,3:2:0:0:
101,87,71593,5,10,0:0:0:0:
174,151,71727,1,0,3:0:0:0:
168,248,71861,1,8,0:0:0:0:
73,286,71995,1,8,0:0:0:0:
244,181,72129,1,0,3:0:0:0:
87,202,72263,1,0,3:0:0:0:
182,54,72397,6,0,B|223:15|334:58|219:39|306:101|362:66,1,187.000005706787,4|2,3:2|0:0,0:0:0:0:
506,134,72799,1,0,0:0:0:0:
439,0,72933,2,0,P|437:52|433:114,1,93.5000028533936,2|0,0:0|3:0,0:0:0:0:
273,229,73201,2,0,P|315:236|365:246,1,93.5000028533936,10|0,0:0|0:0,0:0:0:0:
470,369,73468,2,0,P|428:376|378:386,1,93.5000028533936,2|0,0:0|0:0,0:0:0:0:
491,269,73736,2,0,B|498:112|497:281|506:115,1,140.25000428009,2|0,3:2|0:0,0:0:0:0:
512,61,74004,6,0,P|438:109|329:72,1,187.000005706787,10|0,0:0|0:0,0:0:0:0:
210,5,74406,2,0,P|253:19|311:21,1,93.5000028533936,2|0,3:2|0:0,0:0:0:0:
141,160,74674,1,2,3:2:0:0:
15,25,74808,2,0,P|22:70|27:128,1,93.5000028533936,10|0,0:0|0:0,0:0:0:0:
211,204,75076,2,0,P|204:249|199:307,1,93.5000028533936,2|0,0:0|0:0,0:0:0:0:
0,324,75343,2,0,P|67:322|105:388,1,140.25000428009,2|0,3:2|0:0,0:0:0:0:
112,362,75611,6,0,P|108:315|107:245,1,93.5000028533936,4|0,0:0|0:0,0:0:0:0:
104,89,75879,1,2,0:0:0:0:
13,246,76013,1,2,3:2:0:0:
223,179,76147,2,0,B|291:151|286:190|317:170|311:233|358:182|346:234|409:196,1,187.000005706787,2|8,0:0|0:0,0:0:0:0:
398,203,76549,1,0,0:0:0:0:
229,0,76683,2,0,P|238:46|245:101,1,93.5000028533936,2|2,3:2|0:0,0:0:0:0:
420,0,76951,2,0,P|410:46|404:101,1,93.5000028533936,2|2,3:2|0:0,0:0:0:0:
455,286,77218,5,14,0:0:0:0:
295,373,77352,1,0,3:0:0:0:
295,373,77486,1,0,3:0:0:0:
206,211,77620,5,2,3:2:0:0:
366,298,77754,1,0,3:0:0:0:
366,298,77888,1,0,3:0:0:0:
452,158,78022,5,10,0:0:0:0:
292,245,78156,1,0,3:2:0:0:
292,245,78290,1,2,3:2:0:0:
204,97,78424,5,2,0:0:0:0:
364,184,78558,1,0,3:0:0:0:
364,184,78692,1,0,3:0:0:0:
459,43,78826,5,6,0:0:0:0:
299,130,78958,1,8,0:0:0:0:
299,130,79092,1,0,3:0:0:0:
171,28,79227,5,6,3:2:0:0:
74,0,79361,1,0,3:0:0:0:
0,77,79495,1,0,3:0:0:0:
125,183,79629,5,6,3:2:0:0:
213,269,79763,1,8,0:0:0:0:
213,269,79830,1,8,0:0:0:0:
213,269,79897,1,0,3:0:0:0:
307,186,80031,1,6,3:2:0:0:
406,273,80165,1,0,3:0:0:0:
493,179,80299,1,0,3:0:0:0:
315,264,80433,6,0,B|297:219|325:212|305:184|375:195|323:92,1,152.999995330811,6|0,0:0|0:0,0:0:0:0:
426,42,80834,2,0,P|470:56|512:59,2,76.4999976654053,2|2|2,3:2|0:0|0:0,0:0:0:0:
297,32,81236,2,0,P|256:36|216:49,1,76.4999976654053,2|2,0:0|0:0,0:0:0:0:
118,117,81504,1,2,0:0:0:0:
118,117,81638,1,2,0:0:0:0:
20,29,81772,2,0,P|20:67|14:126,1,76.4999976654053,2|2,0:0|0:0,0:0:0:0:
33,268,82040,5,2,3:0:0:0:
26,186,82174,2,0,P|64:234|170:211,1,152.999995330811,0|2,0:0|3:2,0:0:0:0:
258,113,82576,2,0,P|253:155|247:216,1,76.4999976654053,2|0,0:0|0:0,0:0:0:0:
353,316,82843,2,0,P|348:274|342:213,1,76.4999976654053,2|0,0:0|0:0,0:0:0:0:
385,99,83111,5,2,0:0:0:0:
504,122,83245,1,2,0:0:0:0:
423,19,83379,5,2,0:0:0:0:
285,50,83513,1,2,0:0:0:0:
509,44,83647,6,0,P|502:113|497:214,1,152.999995330811,6|2,3:2|0:0,0:0:0:0:
360,290,84049,2,0,P|400:298|431:325,2,76.4999976654053,2|0|2,3:2|0:0|0:0,0:0:0:0:
268,349,84451,2,0,P|230:341|179:334,1,76.4999976654053,2|2,0:0|0:0,0:0:0:0:
24,268,84718,1,2,0:0:0:0:
104,384,84852,2,0,P|107:346|113:301,1,76.4999976654053,2|2,0:0|0:0,0:0:0:0:
111,307,85120,1,2,0:0:0:0:
58,145,85254,5,2,0:0:0:0:
114,210,85388,2,0,P|154:203|199:175,1,76.4999976654053,2|0,0:0|0:0,0:0:0:0:
360,124,85656,2,0,P|320:117|275:89,1,76.4999976654053,2|2,0:0|0:0,0:0:0:0:
164,44,85924,1,2,0:0:0:0:
164,44,86058,1,2,0:0:0:0:
164,44,86192,2,0,B|224:-3|306:30|295:52|283:74|323:108|398:108|447:69,1,305.999990661621,2|6,0:0|0:0,0:0:0:0:
