osu file format v14

[General]
AudioFilename: audio.mp3
AudioLeadIn: 0
PreviewTime: 16
Countdown: 0
SampleSet: Soft
StackLeniency: 0.4
Mode: 0
LetterboxInBreaks: 0
WidescreenStoryboard: 1

[Editor]
Bookmarks: 53783
DistanceSpacing: 1.4
BeatDivisor: 4
GridSize: 32
TimelineZoom: 2.7

[Metadata]
Title:Missing Promise (TV Size)
TitleUnicode:Missing Promise (TV Size)
Artist:Suzuki Konomi
ArtistUnicode:鈴木このみ
Creator:Lanzhu
Version:Azunyan's Expert
Source:ひぐらしのなく頃に卒
Tags:the moment Spkz cry higurashi no naku koro ni sotsu cicadas when nytrocide_ graduation ending anime ed jpop j-pop pop japanese erisu mayuzumi fuyuko heyimjarvis nextplay My_Angel_Kanan Onegai SkyFlame Azunyan- 07th expansion they
BeatmapID:3108588
BeatmapSetID:1510767

[Difficulty]
HPDrainRate:5.5
CircleSize:4
OverallDifficulty:9
ApproachRate:9.2
SliderMultiplier:3.39999990463257
SliderTickRate:1

[Events]
//Background and Video events
0,0,"bg.jpg",0,0
Video,-752,"bg.mp4"
//Break Periods
//Storyboard Layer 0 (Background)
//Storyboard Layer 1 (Fail)
//Storyboard Layer 2 (Pass)
//Storyboard Layer 3 (Foreground)
//Storyboard Layer 4 (Overlay)
//Storyboard Sound Samples

[TimingPoints]
76,535.714285714286,3,2,17,45,1,0
210,-100,3,2,2,45,0,0
344,-100,3,2,3,45,0,0
478,-100,3,2,4,45,0,0
612,-100,3,2,5,45,0,0
745,-100,3,2,6,45,0,0
880,-100,3,2,7,45,0,0
1147,-142.857142857143,3,2,8,45,0,0
1237,-142.857142857143,3,2,7,45,0,0
1327,-142.857142857143,3,2,8,45,0,0
1416,-142.857142857143,3,2,5,45,0,0
1684,-142.857142857143,3,2,4,45,0,0
1952,-142.857142857143,3,2,5,45,0,0
2219,-142.857142857143,3,2,9,45,0,0
2487,-142.857142857143,3,2,6,45,0,0
2754,-142.857142857143,3,2,5,45,0,0
3023,-142.857142857143,3,2,4,45,0,0
3291,-142.857142857143,3,2,10,45,0,0
3559,-142.857142857143,3,2,3,45,0,0
3648,-142.857142857143,3,2,4,45,0,0
3738,-142.857142857143,3,2,3,45,0,0
3827,-142.857142857143,3,2,10,45,0,0
4095,-142.857142857143,3,2,3,45,0,0
4451,-142.857142857143,3,2,4,45,0,0
4541,-142.857142857143,3,2,3,45,0,0
4630,-142.857142857143,3,2,10,45,0,0
4898,-142.857142857143,3,2,3,45,0,0
5166,-142.857142857143,3,2,2,45,0,0
5434,-142.857142857143,3,2,11,45,0,0
5702,-142.857142857143,3,2,12,45,0,0
5969,-142.857142857143,3,2,13,45,0,0
6237,-142.857142857143,3,2,17,45,0,0
6505,-142.857142857143,3,2,14,45,0,0
6638,-142.857142857143,3,2,1,45,0,0
6773,-142.857142857143,3,2,17,45,0,0
6907,-142.857142857143,3,2,13,45,0,0
7041,-142.857142857143,3,2,12,45,0,0
7175,-142.857142857143,3,2,10,45,0,0
7309,-142.857142857143,3,2,2,45,0,0
7576,-142.857142857143,3,2,11,45,0,0
7666,-142.857142857143,3,2,2,45,0,0
7755,-142.857142857143,3,2,11,45,0,0
7845,-142.857142857143,3,2,12,45,0,0
8112,-142.857142857143,3,2,13,45,0,0
8380,-142.857142857143,3,2,12,45,0,0
8648,-142.857142857143,3,2,4,45,0,0
8916,-142.857142857143,3,2,10,45,0,0
9183,-142.857142857143,3,2,12,45,0,0
9451,-142.857142857143,3,2,13,45,0,0
9719,-142.857142857143,3,2,15,45,0,0
9986,-142.857142857143,3,2,17,45,0,0
10077,-142.857142857143,3,2,13,45,0,0
10166,-142.857142857143,3,2,17,45,0,0
10255,-142.857142857143,3,2,15,45,0,0
10523,-142.857142857143,3,2,17,45,0,0
10881,-142.857142857143,3,2,13,45,0,0
10970,-142.857142857143,3,2,17,45,0,0
11059,-142.857142857143,3,2,15,45,0,0
11327,-142.857142857143,3,2,17,45,0,0
11594,-142.857142857143,3,2,10,45,0,0
11862,-142.857142857143,3,2,13,45,0,0
12130,-142.857142857143,3,2,12,45,0,0
12398,-142.857142857143,3,2,11,45,0,0
12666,-142.857142857143,3,2,4,45,0,0
12934,-142.857142857143,3,2,2,45,0,0
13202,-142.857142857143,3,2,8,45,0,0
13469,-142.857142857143,3,2,16,45,0,0
13737,-142.857142857143,3,2,4,45,0,0
14005,-142.857142857143,3,2,6,45,0,0
14273,-142.857142857143,3,2,7,45,0,0
14406,-142.857142857143,3,2,1,45,0,0
14540,-200,3,2,1,45,0,0
19897,-166.666666666667,3,2,1,45,0,0
20165,-142.857142857143,3,2,1,45,0,0
20433,-125,3,2,1,45,0,0
20968,-100,3,2,1,60,0,0
24183,-125,3,2,1,45,0,0
32822,-125,3,2,1,55,0,0
42933,-100,3,2,1,55,0,0
46683,-108.97435591771,3,2,1,40,0,0
46884,-108.97435591771,3,2,1,5,0,0
46951,-108.97435591771,3,2,1,40,0,0
47151,-108.97435591771,3,2,1,5,0,0
47218,-108.97435591771,3,2,1,40,0,0
47419,-108.97435591771,3,2,1,5,0,0
47486,-65.3846145629883,3,2,1,40,0,0
47687,-108.97435591771,3,2,1,5,0,0
47754,-65.3846145629883,3,2,1,40,0,0
47955,-108.97435591771,3,2,1,5,0,0
48022,-65.3846145629883,3,2,1,40,0,0
48223,-108.97435591771,3,2,1,5,0,0
48290,-65.3846145629883,3,2,1,60,0,0
49898,-65.3846145629883,3,2,1,50,0,0
51504,-100,3,2,1,60,0,0
51907,-100,3,2,1,70,0,0
53044,-100,3,2,1,5,0,0
53111,-83.3333333333333,3,2,1,80,0,1
80433,-83.3333333333333,3,2,1,80,0,0
80835,-83.3333333333333,3,2,1,60,0,0
83647,-125,3,2,1,60,0,0

[Colours]
Combo1 : 255,62,62
Combo2 : 255,164,255

[HitObjects]
70,238,76,5,2,0:2:0:0:
91,220,209,1,2,0:2:0:0:
132,205,343,1,2,0:2:0:0:
195,206,477,1,2,0:2:0:0:
256,252,611,1,2,0:2:0:0:
332,295,745,1,2,0:2:0:0:
425,267,879,1,2,0:2:0:0:
438,277,1147,6,0,L|459:213,2,39.6666643435161,2|2|2,0:2|0:2|0:2,0:0:0:0:
419,169,1415,1,2,0:2:0:0:
512,33,1683,1,2,0:2:0:0:
466,101,1951,1,2,0:2:0:0:
419,169,2218,1,2,0:2:0:0:
277,19,2486,5,2,0:2:0:0:
302,122,2754,1,2,0:2:0:0:
199,147,3022,1,2,0:2:0:0:
173,44,3290,5,2,0:2:0:0:
210,168,3558,2,0,L|195:235,2,39.6666643435161,2|2|2,0:2|0:2|0:2,0:0:0:0:
183,284,3826,1,2,0:2:0:0:
69,69,4093,1,2,0:2:0:0:
106,193,4361,2,0,L|91:260,2,39.6666643435161,2|2|2,0:2|0:2|0:2,0:0:0:0:
79,309,4629,1,2,0:2:0:0:
287,259,4897,1,2,0:2:0:0:
485,344,5165,5,2,0:2:0:0:
386,301,5433,1,2,0:2:0:0:
394,55,5701,1,2,0:2:0:0:
431,145,5968,1,2,0:2:0:0:
394,55,6236,1,2,0:2:0:0:
468,235,6504,1,2,0:2:0:0:
400,37,6772,5,2,0:2:0:0:
324,34,6905,1,2,0:2:0:0:
257,66,7039,1,2,0:2:0:0:
212,126,7173,1,2,0:2:0:0:
184,229,7308,1,2,0:2:0:0:
184,229,7576,2,0,L|128:215,2,39.6666643435161,2|2|2,0:2|0:2|0:2,0:0:0:0:
71,198,7843,1,2,0:2:0:0:
407,314,8111,1,2,0:2:0:0:
330,247,8379,1,2,0:2:0:0:
419,129,8647,1,2,0:2:0:0:
330,247,8915,5,2,0:2:0:0:
184,229,9183,1,2,0:2:0:0:
73,282,9451,1,2,0:2:0:0:
34,363,9718,5,2,0:2:0:0:
62,261,9986,2,0,L|50:213,2,39.6666643435161,2|2|2,0:2|0:2|0:2,0:0:0:0:
32,146,10254,1,2,0:2:0:0:
156,331,10522,1,2,0:2:0:0:
184,229,10790,2,0,L|172:181,2,39.6666643435161,2|2|2,0:2|0:2|0:2,0:0:0:0:
154,114,11058,1,2,0:2:0:0:
278,299,11326,1,2,0:2:0:0:
306,197,11593,1,2,0:2:0:0:
283,123,11862,1,2,0:2:0:0:
367,7,12129,5,2,0:2:0:0:
450,56,12397,1,2,0:2:0:0:
489,148,12665,1,2,0:2:0:0:
340,305,12933,5,2,0:2:0:0:
388,221,13201,1,2,0:2:0:0:
358,98,13469,1,2,0:2:0:0:
234,19,13736,1,2,0:2:0:0:
78,44,14004,1,2,0:2:0:0:
0,188,14272,1,2,0:2:0:0:
58,355,14406,1,2,0:0:0:0:
58,355,14473,1,2,0:0:0:0:
58,355,14540,6,0,P|100:340|144:330,1,84.9999976158143,6|0,3:2|0:0,0:0:0:0:
227,259,14942,2,0,P|239:218|247:177,1,84.9999976158143,2|0,0:0|0:0,0:0:0:0:
247,176,15343,1,2,0:0:0:0:
244,370,15611,2,0,P|289:373|317:370,1,42.4999988079071,2|0,3:2|0:0,0:0:0:0:
353,283,15879,1,2,0:0:0:0:
511,363,16013,1,2,0:0:0:0:
511,363,16080,1,2,0:0:0:0:
511,363,16147,2,0,P|448:348|419:342,1,84.9999976158143,2|2,3:2|0:0,0:0:0:0:
325,193,16683,6,0,B|415:179|396:233|501:219,1,169.999995231629,2|0,3:2|3:0,0:0:0:0:
399,20,17486,1,2,0:0:0:0:
399,20,17553,1,2,0:0:0:0:
399,20,17620,1,2,0:0:0:0:
312,108,17754,2,0,L|326:203,1,84.9999976158143,2|2,3:2|0:0,0:0:0:0:
181,53,18156,2,0,L|193:137,1,84.9999976158143,2|0,0:0|0:0,0:0:0:0:
212,261,18558,1,2,0:0:0:0:
46,219,18826,2,0,P|67:213|88:210,1,42.4999988079071,2|0,3:2|0:0,0:0:0:0:
84,303,19093,2,0,P|105:308|126:314,1,42.4999988079071,2|0,0:0|0:0,0:0:0:0:
109,328,19361,6,0,P|89:322|69:318,1,42.4999988079071,2|0,3:2|0:0,0:0:0:0:
122,233,19629,2,0,P|106:220|88:209,1,42.4999988079071,2|0,0:0|0:0,0:0:0:0:
180,148,19897,2,0,P|169:122|156:99,1,50.9999970130922,2|0,3:2|0:0,0:0:0:0:
291,106,20165,2,0,P|297:74|301:42,1,59.4999965152742,2|0,0:0|0:0,0:0:0:0:
420,157,20433,2,0,P|447:135|471:111,1,67.9999980926514,2|0,3:2|0:0,0:0:0:0:
449,315,20701,2,0,P|481:328|515:338,1,67.9999980926514,2|2,0:0|0:0,0:0:0:0:
322,211,20968,6,0,B|329:254|329:254|281:322|281:322|292:369,1,169.999995231629,6|2,3:2|0:0,0:0:0:0:
202,230,21370,2,0,L|176:133,1,84.9999976158143,0|2,3:0|0:0,0:0:0:0:
114,26,21638,1,0,3:0:0:0:
34,140,21772,2,0,B|67:181|67:181|182:146,1,169.999995231629,8|2,0:0|0:0,0:0:0:0:
337,62,22174,1,8,0:0:0:0:
258,0,22308,2,0,P|250:43|244:106,1,84.9999976158143,2|0,3:2|0:0,0:0:0:0:
320,211,22576,5,2,3:2:0:0:
388,136,22709,2,0,P|481:118|511:119,1,84.9999976158143,8|2,0:0|0:0,0:0:0:0:
309,230,22977,2,0,P|216:248|186:247,1,84.9999976158143,8|2,0:0|0:0,0:0:0:0:
489,314,23245,1,0,3:0:0:0:
400,268,23379,2,0,L|370:396,1,84.9999976158143,6|0,3:2|0:0,0:0:0:0:
171,309,23647,5,2,3:2:0:0:
226,247,23781,1,0,3:0:0:0:
162,172,23915,5,2,3:2:0:0:
177,74,24049,1,0,3:0:0:0:
47,5,24183,6,0,P|62:71|81:188,1,135.999996185303,6|2,0:0|0:0,0:0:0:0:
55,233,24584,2,0,L|26:386,1,135.999996185303,2|0,3:2|0:0,0:0:0:0:
29,366,24986,1,2,0:0:0:0:
292,212,25254,2,0,P|258:218|227:230,2,67.9999980926514,2|0|0,0:0|3:0|3:0,0:0:0:0:
343,290,25656,1,0,0:0:0:0:
512,173,25790,6,0,B|429:166|469:220|352:199,1,135.999996185303,2|2,3:2|0:0,0:0:0:0:
348,64,26192,1,0,3:0:0:0:
348,64,26326,2,0,P|397:120|404:144,1,67.9999980926514,2|0,3:2|0:0,0:0:0:0:
292,212,26593,2,0,P|315:141|333:123,1,67.9999980926514,0|0,3:0|0:0,0:0:0:0:
213,4,26861,5,0,3:0:0:0:
141,30,26995,1,0,3:0:0:0:
168,101,27129,1,2,0:0:0:0:
239,75,27263,1,8,3:0:0:0:
141,30,27397,2,0,L|117:195,1,135.999996185303,6|2,0:0|0:0,0:0:0:0:
21,297,27799,6,0,B|44:268|45:232|45:232|68:261|100:264,1,135.999996185303,2|0,3:2|0:0,0:0:0:0:
185,185,28201,2,0,P|153:171|120:164,1,67.9999980926514,2|0,0:0|0:0,0:0:0:0:
188,313,28468,2,0,P|219:326|252:333,1,67.9999980926514,2|0,3:2|0:0,0:0:0:0:
321,281,28736,1,2,0:0:0:0:
386,225,28870,1,2,0:0:0:0:
431,368,29004,2,0,P|520:253|470:129,1,271.999992370606,2|0,3:2|3:0,0:0:0:0:
283,68,29808,1,2,3:2:0:0:
319,279,30076,5,6,3:2:0:0:
188,313,30343,1,2,0:0:0:0:
414,34,30611,5,6,0:0:0:0:
283,68,30879,1,2,0:0:0:0:
97,214,31147,2,0,P|103:147|151:101,1,135.999996185303,2|0,3:2|3:0,0:0:0:0:
283,68,31549,1,0,0:0:0:0:
199,23,31683,1,0,3:0:0:0:
283,68,31817,1,0,0:0:0:0:
418,146,31951,5,2,3:2:0:0:
338,192,32085,1,0,0:0:0:0:
251,168,32218,5,6,0:0:0:0:
338,192,32352,1,8,0:0:0:0:
314,279,32486,1,2,3:2:0:0:
227,255,32620,1,8,0:0:0:0:
299,161,32754,5,2,3:2:0:0:
344,240,32888,1,8,0:0:0:0:
220,206,33022,1,0,3:0:0:0:
249,358,33290,5,0,3:0:0:0:
185,315,33424,1,0,3:0:0:0:
111,310,33558,1,0,3:0:0:0:
44,340,33692,1,0,3:0:0:0:
249,358,33826,2,0,P|319:374|411:360,1,135.999996185303,4|2,3:2|0:0,0:0:0:0:
443,272,34227,1,2,3:2:0:0:
392,350,34361,6,0,P|324:354|258:338,1,135.999996185303,2|2,3:2|3:2,0:0:0:0:
87,195,34897,1,10,0:3:0:0:
151,250,35031,1,8,0:3:0:0:
24,249,35165,2,0,B|2:207|2:207|28:84,1,135.999996185303,2|4,0:0|3:2,0:0:0:0:
425,189,35701,1,2,0:0:0:0:
361,134,35835,1,2,0:0:0:0:
488,135,35969,2,0,B|510:177|510:177|484:300,1,135.999996185303,2|2,3:2|3:2,0:0:0:0:
246,27,36504,5,10,3:3:0:0:
279,99,36638,1,8,3:0:0:0:
220,182,36772,5,2,0:0:0:0:
197,265,36906,1,2,0:0:0:0:
197,265,36973,1,2,0:0:0:0:
197,265,37040,6,0,P|200:310|208:358,1,67.9999980926514,6|0,0:0|0:0,0:0:0:0:
361,134,37308,2,0,P|356:100|354:66,1,67.9999980926514,2|0,0:0|3:0,0:0:0:0:
115,230,37576,2,0,P|118:275|126:323,1,67.9999980926514,2|0,3:2|0:0,0:0:0:0:
279,99,37844,2,0,P|274:65|272:31,1,67.9999980926514,2|0,3:2|0:0,0:0:0:0:
45,154,38111,1,10,3:0:0:0:
115,120,38245,1,8,3:0:0:0:
220,182,38379,2,0,P|260:189|314:199,1,67.9999980926514,2|0,0:0|0:0,0:0:0:0:
476,116,38647,6,0,P|411:185|406:199,1,67.9999980926514,2|0,3:2|0:0,0:0:0:0:
448,319,38915,2,0,P|420:228|410:216,1,67.9999980926514,2|0,0:0|3:0,0:0:0:0:
286,193,39183,2,0,P|377:213|393:211,1,67.9999980926514,2|0,0:0|0:0,0:0:0:0:
448,319,39450,1,2,3:2:0:0:
360,300,39584,1,8,0:3:0:0:
195,355,39718,1,6,3:2:0:0:
177,341,39986,5,10,0:0:0:0:
160,343,40052,1,8,0:0:0:0:
143,345,40119,1,8,0:0:0:0:
126,348,40186,1,8,0:0:0:0:
109,350,40254,2,0,L|41:360,1,67.9999980926514,4|0,0:0|0:0,0:0:0:0:
58,218,40522,5,2,0:0:0:0:
3,282,40656,1,10,3:0:0:0:
4,155,40790,2,0,B|46:133|46:133|169:159,1,135.999996185303,2|2,3:2|0:0,0:0:0:0:
311,112,41326,1,10,3:0:0:0:
300,195,41459,1,8,3:0:0:0:
452,59,41593,2,0,P|397:38|300:21,1,135.999996185303,2|4,0:0|3:2,0:0:0:0:
277,182,42129,5,2,0:0:0:0:
266,265,42263,1,2,0:0:0:0:
185,309,42397,2,0,P|150:319|103:328,1,67.9999980926514,2|0,3:2|0:0,0:0:0:0:
297,362,42665,2,0,P|329:352|362:345,1,67.9999980926514,8|0,3:0|0:0,0:0:0:0:
512,241,42933,6,0,P|489:280|468:355,1,84.9999976158143,10|0,0:0|0:0,0:0:0:0:
409,166,43201,2,0,P|393:208|385:285,1,84.9999976158143,2|0,3:2|3:0,0:0:0:0:
31,204,43468,2,0,P|54:243|75:318,1,84.9999976158143,14|0,0:0|0:0,0:0:0:0:
134,129,43736,2,0,P|149:171|157:248,1,84.9999976158143,2|0,3:2|3:0,0:0:0:0:
445,89,44004,2,0,P|422:128|401:203,1,84.9999976158143,10|0,3:0|0:0,0:0:0:0:
342,14,44272,2,0,P|326:56|318:133,1,84.9999976158143,10|0,0:0|0:0,0:0:0:0:
351,362,44540,5,2,3:2:0:0:
406,271,44674,2,0,B|351:236|293:267|293:267|262:311|211:306,1,212.499994039536,0|0,3:0|0:0,0:0:0:0:
213,307,45076,1,4,3:2:0:0:
0,119,45343,5,8,0:0:0:0:
70,205,45477,1,8,0:0:0:0:
138,135,45611,1,0,3:0:0:0:
213,161,45745,1,0,3:0:0:0:
239,143,45879,1,2,0:0:0:0:
306,69,46013,1,2,0:2:0:0:
403,109,46147,1,10,0:0:0:0:
70,205,46415,1,2,3:2:0:0:
239,143,46683,6,1,B|222:119|224:90|224:90|207:125|224:150,1,116.999998188468,4|0,3:2|0:0,0:0:0:0:
320,194,46951,2,1,B|349:191|373:208|373:208|352:175|321:178,1,117.000000000001,10|0,3:0|0:0,0:0:0:0:
235,239,47218,2,1,B|223:266|197:278|197:278|235:276|249:248,1,117.000000000001,10|0,3:0|0:0,0:0:0:0:
319,106,47486,6,1,B|341:57|389:34|389:34|318:39|294:89,1,194.999996980779,8|0,3:0|0:0,0:0:0:0:
312,282,47754,2,1,B|343:326|340:379|340:379|371:315|340:269,1,194.999996980779,8|0,3:0|0:0,0:0:0:0:
163,188,48022,2,1,B|110:193|65:163|65:163|105:222|161:218,1,194.999996980779,10|0,3:0|0:0,0:0:0:0:
323,177,48290,5,6,3:2:0:0:
323,177,48558,5,10,3:0:0:0:
391,140,48692,1,8,3:0:0:0:
358,245,48826,1,10,3:0:0:0:
428,208,48959,1,8,3:0:0:0:
355,62,49093,5,8,3:0:0:0:
391,140,49227,1,8,0:0:0:0:
194,60,49361,1,8,3:0:0:0:
281,108,49495,1,8,0:0:0:0:
111,117,49629,1,2,0:0:0:0:
99,128,49696,1,8,0:0:0:0:
87,139,49763,1,8,0:0:0:0:
76,151,49830,1,8,0:0:0:0:
66,164,49897,1,6,3:2:0:0:
403,354,51504,6,0,B|352:348|317:311|317:311|278:317|225:361,1,169.999995231629,14|0,0:0|0:0,0:0:0:0:
65,254,51906,2,0,B|116:248|150:211|150:211|189:217|242:261,1,169.999995231629,12|0,0:0|0:0,0:0:0:0:
343,184,52308,2,0,P|281:154|247:136,1,84.9999976158143,10|0,0:0|0:0,0:0:0:0:
266,146,52509,1,0,3:0:0:0:
266,146,52576,1,2,3:2:0:0:
202,59,52709,1,8,3:0:0:0:
101,134,52843,2,0,P|90:66|116:-17,1,127.499996423721,10|0,3:0|0:0,0:0:0:0:
202,59,53111,6,0,B|261:37|261:37|330:85|330:85|406:56,1,203.999988052369,6|2,0:0|0:0,0:0:0:0:
490,19,53513,2,0,P|410:101|452:206,1,203.999988052369,2|0,3:0|0:0,0:0:0:0:
512,337,53915,2,0,P|463:321|412:317,1,101.999994026184,10|0,0:0|0:0,0:0:0:0:
297,239,54183,2,0,P|275:192|264:143,1,101.999994026184,2|0,0:0|0:0,0:0:0:0:
244,358,54451,2,0,P|195:373|144:377,1,101.999994026184,2|0,3:2|0:0,0:0:0:0:
27,196,54718,6,0,P|124:193|175:276,1,203.999988052369,2|0,3:0|0:0,0:0:0:0:
24,217,55120,2,0,P|7:156|-6:82,1,101.999994026184,2|0,3:2|0:0,0:0:0:0:
26,0,55388,1,2,0:0:0:0:
210,82,55522,2,0,B|331:112|285:20|446:69,1,203.999988052369,10|2,0:0|0:0,0:0:0:0:
511,128,55924,1,2,0:0:0:0:
398,184,56058,1,2,0:0:0:0:
406,58,56192,1,2,0:0:0:0:
421,305,56326,6,0,B|347:288|347:288|313:246|313:246|229:227,1,203.999988052369,6|2,3:2|0:0,0:0:0:0:
73,352,56727,2,0,B|120:318|168:323|168:323|130:287|122:222,1,203.999988052369,2|2,3:0|0:0,0:0:0:0:
24,148,57129,2,0,P|17:197|-5:256,1,101.999994026184,10|0,0:0|0:0,0:0:0:0:
141,119,57397,2,0,P|152:167|150:231,1,101.999994026184,2|0,0:0|0:0,0:0:0:0:
242,52,57665,2,0,P|269:94|289:154,1,101.999994026184,2|2,3:2|0:0,0:0:0:0:
349,218,57933,5,2,3:2:0:0:
349,218,58067,1,10,0:0:0:0:
441,184,58201,5,2,0:0:0:0:
286,142,58334,1,2,3:2:0:0:
435,85,58468,1,2,0:0:0:0:
349,218,58602,1,10,0:0:0:0:
349,218,58669,1,8,0:0:0:0:
349,218,58736,1,10,0:0:0:0:
340,59,58870,1,0,3:0:0:0:
441,184,59004,5,8,0:0:0:0:
286,142,59138,1,0,3:0:0:0:
326,306,59272,5,0,3:0:0:0:
413,277,59406,1,0,3:0:0:0:
349,218,59540,6,0,P|234:240|163:304,1,203.999988052369,4|2,3:2|0:0,0:0:0:0:
169,294,59942,1,0,3:0:0:0:
46,375,60076,2,0,P|31:321|14:248,1,101.999994026184,2|0,0:0|3:0,0:0:0:0:
143,196,60343,2,0,P|155:245|168:294,1,101.999994026184,10|0,0:0|0:0,0:0:0:0:
213,45,60611,2,0,P|165:28|114:24,1,101.999994026184,2|0,0:0|0:0,0:0:0:0:
143,196,60879,2,0,P|190:212|241:216,1,101.999994026184,2|0,3:2|0:0,0:0:0:0:
396,20,61147,6,0,B|428:29|445:63|445:63|457:130|426:197,1,203.999988052369,10|0,0:0|0:0,0:0:0:0:
228,131,61549,2,0,B|284:109|284:109|324:119,1,101.999994026184,2|0,3:2|0:0,0:0:0:0:
449,180,61817,1,2,3:2:0:0:
379,357,61951,2,0,P|368:307|356:257,1,101.999994026184,10|0,0:0|0:0,0:0:0:0:
228,131,62218,5,2,3:0:0:0:
212,252,62352,1,8,0:0:0:0:
35,168,62486,1,2,3:2:0:0:
118,79,62620,1,0,3:0:0:0:
137,180,62754,6,0,B|146:286|80:263|117:400,1,203.999988052369,4|2,3:2|0:0,0:0:0:0:
229,275,63156,1,2,0:0:0:0:
364,365,63290,2,0,P|460:362|498:273,1,203.999988052369,2|8,0:0|0:0,0:0:0:0:
399,31,63826,5,2,0:0:0:0:
335,137,63959,1,2,0:0:0:0:
442,200,64093,1,2,3:2:0:0:
505,94,64227,1,2,0:0:0:0:
419,115,64361,6,0,B|359:178|312:167|312:167|280:126|219:130,1,203.999988052369,10|0,0:0|3:0,0:0:0:0:
70,31,64763,2,0,B|154:51|168:97|168:97|149:145|182:196,1,203.999988052369,10|0,0:0|3:0,0:0:0:0:
176,375,65165,2,0,B|151:291|184:256|184:256|235:249|263:194,1,203.999988052369,10|0,0:0|3:0,0:0:0:0:
314,45,65567,1,10,0:0:0:0:
425,278,65701,5,8,0:0:0:0:
417,243,65767,1,8,0:0:0:0:
447,226,65834,1,8,0:0:0:0:
472,249,65901,1,8,0:0:0:0:
458,280,65968,6,0,B|442:322|442:322|329:342|329:342|300:307,1,203.999988052369,6|2,0:0|0:0,0:0:0:0:
13,203,66370,2,0,B|28:160|28:160|141:140|141:140|170:175,1,203.999988052369,2|2,3:2|3:2,0:0:0:0:
428,62,66772,2,0,P|333:27|315:18,1,101.999994026184,10|0,0:0|0:0,0:0:0:0:
300,308,67040,2,0,P|377:243|393:231,1,101.999994026184,2|0,0:0|0:0,0:0:0:0:
152,74,67308,2,0,P|169:173|171:193,1,101.999994026184,2|0,3:2|0:0,0:0:0:0:
169,353,67576,5,2,3:2:0:0:
146,161,67709,2,0,P|163:260|165:280,1,101.999994026184,8|0,0:0|0:0,0:0:0:0:
241,8,67977,2,0,P|261:107|276:208,1,203.999988052369,2|2,3:2|3:2,0:0:0:0:
340,321,68379,5,10,0:0:0:0:
430,293,68513,1,0,3:0:0:0:
371,205,68647,5,2,3:2:0:0:
295,188,68781,1,8,0:0:0:0:
424,121,68915,5,2,3:2:0:0:
491,94,69049,1,0,3:0:0:0:
434,18,69183,6,0,B|316:-8|348:65|209:23,1,203.999988052369,6|2,0:0|0:0,0:0:0:0:
53,2,69584,2,0,P|150:119|126:234,1,203.999988052369,2|0,3:2|3:0,0:0:0:0:
24,236,69986,2,0,P|17:187|-5:128,1,101.999994026184,10|0,0:0|0:0,0:0:0:0:
141,265,70254,2,0,P|152:217|150:153,1,101.999994026184,2|0,0:0|0:0,0:0:0:0:
242,332,70522,2,0,P|269:290|289:230,1,101.999994026184,2|0,3:2|0:0,0:0:0:0:
247,133,70790,5,2,3:2:0:0:
247,133,70924,1,8,0:0:0:0:
394,118,71058,5,2,0:0:0:0:
286,241,71191,1,2,3:2:0:0:
259,164,71325,5,2,0:0:0:0:
419,195,71459,1,2,3:2:0:0:
366,257,71593,5,10,0:0:0:0:
313,102,71727,1,0,3:0:0:0:
366,40,71861,5,8,0:0:0:0:
286,24,71995,1,8,0:0:0:0:
339,179,72129,1,0,3:0:0:0:
259,164,72263,1,0,3:0:0:0:
206,225,72397,6,0,P|114:218|68:96,1,203.999988052369,4|2,3:2|0:0,0:0:0:0:
62,127,72799,1,0,0:0:0:0:
144,20,72933,2,0,P|159:97|166:150,1,101.999994026184,2|0,0:0|3:0,0:0:0:0:
9,306,73201,2,0,P|68:254|110:221,1,101.999994026184,10|0,0:0|0:0,0:0:0:0:
228,245,73468,2,0,P|276:263|325:280,1,101.999994026184,2|0,0:0|0:0,0:0:0:0:
375,89,73736,2,0,P|326:72|278:54,1,101.999994026184,2|0,3:2|0:0,0:0:0:0:
467,347,74004,6,0,B|492:274|492:274|479:218|479:218|505:122,1,203.999988052369,10|0,0:0|0:0,0:0:0:0:
417,2,74406,2,0,P|397:69|359:96,1,101.999994026184,2|0,3:2|0:0,0:0:0:0:
278,54,74674,1,2,3:2:0:0:
497,151,74808,2,0,P|400:242|312:250,1,203.999988052369,10|2,0:0|0:0,0:0:0:0:
263,153,75209,1,8,0:0:0:0:
189,117,75343,1,2,3:2:0:0:
266,156,75477,1,0,3:0:0:0:
23,298,75611,6,0,P|1:159|28:52,1,203.999988052369,4|2,0:0|0:0,0:0:0:0:
98,0,76013,1,2,3:2:0:0:
25,84,76147,2,0,P|13:148|11:221,1,101.999994026184,2|0,0:0|3:0,0:0:0:0:
98,0,76415,1,8,0:0:0:0:
414,0,76683,5,2,3:2:0:0:
380,66,76817,1,2,0:0:0:0:
451,158,76951,1,2,3:2:0:0:
479,234,77085,1,2,0:0:0:0:
393,359,77218,5,14,0:0:0:0:
336,310,77352,1,0,3:0:0:0:
397,345,77486,1,0,3:0:0:0:
264,284,77620,5,2,3:2:0:0:
321,235,77754,1,0,3:0:0:0:
260,270,77888,1,0,3:0:0:0:
110,338,78022,5,10,0:0:0:0:
36,305,78156,1,0,3:2:0:0:
100,258,78290,1,2,3:2:0:0:
157,205,78424,5,2,0:0:0:0:
83,238,78558,1,0,3:0:0:0:
93,158,78692,1,0,3:0:0:0:
222,102,78826,5,6,0:0:0:0:
241,186,78959,1,8,0:0:0:0:
260,270,79093,1,0,3:0:0:0:
157,205,79227,5,6,3:2:0:0:
241,186,79361,1,0,3:0:0:0:
325,167,79495,1,0,3:0:0:0:
444,198,79629,5,6,3:2:0:0:
511,95,79763,1,8,0:0:0:0:
511,95,79830,1,8,0:0:0:0:
511,95,79897,1,0,3:0:0:0:
434,0,80031,1,6,3:2:0:0:
319,44,80165,1,0,3:0:0:0:
325,167,80299,1,0,3:0:0:0:
407,101,80433,5,6,0:0:0:0:
256,192,80567,12,2,83513,0:0:0:0:
65,141,83647,6,0,L|74:208,1,67.9999980926514,6|2,3:2|0:0,0:0:0:0:
147,77,83915,2,0,L|138:10,1,67.9999980926514,2|2,0:0|3:2,0:0:0:0:
240,128,84183,1,0,0:0:0:0:
240,128,84317,1,2,0:0:0:0:
352,282,84451,6,0,P|419:243|453:233,1,67.9999980926514,2|2,0:0|0:0,0:0:0:0:
496,162,84718,2,0,P|428:123|403:99,1,67.9999980926514,2|2,0:0|0:0,0:0:0:0:
321,98,84986,2,0,P|321:175|312:209,1,67.9999980926514,2|2,0:0|0:0,0:0:0:0:
272,334,85254,5,2,0:0:0:0:
200,377,85388,2,0,L|186:310,1,67.9999980926514,2|0,0:0|0:0,0:0:0:0:
161,296,85656,2,0,L|174:362,2,67.9999980926514,2|2|2,0:0|0:0|0:0,0:0:0:0:
85,226,86058,5,2,0:0:0:0:
129,150,86192,1,2,0:0:0:0:
81,82,86326,1,2,0:0:0:0:
98,56,86459,1,2,0:0:0:0:
91,37,86593,1,2,0:0:0:0:
97,29,86727,1,6,0:0:0:0:
