osu file format v14

[General]
AudioFilename: audio.mp3
AudioLeadIn: 0
PreviewTime: 216258
Countdown: 0
SampleSet: Soft
StackLeniency: 0.8
Mode: 0
LetterboxInBreaks: 0
WidescreenStoryboard: 1

[Editor]
DistanceSpacing: 0.9
BeatDivisor: 4
GridSize: 32
TimelineZoom: 1

[Metadata]
Title:Love is MY RAIL
TitleUnicode:Love is MY RAIL
Artist:Suzuki Konomi
ArtistUnicode:鈴木このみ
Creator:iljaaz
Version:Wish
Source:アンジュ・ヴィエルジュ
Tags:Kowari Konomin Ange Vierge Anime Japanese Opening Full Version lead【通常盤】 Album
BeatmapID:2250907
BeatmapSetID:1075757

[Difficulty]
HPDrainRate:6.2
CircleSize:4.2
OverallDifficulty:8.2
ApproachRate:9.2
SliderMultiplier:1.74
SliderTickRate:1

[Events]
//Background and Video events
0,0,"aquaiscute.jpg",0,0
//Break Periods
2,96550,100768
2,220031,225316
//Storyboard Layer 0 (Background)
//Storyboard Layer 1 (Fail)
//Storyboard Layer 2 (Pass)
//Storyboard Layer 3 (Foreground)
//Storyboard Layer 4 (Overlay)
//Storyboard Sound Samples

[TimingPoints]
-827,368.098159509202,4,2,4,44,1,0
645,-106.382978723404,4,2,4,44,0,0
1197,-135.135135135135,4,2,4,44,0,0
6534,-106.382978723404,4,2,4,64,0,0
9479,-135.135135135135,4,2,2,54,0,0
9663,-135.135135135135,4,2,4,54,0,0
20522,-106.382978723404,4,2,4,54,0,0
20890,-69.4444444444444,4,2,4,74,0,0
20936,-69.4444444444444,4,2,4,5,0,0
21258,-106.382978723404,4,2,4,64,0,0
33038,-135.135135135135,4,2,4,54,0,0
44817,-96.1538461538461,4,2,4,74,0,0
56412,-227.272727272727,4,2,4,74,0,0
57700,-106.382978723404,4,2,4,74,0,0
59357,-87.7192982456139,4,2,2,84,0,0
59541,-87.7192982456139,4,2,4,84,0,0
85123,-135.135135135135,4,2,4,44,0,0
86044,-135.135135135135,4,2,4,54,0,0
102056,-156.25,4,2,4,64,0,0
108130,-80.6451612903226,4,2,4,64,0,0
109602,-106.382978723404,4,2,4,64,0,0
119909,-119.047619047619,4,2,4,64,0,0
124694,-119.047619047619,4,2,4,54,0,0
130215,-87.7192982456139,4,2,4,54,0,0
132056,-87.7192982456139,4,2,4,74,0,0
143283,-227.272727272727,4,2,4,74,0,0
146228,-87.7192982456139,4,2,2,84,0,0
146412,-87.7192982456139,4,2,4,84,0,0
172915,-96.1538461538461,4,2,4,84,0,0
178804,-80.6451612903226,4,2,4,84,0,0
181013,-74.6268656716418,4,2,4,84,0,0
182301,-64.9350649350649,4,2,4,84,0,0
182853,-57.4712643678161,4,2,4,90,0,0
183406,-57.4712643678161,4,2,4,84,0,0
184694,-87.7192982456139,4,2,2,74,0,0
184878,-87.7192982456139,4,2,4,74,0,0
196473,-87.7192982456139,4,2,4,84,0,0
197025,-69.4444444444444,4,2,4,84,0,0
197946,-87.7192982456139,4,2,4,84,0,0
198498,-69.4444444444444,4,2,4,84,0,0
199418,-87.7192982456139,4,2,4,84,0,0
199970,-69.4444444444444,4,2,4,84,0,0
200890,-87.7192982456139,4,2,4,84,0,0
201442,-69.4444444444444,4,2,4,84,0,0
202363,-185.185185185185,4,2,4,84,0,0
202915,-69.4444444444444,4,2,4,84,0,0
203835,-57.4712643678161,4,2,4,84,0,0
204019,-57.4712643678161,4,2,4,5,0,0
204080,-57.4712643678161,4,2,4,84,0,0
204265,-57.4712643678161,4,2,4,5,0,0
204326,-57.4712643678161,4,2,4,84,0,0
204694,-74.6268656716418,4,2,4,84,0,0
205307,-60.9756097560976,4,2,4,84,0,0
206964,-60.9756097560976,4,2,4,90,0,0
208252,-156.25,4,2,4,90,0,0
208620,-156.25,4,2,4,44,0,0
225921,-156.25,4,2,4,54,0,0
228866,-96.1538461538461,4,2,4,64,0,0
236044,-156.25,4,2,4,64,0,0
237700,-87.719298245614,4,2,4,70,0,0
249479,-64.9350649350649,4,2,4,70,0,0
249755,-64.9350649350649,4,2,4,84,0,0
253896,-57.4712643678161,4,2,4,90,0,0
255369,-227.272727272727,4,2,2,74,0,0
255553,-227.272727272727,4,2,4,74,0,0
255737,-87.719298245614,4,2,4,74,0,0
263835,-135.135135135135,4,2,4,74,0,0
264048,368.098159509202,4,2,4,44,1,0
264048,-135.135135135135,4,2,4,44,0,0
264571,368.098159509202,4,2,4,44,1,0
264571,-135.135135135135,4,2,4,44,0,0
265675,368.098159509202,4,2,4,44,1,0
266411,-135.135135135135,4,2,4,44,0,0
271197,397.350993377483,4,2,4,44,1,0
271594,382.165605095541,4,2,4,44,1,0
271785,370.37037037037,4,2,4,44,1,0
271970,361.44578313253,4,2,4,44,1,0
272150,370.37037037037,4,2,4,44,1,0
272520,361.44578313253,4,2,4,44,1,0
272697,-135.135135135135,4,2,4,44,0,0
273077,387.096774193548,4,2,4,44,1,0
273077,-135.135135135135,4,2,4,44,0,0
273657,408.163265306122,4,2,4,44,1,0
273657,-135.135135135135,4,2,4,44,0,0
274233,422.535211267606,4,2,4,44,1,0
274655,-135.135135135135,4,2,4,44,0,0
275078,461.538461538462,4,2,4,44,1,0
275539,545.454545454546,4,2,4,44,1,0
275539,-135.135135135135,4,2,4,44,0,0
275811,666.666666666667,4,2,4,44,1,0
276144,631.578947368421,4,2,4,44,1,0
276459,517.241379310345,4,2,4,44,1,0
277840,410.958904109589,4,2,4,44,1,0
278055,571.428571428571,4,2,4,44,1,0
278631,666.666666666667,4,2,4,44,1,0
278959,731.70731707317,4,2,4,44,1,0
279324,833.333333333332,4,2,4,44,1,0
280410,461.538461538462,4,2,4,44,1,0
280515,545.454545454546,4,2,4,44,1,0
286105,-100,4,2,4,5,0,0

[Colours]
Combo1 : 255,255,91
Combo2 : 255,140,85
Combo3 : 197,138,255
Combo4 : 173,255,91

[HitObjects]
76,331,553,6,0,L|99:339,1,21.75,2|2,0:0|0:0,0:0:0:0:
97,339,645,6,0,B|112:301|112:301|90:248,1,81.7799987521363,4|2,3:2|0:0,0:0:0:0:
0,170,1013,1,2,0:0:0:0:
169,87,1197,2,0,P|112:126|44:109,1,128.760003143555,2|0,0:3|0:0,0:0:0:0:
54,108,1933,6,0,B|98:128|98:128|113:156|113:156|162:178,1,128.760003143555,2|2,3:2|0:0,0:0:0:0:
205,237,2485,1,2,0:0:0:0:
319,337,2669,2,0,L|310:270,1,64.3800015717774,2|0,0:0|0:0,0:0:0:0:
493,46,3221,5,2,0:0:0:0:
498,54,3313,1,2,0:0:0:0:
496,81,3405,1,2,0:0:0:0:
501,92,3497,1,2,0:0:0:0:
493,106,3590,5,6,3:2:0:0:
343,202,3774,2,0,P|365:160|446:162,1,128.760003143555,2|2,0:0|0:3,0:0:0:0:
306,40,4510,6,0,P|299:72|280:111,1,64.3800015717774,2|0,0:0|0:0,0:0:0:0:
376,273,4878,2,0,B|324:262|329:215|270:200,1,128.760003143555,2|0,3:2|0:0,0:0:0:0:
70,382,5614,2,0,B|122:371|117:324|176:309,1,128.760003143555,2|0,0:3|0:0,0:0:0:0:
273,382,6166,1,2,0:3:0:0:
169,215,6350,5,8,0:1:0:0:
172,227,6442,1,8,0:1:0:0:
180,219,6534,1,12,0:1:0:0:
29,280,6719,6,0,P|62:290|103:320,1,81.7799987521363,0|0,0:0|3:2,0:0:0:0:
0,214,7087,1,0,0:0:0:0:
141,81,7271,2,0,P|112:99|64:111,1,81.7799987521363,0|0,3:2|0:0,0:0:0:0:
172,227,7639,1,0,3:2:0:0:
81,270,7823,5,2,0:0:0:0:
202,140,8007,1,0,3:0:0:0:
259,320,8191,5,8,1:1:0:0:
92,190,8375,1,0,3:2:0:0:
0,300,8559,1,2,0:0:0:0:
229,155,8743,5,8,0:1:0:0:
229,155,8835,1,8,0:1:0:0:
229,155,8927,2,0,P|230:174|238:210,1,40.8899993760681,8|0,0:1|0:0,0:0:0:0:
13,108,9111,2,0,P|23:77|25:24,1,81.7799987521363,8|2,3:0|0:0,0:0:0:0:
25,28,9479,6,0,P|53:68|131:60,1,128.760003143555,4|0,0:1|3:2,0:0:0:0:
201,128,10031,1,2,0:0:0:0:
358,32,10215,2,0,P|348:99|346:174,1,128.760003143555,2|0,3:2|3:2,0:0:0:0:
254,53,10768,1,2,0:0:0:0:
388,226,10952,6,0,P|416:240|469:258,1,64.3800015717774,2|0,3:2|0:0,0:0:0:0:
325,167,11320,2,0,P|324:135|329:98,1,64.3800015717774,0|2,3:2|0:0,0:0:0:0:
246,272,11688,2,0,P|190:300|116:308,1,128.760003143555,2|0,3:2|3:2,0:0:0:0:
166,377,12240,1,2,0:0:0:0:
9,187,12424,6,0,B|-10:265|35:244|12:323,1,128.760003143555,2|0,3:2|3:2,0:0:0:0:
114,210,12976,1,2,0:0:0:0:
61,105,13160,2,0,P|29:97|-9:84,1,64.3800015717774,2|0,3:2|0:0,0:0:0:0:
78,231,13528,2,0,P|110:239|148:252,1,64.3800015717774,0|2,3:2|0:0,0:0:0:0:
259,31,13896,6,0,P|204:50|178:120,1,128.760003143555,2|0,3:2|3:2,0:0:0:0:
236,160,14449,1,2,0:0:0:0:
396,70,14633,2,0,P|365:56|329:28,1,64.3800015717774,2|0,3:2|0:0,0:0:0:0:
409,170,15001,1,0,3:2:0:0:
303,239,15185,1,2,0:0:0:0:
303,239,15277,1,2,0:0:0:0:
303,239,15369,6,0,B|369:218|338:189|412:169,1,128.760003143555,2|0,3:2|3:2,0:0:0:0:
491,233,15921,1,0,0:0:0:0:
411,350,16105,2,0,B|420:319|420:319|410:281,1,64.3800015717774,0|0,3:2|0:0,0:0:0:0:
501,374,16473,1,0,3:2:0:0:
303,239,16657,1,2,0:0:0:0:
303,239,16749,1,2,0:0:0:0:
303,239,16841,6,0,B|237:218|268:189|194:169,1,128.760003143555,2|2,3:2|3:2,0:0:0:0:
152,106,17393,1,0,0:0:0:0:
214,19,17577,2,0,P|227:50|254:90,1,64.3800015717774,2|0,3:2|0:0,0:0:0:0:
72,50,17946,2,0,P|94:25|120:-11,1,64.3800015717774,2|2,3:2|0:0,0:0:0:0:
197,169,18314,6,0,P|145:131|71:140,1,128.760003143555,0|0,3:2|3:2,0:0:0:0:
177,349,18866,2,0,P|206:337|243:330,1,64.3800015717774,0|0,0:0|3:2,0:0:0:0:
139,223,19234,1,0,0:0:0:0:
108,296,19418,1,0,3:2:0:0:
335,372,19602,6,0,P|326:322|321:236,1,128.760003143555,2|0,1:2|0:0,0:0:0:0:
471,139,20154,1,0,3:2:0:0:
445,207,20338,1,2,0:0:0:0:
268,104,20522,6,0,P|311:60|377:70,1,122.669998128204,2|0,3:2|0:0,0:0:0:0:
339,154,20890,6,0,B|283:172|253:116|267:117|232:69|174:88,1,187.920004587891,10|0,1:2|0:0,0:0:0:0:
75,174,21258,6,0,B|69:158|54:143|54:143|125:118|167:182,1,163.559997504273,4|8,3:1|1:0,0:0:0:0:
92,269,21811,1,2,0:0:0:0:
184,365,21995,2,0,P|175:326|170:274,1,81.7799987521363,2|0,3:2|0:0,0:0:0:0:
1,382,22363,2,0,P|9:343|17:290,1,81.7799987521363,8|2,1:0|0:0,0:0:0:0:
177,86,22731,6,0,P|103:118|17:141,1,163.559997504273,2|8,3:2|1:0,0:0:0:0:
221,222,23283,1,2,0:0:0:0:
170,284,23467,2,0,P|248:307|332:355,1,163.559997504273,2|8,3:2|1:0,0:0:0:0:
454,229,24019,2,0,P|474:223|496:210,1,40.8899993760681,2|2,0:0|0:0,0:0:0:0:
491,213,24203,6,0,P|413:212|376:283,1,163.559997504273,6|8,3:2|1:0,0:0:0:0:
421,339,24755,1,2,0:0:0:0:
512,372,24939,2,0,P|502:330|496:279,1,81.7799987521363,2|0,3:2|0:0,0:0:0:0:
378,185,25307,1,8,1:0:0:0:
512,91,25492,1,2,0:0:0:0:
378,185,25676,6,0,B|318:166|318:166|298:131|298:131|222:105,1,163.559997504273,2|8,3:2|1:0,0:0:0:0:
304,240,26228,1,2,0:0:0:0:
162,290,26412,2,0,B|181:256|197:205,1,81.7799987521363,2|0,3:2|0:0,0:0:0:0:
317,349,26780,1,8,1:0:0:0:
247,381,26964,1,2,0:0:0:0:
325,190,27148,6,0,P|339:231|361:279,1,81.7799987521363,6|2,3:2|0:0,0:0:0:0:
109,366,27516,2,0,P|64:326|92:223,1,163.559997504273,10|0,1:2|3:2,0:0:0:0:
56,96,28068,2,0,P|91:119|146:139,1,81.7799987521363,2|8,0:0|1:0,0:0:0:0:
193,214,28436,1,2,0:0:0:0:
337,86,28620,5,2,3:2:0:0:
283,27,28804,2,0,P|216:50|233:151,1,163.559997504273,2|2,0:0|0:0,0:0:0:0:
213,132,29357,1,0,3:2:0:0:
405,32,29541,1,10,1:2:0:0:
489,208,29725,1,10,0:2:0:0:
349,161,29909,5,2,0:0:0:0:
352,168,30001,1,2,0:0:0:0:
355,177,30093,2,0,B|446:160|392:103|498:81,1,163.559997504273,6|10,3:2|1:2,0:0:0:0:
485,91,30645,2,0,P|440:92|402:59,1,81.7799987521363,2|0,0:0|3:2,0:0:0:0:
275,142,31013,1,2,0:0:0:0:
146,38,31197,2,0,P|179:14|238:16,1,81.7799987521363,8|0,1:0|0:0,0:0:0:0:
158,287,31565,6,0,P|79:291|36:226,1,163.559997504273,0|8,3:2|1:0,0:0:0:0:
226,337,32117,1,2,0:0:0:0:
158,190,32301,1,8,0:3:0:0:
150,185,32393,1,8,0:3:0:0:
142,184,32485,1,8,0:3:0:0:
132,187,32577,1,8,0:3:0:0:
127,194,32669,5,4,0:3:0:0:
166,215,32761,1,4,0:3:0:0:
211,210,32853,1,4,0:3:0:0:
242,172,32946,1,4,0:3:0:0:
242,172,33038,6,0,P|230:104|236:32,1,128.760003143555,4|0,3:1|3:2,0:0:0:0:
127,194,33774,1,0,3:2:0:0:
159,128,33958,1,2,0:0:0:0:
291,322,34142,2,0,P|254:294|198:295,1,96.5700023576661,2|0,3:2|0:0,0:0:0:0:
158,342,34510,1,2,3:2:0:0:
148,350,34602,1,2,0:0:0:0:
134,355,34694,1,2,0:0:0:0:
381,277,34878,5,2,3:2:0:0:
313,230,35001,1,2,0:0:0:0:
310,305,35123,1,2,0:0:0:0:
381,277,35246,6,0,P|389:211|401:138,1,128.760003143555,2|2,3:2|3:2,0:0:0:0:
302,47,35798,1,2,0:0:0:0:
405,0,35982,6,0,P|366:47|290:40,1,128.760003143555,6|0,3:2|3:2,0:0:0:0:
136,208,36719,1,0,3:2:0:0:
59,125,36903,1,2,0:0:0:0:
62,113,36995,1,2,0:0:0:0:
71,102,37087,2,0,B|81:133|81:133|65:178,1,64.3800015717774,2|0,3:2|0:0,0:0:0:0:
7,292,37455,6,0,L|58:278,1,32.1900007858887,8|0,3:0|0:0,0:0:0:0:
153,223,37639,2,0,L|183:232,1,32.1900007858887,8|0,3:0|0:0,0:0:0:0:
131,359,37823,6,0,L|125:321,1,32.1900007858887,8|0,3:0|0:0,0:0:0:0:
48,214,38007,2,0,L|55:178,1,32.1900007858887,8|0,3:0|0:0,0:0:0:0:
239,61,38191,5,10,1:2:0:0:
173,24,38375,1,8,3:0:0:0:
324,195,38559,5,8,3:0:0:0:
366,179,38651,1,8,3:0:0:0:
381,141,38743,1,8,3:0:0:0:
365,101,38835,1,8,3:0:0:0:
365,101,38927,6,0,P|328:145|359:214,1,128.760003143555,4|0,3:2|3:2,0:0:0:0:
269,360,39663,1,0,3:2:0:0:
336,324,39847,1,2,0:0:0:0:
234,209,40031,2,0,P|217:241|215:289,1,64.3800015717774,2|0,3:2|0:0,0:0:0:0:
363,215,40399,5,2,3:2:0:0:
348,207,40492,1,2,0:0:0:0:
195,341,40676,5,2,0:0:0:0:
180,347,40768,1,2,3:2:0:0:
87,251,40952,5,2,0:0:0:0:
73,245,41044,1,2,0:0:0:0:
58,239,41136,6,0,P|65:313|56:360,1,96.5700023576661,2|0,3:2|0:0,0:0:0:0:
52,349,41504,1,10,1:2:0:0:
183,250,41688,1,2,0:0:0:0:
183,250,41872,6,0,P|178:181|201:110,1,128.760003143555,6|0,3:2|3:2,0:0:0:0:
92,3,42608,1,0,3:2:0:0:
161,45,42792,1,2,0:0:0:0:
54,148,42976,1,2,3:2:0:0:
183,250,43160,1,2,0:0:0:0:
63,376,43344,6,0,P|79:318|89:238,1,128.760003143555,2|2,3:2|3:2,0:0:0:0:
267,104,43896,1,2,0:0:0:0:
161,45,44080,1,2,3:2:0:0:
298,219,44265,5,8,0:0:0:0:
298,219,44357,1,8,0:0:0:0:
298,219,44449,5,8,0:0:0:0:
332,167,44541,1,8,3:0:0:0:
394,152,44633,1,8,3:0:0:0:
453,182,44725,1,8,3:0:0:0:
457,199,44817,2,0,L|444:248,1,45.239999723877,4|0,1:0|0:0,0:0:0:0:
269,367,45001,5,8,0:0:0:0:
259,340,45093,1,8,0:0:0:0:
224,318,45185,1,8,0:0:0:0:
176,323,45277,1,8,0:0:0:0:
163,337,45369,2,0,L|148:274,1,45.239999723877,4|0,3:2|0:0,0:0:0:0:
40,183,45553,5,8,0:1:0:0:
10,128,45645,1,8,0:1:0:0:
41,72,45737,1,10,0:2:0:0:
102,58,45829,1,8,0:1:0:0:
127,76,45921,6,0,L|186:98,1,45.239999723877,6|0,3:2|0:0,0:0:0:0:
250,165,46105,2,0,L|199:182,1,45.239999723877,10|8,0:2|0:0,0:0:0:0:
302,3,46289,6,0,P|329:43|314:104,1,90.4799994477539,4|8,3:2|0:0,0:0:0:0:
377,175,46565,1,8,0:0:0:0:
377,175,46657,2,0,P|356:164|330:156,1,45.239999723877,10|8,0:2|0:0,0:0:0:0:
481,56,46841,5,6,3:2:0:0:
486,67,46933,1,0,3:2:0:0:
490,77,47025,1,8,0:0:0:0:
494,86,47117,1,8,0:0:0:0:
498,96,47209,6,0,L|443:117,1,45.239999723877,10|8,0:2|0:0,0:0:0:0:
502,247,47393,2,0,P|505:225|514:196,1,45.239999723877,6|0,3:2|0:0,0:0:0:0:
333,320,47577,2,0,P|329:296|321:266,1,45.239999723877,10|8,0:2|0:0,0:0:0:0:
377,175,47761,6,0,P|406:215|381:280,1,90.4799994477539,4|8,1:0|0:0,0:0:0:0:
277,189,48038,1,8,0:0:0:0:
277,189,48130,2,0,L|289:138,1,45.239999723877,8|8,0:0|0:0,0:0:0:0:
179,259,48314,2,0,P|133:267|76:288,1,90.4799994477539,4|8,3:2|0:0,0:0:0:0:
188,362,48590,5,8,0:0:0:0:
226,345,48682,1,8,0:0:0:0:
244,303,48774,1,8,0:0:0:0:
220,253,48866,2,0,P|196:244|174:220,1,45.239999723877,4|0,3:2|0:0,0:0:0:0:
44,148,49050,2,0,P|67:140|98:121,1,45.239999723877,8|8,0:0|0:0,0:0:0:0:
237,21,49234,6,0,P|219:61|200:118,1,90.4799994477539,4|8,3:2|0:0,0:0:0:0:
388,243,49510,1,8,0:0:0:0:
419,216,49602,1,10,0:2:0:0:
426,164,49694,1,8,0:0:0:0:
386,128,49786,2,0,L|334:152,1,45.239999723877,4|0,3:2|0:0,0:0:0:0:
155,292,49970,5,10,0:2:0:0:
173,297,50062,1,8,0:0:0:0:
190,303,50154,1,8,0:0:0:0:
206,308,50246,1,10,0:2:0:0:
234,271,50338,6,0,B|182:286|182:286|160:316|160:316|97:332,1,135.719999171631,4|0,3:2|0:0,0:0:0:0:
53,366,50706,6,0,B|14:378|14:378|-14:301|67:248,1,180.959998895508,4|0,1:0|3:2,0:0:0:0:
96,195,51258,1,0,0:0:0:0:
199,82,51442,5,10,3:2:0:0:
299,124,51626,1,8,0:0:0:0:
408,217,51811,5,8,3:2:0:0:
284,274,51995,1,10,0:2:0:0:
430,309,52179,5,8,3:2:0:0:
252,191,52363,1,8,0:2:0:0:
398,117,52547,5,8,3:2:0:0:
269,294,52731,1,8,0:0:0:0:
97,160,52915,5,10,3:2:0:0:
183,329,53099,1,8,0:0:0:0:
35,268,53283,5,8,3:2:0:0:
214,187,53467,1,10,0:2:0:0:
39,32,53651,5,12,3:2:0:0:
167,128,53835,1,8,0:0:0:0:
174,124,53927,1,8,0:0:0:0:
179,118,54019,2,0,L|170:64,1,45.239999723877,0|8,3:2|0:0,0:0:0:0:
14,149,54203,2,0,L|-3:201,1,45.239999723877,8|8,0:0|0:0,0:0:0:0:
97,340,54387,5,2,3:2:0:0:
137,355,54479,1,8,0:0:0:0:
177,334,54571,1,8,0:0:0:0:
176,293,54663,1,10,0:2:0:0:
160,275,54755,5,0,3:2:0:0:
170,227,54847,1,8,0:0:0:0:
215,200,54939,1,10,0:2:0:0:
268,207,55031,1,8,0:0:0:0:
277,232,55123,6,0,L|327:251,1,45.239999723877,4|8,3:2|0:0,0:0:0:0:
453,333,55307,2,0,L|396:349,1,45.239999723877,8|8,0:0|0:0,0:0:0:0:
457,143,55492,6,0,L|475:199,1,45.239999723877,8|8,3:1|0:0,0:0:0:0:
313,384,55676,2,0,L|292:327,1,45.239999723877,8|8,1:0|0:0,0:0:0:0:
325,116,55860,5,12,1:2:0:0:
512,384,56044,1,8,1:0:0:0:
224,300,56228,5,8,1:0:0:0:
497,114,56412,2,0,B|429:131|391:69|405:79|359:13|287:45,1,229.680007009278,12|8,1:0|3:0,0:0:0:0:
259,114,57608,5,8,3:0:0:0:
311,171,57700,6,0,P|350:131|312:63,1,122.669998128204,4|0,1:0|0:0,0:0:0:0:
199,5,58068,5,0,3:2:0:0:
136,28,58160,1,8,0:0:0:0:
112,88,58252,1,8,0:0:0:0:
144,144,58344,1,8,0:0:0:0:
160,148,58436,5,8,3:0:0:0:
218,248,58620,5,8,3:0:0:0:
134,317,58804,5,10,3:0:0:0:
229,87,58988,1,10,3:0:0:0:
229,87,59357,6,0,B|297:120|297:120|320:168|320:168|387:197,1,198.359997578613,4|2,1:1|0:0,0:0:0:0:
471,32,59909,1,10,1:2:0:0:
401,65,60093,1,2,0:0:0:0:
499,186,60277,2,0,P|510:234|518:294,1,99.1799987893067,2|0,3:2|0:0,0:0:0:0:
336,384,60645,2,0,P|279:327|325:259,1,148.76999818396,10|0,1:2|0:0,0:0:0:0:
301,272,61013,6,0,P|347:283|411:310,1,99.1799987893067,0|0,3:2|0:0,0:0:0:0:
244,135,61381,1,8,1:0:0:0:
400,64,61565,2,0,P|338:139|224:121,1,198.359997578613,2|0,0:2|0:0,0:0:0:0:
145,271,62117,1,8,1:0:0:0:
44,188,62301,1,2,0:0:0:0:
44,188,62393,1,2,0:0:0:0:
44,188,62485,6,0,P|34:236|14:303,1,99.1799987893067,6|2,3:2|0:0,0:0:0:0:
216,201,62853,1,10,1:2:0:0:
127,151,63038,1,2,0:0:0:0:
122,348,63222,2,0,P|164:324|226:307,1,99.1799987893067,2|0,3:2|0:0,0:0:0:0:
44,188,63590,5,10,1:2:0:0:
121,248,63774,2,0,B|188:217|207:131|145:81|145:81,1,198.359997578613,2|2,0:2|0:0,0:0:0:0:
32,7,64326,2,0,P|23:59|5:111,1,99.1799987893067,8|0,1:0|0:0,0:0:0:0:
147,0,64694,1,0,3:0:0:0:
147,0,64786,1,0,3:0:0:0:
147,0,64878,1,2,3:2:0:0:
285,138,65062,1,10,1:2:0:0:
347,92,65246,1,2,0:0:0:0:
350,81,65338,1,2,0:0:0:0:
353,69,65430,6,0,P|293:48|218:165,1,198.359997578613,6|10,3:2|1:2,0:0:0:0:
366,281,65982,1,2,0:0:0:0:
258,354,66166,1,2,3:2:0:0:
258,354,66534,6,0,L|282:245,1,99.1799987893067,10|0,1:2|0:0,0:0:0:0:
444,146,66903,5,2,3:2:0:0:
337,205,67087,1,2,0:0:0:0:
366,281,67271,5,10,1:2:0:0:
493,340,67455,1,2,0:0:0:0:
395,384,67639,6,0,B|377:338|377:338|395:279,1,99.1799987893067,2|0,3:2|0:0,0:0:0:0:
512,227,68007,1,10,1:2:0:0:
362,114,68191,1,2,0:0:0:0:
366,126,68283,1,2,0:0:0:0:
370,138,68375,6,0,B|405:127|405:127|418:114|418:114|482:94,1,99.1799987893067,4|0,3:2|0:0,0:0:0:0:
337,205,68743,1,8,1:0:0:0:
240,86,68927,2,0,B|126:119|126:119|98:161|143:192,1,198.359997578613,2|0,0:2|0:0,0:0:0:0:
309,43,69479,1,10,1:2:0:0:
238,7,69663,1,2,0:0:0:0:
366,178,69847,5,0,3:2:0:0:
229,268,70031,1,2,0:0:0:0:
397,362,70215,1,8,1:0:0:0:
335,270,70399,1,2,0:0:0:0:
201,378,70584,5,8,1:2:0:0:
285,201,70768,1,8,1:2:0:0:
99,76,70952,1,0,3:2:0:0:
104,90,71044,1,8,0:1:0:0:
109,105,71136,1,8,0:1:0:0:
114,118,71228,1,8,0:1:0:0:
120,132,71320,6,0,B|155:147|155:147|165:166|165:166|215:189,1,99.1799987893067,2|0,3:2|0:0,0:0:0:0:
398,38,71688,2,0,P|322:28|242:117,1,198.359997578613,4|2,1:0|3:2,0:0:0:0:
405,211,72240,1,0,0:0:0:0:
473,169,72424,2,0,P|478:122|493:64,1,99.1799987893067,8|0,1:0|0:0,0:0:0:0:
336,258,72792,6,0,B|235:237|264:342|138:307,1,198.359997578613,0|8,3:2|1:0,0:0:0:0:
331,371,73344,1,2,0:0:0:0:
326,357,73436,1,2,0:0:0:0:
321,340,73528,1,2,3:1:0:0:
179,217,73804,5,2,0:1:0:0:
184,201,73896,1,8,1:0:0:0:
294,109,74080,5,2,0:0:0:0:
232,58,74265,6,0,P|182:61|137:110,1,99.1799987893067,4|0,3:2|0:0,0:0:0:0:
354,231,74633,1,10,1:2:0:0:
242,275,74817,1,2,0:0:0:0:
361,43,75001,6,0,P|371:87|394:152,1,99.1799987893067,2|0,3:2|0:0,0:0:0:0:
153,381,75369,2,0,P|139:322|108:234,1,148.76999818396,10|0,1:2|0:0,0:0:0:0:
110,238,75737,6,0,P|161:227|215:196,1,99.1799987893067,0|0,3:2|0:0,0:0:0:0:
334,336,76105,1,8,1:0:0:0:
236,368,76289,2,0,P|244:344|253:311,1,49.5899993946533,2|2,0:0|0:0,0:0:0:0:
397,210,76473,1,0,3:2:0:0:
418,235,76565,1,8,0:2:0:0:
421,267,76657,1,10,0:2:0:0:
283,178,76841,1,8,3:2:0:0:
348,133,77025,1,2,0:0:0:0:
205,12,77209,6,0,B|186:58|186:58|209:114,1,99.1799987893067,4|2,3:2|0:0,0:0:0:0:
110,238,77577,1,10,1:2:0:0:
17,100,77761,2,0,P|58:126|117:137,1,99.1799987893067,2|0,0:2|3:2,0:0:0:0:
240,353,78130,2,0,P|220:306|209:246,1,99.1799987893067,2|8,0:2|1:0,0:0:0:0:
0,384,78498,1,2,0:0:0:0:
0,384,78590,1,2,0:0:0:0:
0,384,78682,6,0,P|22:295|32:179,1,198.359997578613,2|8,3:2|1:0,0:0:0:0:
144,317,79234,1,2,0:0:0:0:
277,158,79418,1,2,3:2:0:0:
175,192,79602,1,0,0:0:0:0:
339,328,79786,1,10,1:2:0:0:
389,266,79970,1,2,0:0:0:0:
385,251,80062,1,2,0:0:0:0:
381,237,80154,6,0,P|328:239|287:282,1,99.1799987893067,6|0,3:2|0:0,0:0:0:0:
61,61,80522,2,0,P|133:39|208:137,1,198.359997578613,10|0,1:2|3:2,0:0:0:0:
61,61,81074,1,0,0:0:0:0:
175,192,81258,1,10,1:2:0:0:
32,255,81442,1,2,0:0:0:0:
32,255,81534,1,2,0:0:0:0:
32,255,81626,6,0,P|56:214|76:157,1,99.1799987893067,2|0,3:2|0:0,0:0:0:0:
272,324,81995,2,0,P|194:323|88:390,1,198.359997578613,10|0,1:2|3:2,0:0:0:0:
212,211,82547,1,0,0:0:0:0:
140,259,82731,5,10,1:2:0:0:
365,368,82915,2,0,B|326:385|326:385|276:303|350:244,1,198.359997578613,6|8,1:2|3:0,0:0:0:0:
482,94,83467,5,8,3:0:0:0:
509,164,83651,2,0,P|449:179|370:68,1,198.359997578613,4|8,1:2|3:0,0:0:0:0:
213,19,84203,5,8,3:0:0:0:
52,156,84387,2,0,P|136:178|201:2,1,297.53999636792,4|2,1:0|0:0,0:0:0:0:
217,169,85123,6,0,P|248:181|285:202,1,64.3800015717774,2|0,0:0|0:0,0:0:0:0:
148,81,85492,1,2,0:0:0:0:
16,181,85676,2,0,P|27:151|34:120,1,64.3800015717774,2|0,0:0|0:0,0:0:0:0:
181,254,86044,6,0,P|187:316|200:384,1,128.760003143555,6|0,3:2|0:0,0:0:0:0:
332,273,86596,1,0,3:2:0:0:
396,227,86780,2,0,P|405:196|411:152,2,64.3800015717774,10|2|2,1:2|0:0|0:0,0:0:0:0:
202,133,87332,6,0,P|247:91|332:104,1,128.760003143555,6|2,3:2|3:2,0:0:0:0:
396,227,87884,1,2,0:0:0:0:
328,200,88068,1,2,3:2:0:0:
434,31,88252,5,10,1:2:0:0:
459,103,88436,1,2,0:0:0:0:
460,30,88620,1,2,0:0:0:0:
323,109,88804,6,0,B|279:96|279:96|255:66|255:66|193:51,1,128.760003143555,6|2,3:2|3:2,0:0:0:0:
106,143,89357,1,0,0:0:0:0:
247,239,89541,1,2,3:2:0:0:
243,159,89725,2,0,L|160:184,1,64.3800015717774,10|2,1:2|3:2,0:0:0:0:
89,284,90093,1,2,0:0:0:0:
236,380,90277,6,0,P|273:333|249:250,1,128.760003143555,6|0,3:2|3:2,0:0:0:0:
403,189,91013,5,0,3:2:0:0:
511,341,91197,5,10,1:2:0:0:
433,327,91381,1,2,0:0:0:0:
493,366,91565,1,2,0:0:0:0:
456,139,91749,6,0,P|392:151|310:178,1,128.760003143555,6|0,3:2|3:2,0:0:0:0:
221,91,92301,1,2,0:0:0:0:
224,79,92393,1,2,0:0:0:0:
227,67,92485,1,2,3:2:0:0:
90,198,92669,2,0,P|149:215|219:248,1,128.760003143555,10|0,1:2|0:0,0:0:0:0:
333,384,93222,6,0,B|319:339|319:339|327:307|327:307|307:248,1,128.760003143555,6|0,3:2|3:2,0:0:0:0:
239,325,93774,1,0,0:0:0:0:
372,200,93958,1,2,3:2:0:0:
372,200,94050,1,2,3:2:0:0:
372,200,94142,5,10,1:2:0:0:
415,138,94326,1,2,0:0:0:0:
405,216,94510,1,2,0:0:0:0:
228,131,94694,6,0,P|245:69|255:-10,1,128.760003143555,6|0,3:2|3:2,0:0:0:0:
114,178,95246,1,10,1:2:0:0:
50,62,95430,5,8,0:1:0:0:
65,72,95522,1,8,0:1:0:0:
234,241,95798,6,0,P|144:259|77:330,1,193.140004715332,2|2,1:0|0:3,0:0:0:0:
451,49,102056,5,2,0:0:0:0:
445,55,102148,1,2,0:0:0:0:
438,60,102240,6,0,L|497:78,1,55.68,2|0,0:3|0:0,0:0:0:0:
386,225,102608,2,0,L|454:204,1,55.68,2|0,0:3|0:0,0:0:0:0:
249,33,102976,2,0,L|318:56,1,55.68,2|0,0:3|0:0,0:0:0:0:
180,314,103344,2,0,L|244:292,1,55.68,2|0,0:3|0:0,0:0:0:0:
16,78,103712,6,0,B|58:94|58:94|75:119|75:119|119:136,1,111.36,2|2,3:0|0:0,0:0:0:0:
155,188,104265,1,0,0:0:0:0:
323,341,104449,2,0,P|312:286|308:223,1,111.36,2|2,0:3|0:0,0:0:0:0:
360,181,105001,1,2,0:0:0:0:
200,294,105185,6,0,P|145:306|96:340,1,111.36,2|0,0:3|0:0,0:0:0:0:
255,212,105737,2,0,L|321:235,1,55.68,2|0,0:3|0:0,0:0:0:0:
207,144,106105,1,2,0:3:0:0:
396,300,106289,5,8,0:1:0:0:
246,365,106473,1,8,0:1:0:0:
401,177,106657,5,8,0:1:0:0:
407,192,106749,1,8,0:1:0:0:
166,73,106933,6,0,L|183:-4,1,55.68,8|0,0:1|0:0,0:0:0:0:
246,0,107209,1,8,0:1:0:0:
401,177,107393,5,8,0:1:0:0:
407,192,107485,1,8,0:1:0:0:
150,283,107669,5,8,0:1:0:0:
150,283,107761,5,8,0:1:0:0:
204,319,107853,1,8,0:1:0:0:
267,307,107946,1,8,0:1:0:0:
289,250,108038,1,8,0:1:0:0:
275,230,108130,6,0,B|240:207|240:207|174:288|253:373,1,215.759991440186,4|0,3:1|0:0,0:0:0:0:
511,0,109418,5,2,0:0:0:0:
409,128,109602,2,0,B|357:110|366:66|299:50,1,122.669998128204,6|8,3:2|1:2,0:0:0:0:
264,0,109970,1,0,3:2:0:0:
8,107,110154,5,10,1:2:0:0:
110,235,110338,2,0,B|162:217|153:173|220:157,1,122.669998128204,6|8,3:2|1:2,0:0:0:0:
255,107,110706,1,0,3:2:0:0:
417,384,110890,5,10,1:2:0:0:
314,311,111074,2,0,P|321:249|335:182,1,122.669998128204,6|8,3:2|1:2,0:0:0:0:
401,153,111442,1,0,3:2:0:0:
81,304,111626,5,10,1:2:0:0:
184,231,111811,2,0,P|176:172|163:102,1,122.669998128204,6|8,3:2|1:2,0:0:0:0:
97,73,112178,1,0,3:2:0:0:
293,2,112363,5,10,1:2:0:0:
434,84,112547,2,0,P|391:123|313:108,1,122.669998128204,6|8,3:2|1:2,0:0:0:0:
270,165,112915,1,0,3:2:0:0:
466,329,113099,5,10,1:2:0:0:
342,379,113283,5,8,3:2:0:0:
316,338,113375,1,8,3:2:0:0:
319,289,113467,1,8,3:0:0:0:
359,254,113559,1,8,3:0:0:0:
377,256,113651,5,4,3:0:0:0:
149,167,113835,5,8,3:0:0:0:
142,183,113927,1,8,3:0:0:0:
137,200,114019,6,0,P|181:227|228:218,1,81.7799987521363,4|2,1:0|0:0,0:0:0:0:
8,370,114387,1,10,1:2:0:0:
57,306,114571,2,0,P|44:226|23:131,1,163.559997504273,2|2,0:2|0:0,0:0:0:0:
211,50,115123,1,8,1:2:0:0:
179,115,115307,1,0,0:0:0:0:
18,29,115492,6,0,L|104:-4,1,81.7799987521363,0|0,3:2|0:0,0:0:0:0:
243,167,115860,1,8,1:2:0:0:
420,81,116044,2,0,B|361:61|361:61|338:30|338:30|264:7,1,163.559997504273,2|2,0:2|0:0,0:0:0:0:
378,163,116596,1,10,1:2:0:0:
208,257,116780,1,2,0:0:0:0:
216,251,116872,1,2,0:0:0:0:
223,246,116964,6,0,P|233:211|243:159,1,81.7799987521363,6|2,3:2|0:0,0:0:0:0:
403,350,117332,1,10,1:2:0:0:
423,278,117516,2,0,P|345:292|273:352,1,163.559997504273,2|2,0:2|0:0,0:0:0:0:
441,114,118068,2,0,P|447:156|464:210,1,81.7799987521363,8|0,1:2|0:0,0:0:0:0:
292,50,118436,5,0,3:2:0:0:
143,191,118620,1,8,1:2:0:0:
338,295,118804,1,8,1:2:0:0:
262,153,118988,1,2,0:0:0:0:
86,308,119172,5,2,3:2:0:0:
111,344,119265,1,8,0:1:0:0:
150,358,119357,1,8,0:1:0:0:
189,345,119449,1,8,0:1:0:0:
199,334,119541,6,0,L|210:287,1,40.8899993760681,8|8,3:0|3:0,0:0:0:0:
252,176,119725,2,0,L|240:123,1,40.8899993760681,8|8,3:0|3:0,0:0:0:0:
199,74,119909,5,4,1:0:0:0:
199,74,120277,5,0,3:2:0:0:
114,36,120461,1,2,0:2:0:0:
53,150,120645,1,0,3:2:0:0:
175,204,120829,5,2,0:0:0:0:
167,185,120921,1,2,0:0:0:0:
159,166,121013,1,2,3:2:0:0:
31,61,121197,1,2,0:0:0:0:
3,290,121381,5,2,3:2:0:0:
22,282,121473,1,2,0:0:0:0:
43,256,121565,5,8,3:0:0:0:
69,266,121657,1,2,0:0:0:0:
91,300,121749,5,2,3:2:0:0:
114,293,121841,1,2,0:0:0:0:
145,274,121933,5,8,3:0:0:0:
175,287,122025,1,2,0:0:0:0:
185,300,122117,5,2,3:2:0:0:
87,380,122301,1,8,3:0:0:0:
197,210,122485,1,8,3:0:0:0:
338,341,122669,1,8,3:0:0:0:
185,300,122853,6,0,B|265:309|231:361|322:350,1,146.159995539551,4|0,1:0|3:2,0:0:0:0:
459,214,123406,1,2,0:2:0:0:
464,313,123590,5,0,3:2:0:0:
310,163,123774,1,2,3:2:0:0:
305,181,123866,1,2,3:2:0:0:
301,200,123958,2,0,P|329:225|383:221,1,73.0799977697755,2|0,3:2|3:2,0:0:0:0:
507,64,124326,6,0,L|462:49,1,36.5399988848877,2|2,3:2|0:0,0:0:0:0:
390,126,124510,2,0,L|432:112,1,36.5399988848877,8|2,3:0|0:0,0:0:0:0:
300,0,124694,2,0,L|289:45,1,36.5399988848877,2|2,3:2|0:0,0:0:0:0:
230,82,124878,2,0,L|241:137,1,36.5399988848877,8|2,3:0|0:0,0:0:0:0:
305,181,125062,5,2,3:2:0:0:
155,52,125246,1,8,3:0:0:0:
79,155,125430,1,8,3:0:0:0:
291,35,125614,1,8,3:0:0:0:
169,272,125798,6,0,B|159:225|159:225|174:191|174:191|157:132,1,146.159995539551,4|0,1:0|3:2,0:0:0:0:
61,66,126350,1,8,0:0:0:0:
210,201,126534,5,0,3:2:0:0:
27,333,126719,1,8,0:0:0:0:
33,317,126811,1,8,0:0:0:0:
39,303,126903,1,2,3:2:0:0:
209,384,127087,1,8,0:0:0:0:
76,226,127271,5,2,3:2:0:0:
103,262,127363,1,2,0:0:0:0:
143,281,127455,1,10,0:0:0:0:
189,271,127547,1,2,0:0:0:0:
214,280,127639,6,0,P|246:263|294:258,1,73.0799977697755,2|10,3:2|0:0,0:0:0:0:
442,364,128007,5,10,3:2:0:0:
320,178,128191,1,8,0:0:0:0:
454,131,128375,1,8,3:2:0:0:
351,321,128559,1,10,0:0:0:0:
501,217,128743,5,4,1:0:0:0:
367,102,128927,1,8,0:0:0:0:
217,163,129111,1,8,3:2:0:0:
44,329,129295,5,8,0:0:0:0:
132,169,129479,1,8,3:2:0:0:
8,51,129663,1,10,0:0:0:0:
22,211,129847,5,10,3:2:0:0:
162,78,130031,1,10,0:0:0:0:
329,324,130215,6,0,P|262:310|222:243,1,148.76999818396,8|0,1:0|0:0,0:0:0:0:
296,130,130584,6,0,B|323:115|323:115|387:157|349:224,1,148.76999818396,8|0,1:0|0:0,0:0:0:0:
194,147,130952,6,0,B|208:97|208:97|197:60|197:60|214:-1,1,148.76999818396,8|0,1:0|0:0,0:0:0:0:
296,16,131320,5,8,0:1:0:0:
252,67,131412,1,8,0:1:0:0:
188,78,131504,1,8,0:1:0:0:
136,36,131596,1,8,0:1:0:0:
114,16,131688,6,0,P|103:66|87:113,1,99.1799987893067,4|8,1:0|0:1,0:0:0:0:
112,202,131964,1,8,0:1:0:0:
95,213,132056,2,0,P|72:199|42:190,1,49.5899993946533,8|8,0:1|0:1,0:0:0:0:
176,365,132240,6,0,P|198:321|185:262,1,99.1799987893067,4|8,3:2|0:1,0:0:0:0:
260,211,132516,1,8,0:1:0:0:
249,200,132608,2,0,P|225:193|200:180,1,49.5899993946533,10|8,0:2|0:1,0:0:0:0:
404,292,132792,5,2,3:2:0:0:
426,303,132884,1,0,3:2:0:0:
446,312,132976,1,8,3:0:0:0:
468,322,133068,1,8,3:0:0:0:
482,327,133160,6,0,P|510:272|483:222,1,99.1799987893067,4|8,1:0|0:1,0:0:0:0:
512,158,133436,1,8,0:1:0:0:
464,131,133528,1,10,0:2:0:0:
405,146,133620,1,8,0:1:0:0:
386,168,133712,2,0,P|390:194|400:223,1,49.5899993946533,6|0,3:2|0:0,0:0:0:0:
232,53,133896,5,8,0:1:0:0:
277,12,133988,1,8,0:1:0:0:
339,25,134080,1,10,0:2:0:0:
357,87,134172,1,8,0:1:0:0:
342,107,134265,2,0,L|294:126,1,49.5899993946533,4|0,3:2|0:0,0:0:0:0:
160,249,134449,1,10,0:2:0:0:
202,297,134541,1,8,0:1:0:0:
264,280,134633,6,0,P|253:230|245:168,1,99.1799987893067,4|8,0:1|0:1,0:0:0:0:
188,133,134909,1,8,0:1:0:0:
169,103,135001,2,0,P|160:127|154:154,1,49.5899993946533,8|8,0:1|0:1,0:0:0:0:
0,279,135185,6,0,P|39:252|100:241,1,99.1799987893067,4|8,3:2|0:1,0:0:0:0:
160,249,135461,1,8,0:1:0:0:
202,297,135553,1,8,0:1:0:0:
175,354,135645,1,8,0:1:0:0:
128,380,135737,5,8,3:2:0:0:
123,368,135829,1,0,3:2:0:0:
123,353,135921,1,8,3:0:0:0:
130,338,136013,1,8,3:0:0:0:
139,330,136105,6,0,P|186:343|248:368,1,99.1799987893067,4|8,0:1|0:1,0:0:0:0:
296,319,136381,1,8,0:1:0:0:
354,303,136473,1,10,0:2:0:0:
382,248,136565,1,8,0:1:0:0:
373,228,136657,2,0,L|320:209,1,49.5899993946533,4|0,3:2|0:0,0:0:0:0:
408,30,136841,5,10,0:2:0:0:
446,61,136933,1,8,0:1:0:0:
451,106,137025,1,8,0:1:0:0:
412,144,137117,1,8,0:1:0:0:
391,148,137209,6,0,L|407:96,1,49.5899993946533,6|8,3:2|0:1,0:0:0:0:
246,226,137393,2,0,L|237:172,1,49.5899993946533,10|8,0:2|0:1,0:0:0:0:
99,20,137577,5,4,1:0:0:0:
92,12,137946,5,8,3:2:0:0:
47,88,138130,1,8,0:0:0:0:
237,177,138314,5,10,3:2:0:0:
190,78,138498,1,8,0:0:0:0:
9,225,138682,5,8,3:2:0:0:
150,282,138866,1,10,0:0:0:0:
215,187,139050,5,8,3:2:0:0:
57,304,139234,1,8,0:0:0:0:
277,374,139418,5,8,3:2:0:0:
122,191,139602,1,8,0:0:0:0:
39,328,139786,5,10,3:2:0:0:
239,266,139970,1,8,0:0:0:0:
282,115,140154,5,8,3:2:0:0:
512,215,140338,1,10,0:0:0:0:
360,362,140522,6,0,B|393:275|331:302|370:203,1,148.76999818396,4|8,3:2|0:1,0:0:0:0:
396,122,140890,5,0,3:2:0:0:
420,147,140982,1,8,0:1:0:0:
449,156,141074,1,8,0:1:0:0:
479,146,141166,1,8,0:1:0:0:
490,128,141258,5,2,3:2:0:0:
448,82,141350,1,8,0:1:0:0:
386,80,141442,1,8,0:1:0:0:
334,119,141534,1,10,0:2:0:0:
333,151,141626,5,0,3:2:0:0:
284,192,141719,1,8,0:1:0:0:
221,189,141811,1,10,0:2:0:0:
180,140,141903,1,8,0:1:0:0:
164,128,141995,6,0,L|175:71,1,49.5899993946533,8|0,3:0|0:0,0:0:0:0:
58,26,142179,1,8,0:1:0:0:
58,26,142271,1,8,0:1:0:0:
58,26,142363,2,0,L|69:83,1,49.5899993946533,8|0,3:0|0:0,0:0:0:0:
208,14,142547,2,0,L|151:-3,1,49.5899993946533,8|8,0:1|0:1,0:0:0:0:
28,261,142731,5,8,3:0:0:0:
255,110,142915,1,8,0:1:0:0:
296,365,143099,5,10,1:2:0:0:
36,150,143283,2,0,B|197:183|81:276|284:420|381:209|246:149|161:216,1,459.360014018555,12|0,1:0|0:0,0:0:0:0:
104,356,145676,5,10,3:0:0:0:
3,38,145860,1,10,3:0:0:0:
3,38,146228,6,0,P|41:91|183:68,1,198.359997578613,4|2,1:1|0:0,0:0:0:0:
381,175,146780,2,0,P|326:200|274:183,1,99.1799987893067,10|2,1:2|0:0,0:0:0:0:
129,309,147148,2,0,P|150:264|161:206,1,99.1799987893067,2|0,3:2|0:0,0:0:0:0:
308,371,147516,1,10,1:2:0:0:
276,300,147700,1,0,0:0:0:0:
176,375,147884,6,0,B|121:386|82:334|107:331|70:271|3:287,1,198.359997578613,0|8,3:2|1:0,0:0:0:0:
136,93,148436,1,2,0:2:0:0:
189,147,148620,2,0,P|147:176|95:178,1,99.1799987893067,0|0,3:2|0:0,0:0:0:0:
265,276,148988,1,8,1:0:0:0:
82,348,149172,1,2,0:0:0:0:
86,339,149265,1,2,0:0:0:0:
90,329,149357,6,0,P|138:344|181:383,1,99.1799987893067,6|2,3:2|0:0,0:0:0:0:
315,204,149725,1,10,1:2:0:0:
189,251,149909,1,2,0:0:0:0:
366,357,150093,2,0,P|391:311|374:250,1,99.1799987893067,2|0,3:2|0:0,0:0:0:0:
272,384,150461,1,10,1:2:0:0:
158,80,150645,6,0,P|99:157|110:266,1,198.359997578613,2|2,0:2|0:0,0:0:0:0:
380,118,151197,1,8,1:0:0:0:
282,23,151381,1,0,0:0:0:0:
315,204,151565,5,0,3:0:0:0:
221,271,151749,1,2,3:2:0:0:
288,108,151933,1,10,1:2:0:0:
461,268,152117,1,2,0:0:0:0:
461,268,152209,1,2,0:0:0:0:
461,268,152301,6,0,P|446:316|434:384,1,99.1799987893067,6|0,3:2|0:0,0:0:0:0:
237,194,152669,1,10,1:2:0:0:
297,313,152853,1,2,0:0:0:0:
480,178,153038,2,0,B|409:158|441:104|350:88,1,148.76999818396,2|0,3:2|0:0,0:0:0:0:
364,91,153406,2,0,B|341:45|341:45|360:-1,1,99.1799987893067,10|0,1:2|0:0,0:0:0:0:
320,190,153774,5,2,3:2:0:0:
191,141,153958,1,2,0:0:0:0:
151,229,154142,5,10,1:2:0:0:
51,271,154326,1,2,0:0:0:0:
0,149,154510,6,0,P|44:159|83:202,1,99.1799987893067,2|0,3:2|0:0,0:0:0:0:
203,366,154878,2,0,P|217:289|242:206,1,148.76999818396,10|2,1:2|0:0,0:0:0:0:
236,221,155246,6,0,P|196:253|141:257,1,99.1799987893067,4|0,3:2|0:0,0:0:0:0:
269,115,155614,1,8,1:0:0:0:
427,289,155798,1,2,0:2:0:0:
372,346,155982,2,0,P|322:339|286:300,1,99.1799987893067,0|0,3:2|0:0,0:0:0:0:
434,144,156350,1,10,1:2:0:0:
489,197,156534,1,2,0:0:0:0:
495,207,156626,1,2,0:0:0:0:
499,215,156719,1,0,3:2:0:0:
267,49,156995,5,0,3:2:0:0:
278,60,157087,2,0,B|313:51|313:51|326:57|326:57|383:42,1,99.1799987893067,8|2,1:0|0:0,0:0:0:0:
149,258,157455,6,0,B|70:234|116:183|17:161,2,148.76999818396,8|8|8,1:2|3:0|3:0,0:0:0:0:
183,182,158191,6,0,B|114:154|41:211|56:288|56:288,1,198.359997578613,4|8,3:1|1:0,0:0:0:0:
224,384,158743,1,0,0:0:0:0:
277,323,158927,2,0,P|264:273|256:221,1,99.1799987893067,2|0,3:2|0:0,0:0:0:0:
119,370,159295,1,8,1:0:0:0:
58,163,159479,1,2,0:0:0:0:
50,184,159571,1,2,0:0:0:0:
43,202,159663,5,0,3:2:0:0:
225,87,159847,1,0,0:0:0:0:
119,34,160031,1,8,1:0:0:0:
181,209,160215,1,2,0:0:0:0:
329,70,160399,1,2,3:2:0:0:
322,53,160492,1,2,0:0:0:0:
315,33,160584,1,2,0:0:0:0:
241,6,160768,1,8,1:0:0:0:
357,161,160952,1,2,0:0:0:0:
347,175,161044,1,2,0:0:0:0:
339,190,161136,6,0,B|301:181|301:181|292:172|292:172|239:160,1,99.1799987893067,4|0,3:2|0:0,0:0:0:0:
422,41,161504,2,0,B|384:50|384:50|375:59|375:59|322:71,1,99.1799987893067,10|2,1:2|0:0,0:0:0:0:
478,155,161872,2,0,P|493:226|504:316,1,148.76999818396,2|0,3:2|0:0,0:0:0:0:
502,301,162240,2,0,P|451:293|411:249,1,99.1799987893067,10|0,1:2|0:0,0:0:0:0:
178,321,162608,6,0,P|245:267|236:147,1,198.359997578613,0|8,3:2|1:0,0:0:0:0:
288,95,163160,1,2,0:0:0:0:
174,6,163344,1,0,3:2:0:0:
192,14,163436,1,8,0:2:0:0:
213,19,163528,1,10,0:2:0:0:
78,147,163712,1,8,3:2:0:0:
175,206,163896,1,2,0:0:0:0:
175,206,163988,1,2,0:0:0:0:
175,206,164080,6,0,P|162:158|151:94,1,99.1799987893067,4|2,3:2|0:0,0:0:0:0:
0,267,164449,2,0,P|71:279|137:355,1,148.76999818396,10|0,1:2|0:0,0:0:0:0:
125,329,164817,2,0,P|85:360|22:359,1,99.1799987893067,0|0,3:2|0:1,0:0:0:0:
190,184,165185,2,0,P|218:224|218:287,1,99.1799987893067,8|2,1:0|0:0,0:0:0:0:
376,384,165553,6,0,B|339:363|339:363|296:278|401:221,1,198.359997578613,2|8,3:2|1:0,0:0:0:0:
448,273,166105,1,2,0:0:0:0:
502,104,166289,2,0,B|416:73|416:73|382:91|397:130,1,148.76999818396,2|0,3:2|0:0,0:0:0:0:
402,131,166657,1,10,1:2:0:0:
304,21,166841,1,2,0:0:0:0:
304,21,166933,1,2,0:0:0:0:
304,21,167025,6,0,P|257:41|197:55,1,99.1799987893067,6|0,3:2|0:0,0:0:0:0:
83,165,167393,2,0,P|147:141|234:240,1,198.359997578613,10|0,1:2|3:2,0:0:0:0:
286,278,167946,1,0,0:0:0:0:
98,384,168130,1,10,1:2:0:0:
159,333,168314,1,2,0:0:0:0:
159,333,168406,1,2,0:0:0:0:
159,333,168498,6,0,P|146:282|125:223,1,99.1799987893067,2|0,3:2|0:0,0:0:0:0:
275,92,168866,2,0,B|331:66|369:115|369:115|389:166|447:174,1,198.359997578613,10|0,1:2|3:2,0:0:0:0:
483,234,169418,1,0,0:0:0:0:
399,35,169602,1,10,1:2:0:0:
204,227,169786,6,0,P|305:225|351:135,1,198.359997578613,6|8,1:2|3:0,0:0:0:0:
311,85,170338,1,8,3:0:0:0:
63,0,170522,6,0,P|90:87|105:199,1,198.359997578613,4|8,1:2|3:0,0:0:0:0:
213,1,171074,1,8,3:0:0:0:
361,340,171258,6,0,B|278:319|294:244|193:224,1,198.359997578613,4|2,1:2|3:2,0:0:0:0:
428,147,171811,1,8,0:1:0:0:
281,381,171995,6,0,P|264:315|311:189,1,198.359997578613,4|8,1:2|0:0,0:0:0:0:
147,105,172547,1,0,3:2:0:0:
326,5,172731,5,8,0:1:0:0:
331,14,172823,1,8,0:1:0:0:
335,25,172915,6,0,B|289:38|243:58|243:58|184:49|215:-4,1,180.959998895508,4|8,1:0|0:1,0:0:0:0:
428,147,173467,2,0,B|484:145|511:93|511:93|490:134|517:180,1,180.959998895508,4|0,3:2|3:2,0:0:0:0:
425,55,174019,1,8,0:0:0:0:
247,136,174203,6,0,P|234:179|218:228,1,90.4799994477539,0|0,3:2|0:0,0:0:0:0:
375,362,174571,1,0,3:2:0:0:
482,226,174755,2,0,P|490:267|507:329,1,90.4799994477539,8|0,0:0|0:0,0:0:0:0:
375,171,175123,2,0,B|331:147|295:188|295:188|267:242|209:218,1,180.959998895508,0|8,3:2|0:0,0:0:0:0:
375,362,175676,1,2,0:2:0:0:
215,213,175860,6,0,P|272:204|309:325,1,180.959998895508,4|8,3:2|0:0,0:0:0:0:
68,384,176412,1,4,3:2:0:0:
121,330,176596,2,0,P|131:284|140:230,1,90.4799994477539,0|0,0:0|3:2,0:0:0:0:
210,69,176964,6,0,P|143:132|51:117,1,180.959998895508,8|0,0:0|3:2,0:0:0:0:
176,0,177516,1,0,3:2:0:0:
320,149,177700,1,8,0:0:0:0:
375,91,177884,2,0,P|365:47|358:-4,1,90.4799994477539,2|0,0:2|3:2,0:0:0:0:
202,144,178252,1,0,3:2:0:0:
366,266,178436,1,8,0:0:0:0:
271,364,178620,2,0,L|226:379,1,45.239999723877,2|2,0:1|0:0,0:0:0:0:
228,378,178804,6,0,B|187:267|326:302|268:165,1,215.759991440186,4|8,3:2|0:0,0:0:0:0:
147,57,179357,2,0,B|114:47|114:47|67:62|67:62|29:53,1,107.879995720093,4|0,3:2|0:0,0:0:0:0:
147,57,179725,1,0,3:2:0:0:
275,183,179909,6,0,B|349:236|447:168|389:79|328:116|345:176,1,215.759991440186,12|0,0:0|0:0,0:0:0:0:
455,324,180461,1,4,3:2:0:0:
509,273,180645,2,0,B|467:236|467:236|413:260,1,107.879995720093,8|0,0:0|0:0,0:0:0:0:
155,384,181013,5,4,3:2:0:0:
219,339,181197,1,2,0:0:0:0:
219,339,181289,1,2,0:0:0:0:
219,339,181381,2,0,B|209:298|209:298|222:272|222:272|207:208,1,116.579994485504,8|0,0:0|0:0,0:0:0:0:
33,129,181749,6,0,B|55:100|45:66|45:66|97:111|83:175|10:223,1,233.159988971009,4|8,3:1|0:0,0:0:0:0:
311,319,182301,6,0,B|373:319|368:252|320:212|234:224|215:286|219:351,1,267.959994684631,4|0,3:1|3:2,0:0:0:0:
509,184,182853,6,0,B|509:133|470:112|466:119|374:140|341:62|364:-9|458:-49|537:17|526:75|466:119|464:111|397:161|448:233,1,454.140003811295,4|8,1:0|0:0,0:0:0:0:
218,338,183590,5,8,3:2:0:0:
161,288,183774,1,8,0:0:0:0:
163,278,183866,1,8,0:0:0:0:
165,269,183958,1,8,3:2:0:0:
45,144,184142,1,8,0:0:0:0:
281,107,184326,5,8,0:1:0:0:
253,123,184418,1,8,0:1:0:0:
200,151,184510,5,8,3:0:0:0:
172,166,184602,1,8,3:0:0:0:
127,111,184694,6,0,B|178:86|212:133|212:133|228:195|294:189,1,198.359997578613,4|8,0:1|0:0,0:0:0:0:
423,338,185246,2,0,P|408:289|396:236,1,99.1799987893067,2|0,0:0|3:2,0:0:0:0:
246,384,185614,1,2,0:0:0:0:
197,321,185798,2,0,P|210:275|223:209,1,99.1799987893067,8|2,0:0|0:0,0:0:0:0:
431,44,186166,6,0,P|381:43|348:80,1,99.1799987893067,0|2,3:2|0:0,0:0:0:0:
508,167,186534,1,10,0:0:0:0:
372,264,186719,1,2,0:0:0:0:
392,279,186811,1,2,0:0:0:0:
416,278,186903,1,0,3:2:0:0:
315,170,187087,1,2,0:0:0:0:
209,317,187271,2,0,L|110:349,1,99.1799987893067,8|2,0:0|0:0,0:0:0:0:
4,143,187639,5,4,3:2:0:0:
127,255,187823,1,2,0:0:0:0:
21,365,188007,1,10,0:0:0:0:
3,295,188191,1,2,0:0:0:0:
8,280,188283,1,2,0:0:0:0:
14,264,188375,1,0,3:2:0:0:
183,112,188559,2,0,B|208:156|208:156|186:210,1,99.1799987893067,2|8,0:0|0:0,0:0:0:0:
95,57,188927,1,2,0:0:0:0:
189,200,189111,6,0,B|293:219|267:258|371:279,1,198.359997578613,0|8,3:2|0:0,0:0:0:0:
478,167,189663,1,2,0:0:0:0:
496,145,189755,1,2,0:0:0:0:
512,122,189847,2,0,L|500:71,2,49.5899993946533,0|0|0,3:2|3:2|3:2,0:0:0:0:
343,9,190215,1,8,0:0:0:0:
311,188,190399,1,2,0:0:0:0:
259,133,190584,6,0,B|299:109|299:109|362:127,1,99.1799987893067,4|2,3:2|0:0,0:0:0:0:
494,261,190952,1,10,0:0:0:0:
344,374,191136,1,2,0:0:0:0:
344,374,191228,1,2,0:0:0:0:
344,374,191320,2,0,P|357:329|370:264,1,99.1799987893067,0|0,3:2|0:0,0:0:0:0:
422,218,191688,1,8,0:0:0:0:
482,335,191872,1,2,0:0:0:0:
280,211,192056,6,0,B|223:227|187:174|187:174|195:226|155:266,1,198.359997578613,0|10,3:2|0:0,0:0:0:0:
9,159,192608,2,0,P|42:199|111:197,1,99.1799987893067,2|0,0:0|3:2,0:0:0:0:
106,196,192884,1,0,3:2:0:0:
106,196,192976,1,2,3:2:0:0:
240,296,193160,1,8,0:0:0:0:
130,342,193344,1,2,0:0:0:0:
289,131,193528,6,0,B|321:110|321:110|413:156|362:247,1,198.359997578613,4|8,3:2|0:0,0:0:0:0:
208,54,194080,1,0,0:0:0:0:
177,147,194265,2,0,P|195:103|211:29,1,99.1799987893067,2|0,3:2|0:0,0:0:0:0:
364,241,194633,1,8,0:0:0:0:
461,12,194817,1,2,0:0:0:0:
461,12,195001,6,0,P|478:80|506:159,1,148.76999818396,0|0,3:2|0:0,0:0:0:0:
504,154,195369,2,0,P|458:140|392:128,1,99.1799987893067,8|0,0:0|0:0,0:0:0:0:
349,86,195645,1,8,3:0:0:0:
325,81,195737,1,8,3:0:0:0:
477,235,195921,1,8,0:0:0:0:
244,384,196105,5,2,3:2:0:0:
229,378,196197,1,8,0:0:0:0:
352,249,196381,5,2,0:1:0:0:
364,241,196473,2,0,P|374:291|388:349,1,99.1799987893067,4|0,3:2|0:0,0:0:0:0:
221,192,196841,1,8,0:0:0:0:
106,286,197025,6,0,B|75:254|39:227|39:227|68:151|92:71,1,250.560006117188,4|0,1:0|0:0,0:0:0:0:
190,97,197577,5,10,3:2:0:0:
11,240,197761,1,2,0:0:0:0:
204,384,197946,6,0,B|220:337|220:337|202:278,1,99.1799987893067,4|0,3:2|0:0,0:0:0:0:
90,74,198314,1,8,0:0:0:0:
365,208,198498,6,0,B|371:183|387:159|387:159|286:85|215:201,1,250.560006117188,4|0,1:0|0:0,0:0:0:0:
115,379,199050,5,10,3:2:0:0:
288,273,199234,1,2,0:0:0:0:
69,166,199418,6,0,P|85:209|107:280,1,99.1799987893067,4|0,3:2|0:0,0:0:0:0:
198,80,199786,1,8,0:0:0:0:
392,295,199970,6,0,B|415:342|368:377|313:356|292:293|317:235|369:204,1,250.560006117188,4|0,1:0|0:0,0:0:0:0:
487,302,200522,5,10,3:2:0:0:
255,378,200706,1,0,0:0:0:0:
76,221,200890,6,0,B|153:236|139:259|226:276,1,148.76999818396,4|0,3:2|0:0,0:0:0:0:
214,273,201258,1,8,0:0:0:0:
466,68,201442,6,0,B|370:27|284:106|284:106,1,187.920004587891,4|0,1:0|0:0,0:0:0:0:
324,122,201811,5,8,3:0:0:0:
384,101,201903,1,8,3:0:0:0:
448,118,201995,1,12,3:0:0:0:
475,158,202087,1,8,3:0:0:0:
473,188,202179,1,8,3:0:0:0:
460,200,202271,1,8,3:0:0:0:
450,196,202363,2,0,L|464:142,1,46.9800011469727,2|0,3:1|3:0,0:0:0:0:
305,224,202639,5,8,3:0:0:0:
293,255,202731,1,8,3:0:0:0:
327,290,202823,1,8,3:0:0:0:
384,253,202915,6,0,B|244:205|308:388|126:324,1,250.560006117188,4|0,1:0|3:2,0:0:0:0:
357,374,203467,5,10,0:0:0:0:
158,146,203651,1,2,0:0:0:0:
254,44,203835,6,0,B|295:25|295:25|310:70|341:138,1,151.380001270432,4|0,3:2|0:0,0:0:0:0:
238,225,204080,2,0,B|197:244|197:244|182:199|151:131,1,151.380001270432,4|0,3:2|0:0,0:0:0:0:
247,137,204326,6,0,B|346:105|327:220|441:189,1,201.840001693909,4|0,3:1|3:2,0:0:0:0:
488,139,204694,6,0,P|493:99|507:56,1,77.7199963236696,8|8,3:0|3:0,0:0:0:0:
354,215,204939,5,8,3:0:0:0:
310,275,205062,2,0,P|321:310|327:350,1,77.7199963236696,8|8,3:0|3:0,0:0:0:0:
278,110,205307,6,0,B|216:65|138:72|138:72,1,142.680002177124,4|8,1:0|0:1,0:0:0:0:
73,49,205584,1,8,0:0:0:0:
53,61,205676,1,8,0:0:0:0:
212,289,205860,6,0,P|232:258|236:214,1,71.340001088562,4|0,3:2|0:0,0:0:0:0:
67,142,206044,5,8,0:1:0:0:
45,183,206136,1,8,0:1:0:0:
58,227,206228,1,8,0:1:0:0:
101,247,206320,1,8,0:1:0:0:
101,268,206412,5,4,3:2:0:0:
143,303,206504,1,8,0:1:0:0:
141,353,206596,1,8,0:1:0:0:
91,382,206688,1,8,0:1:0:0:
78,374,206780,6,0,L|7:351,1,71.340001088562,4|0,3:2|0:0,0:0:0:0:
199,187,206964,1,8,0:1:0:0:
213,194,207056,1,8,0:1:0:0:
225,200,207148,2,0,L|249:289,1,71.340001088562,12|8,0:2|0:1,0:0:0:0:
67,142,207332,2,0,L|99:64,1,71.340001088562,8|8,0:1|0:1,0:0:0:0:
356,4,207516,5,12,0:0:0:0:
409,54,207608,1,8,0:1:0:0:
386,124,207700,2,0,P|354:138|311:152,1,71.340001088562,8|8,0:1|0:1,0:0:0:0:
10,352,207884,5,12,0:2:0:0:
0,275,207976,1,8,0:1:0:0:
62,227,208068,2,0,P|96:239|152:253,1,71.340001088562,8|8,0:1|0:1,0:0:0:0:
256,378,208252,5,4,1:0:0:0:
256,384,208620,5,2,0:0:0:0:
368,291,208804,2,0,P|395:298|436:313,1,55.68,2|0,0:0|0:0,0:0:0:0:
475,357,209172,2,0,P|459:303|441:233,1,111.36,2|0,0:0|0:0,0:0:0:0:
353,129,209725,6,0,P|341:158|326:183,2,55.68,2|0|2,0:0|0:0|0:0,0:0:0:0:
419,91,210277,2,0,P|406:48|342:34,1,111.36,2|0,0:0|0:0,0:0:0:0:
279,7,210829,1,2,0:0:0:0:
279,7,211013,1,2,0:0:0:0:
103,203,211197,6,0,P|108:145|107:82,1,111.36,2|0,0:0|0:0,0:0:0:0:
135,131,211749,2,0,P|137:103|133:63,1,55.68,2|0,0:0|0:0,0:0:0:0:
23,191,212117,2,0,P|25:222|30:257,1,55.68,2|0,0:0|0:0,0:0:0:0:
92,289,212485,1,2,0:0:0:0:
175,363,212669,6,0,P|204:369|232:381,1,55.68,2|0,0:0|0:0,0:0:0:0:
348,275,213038,1,2,0:0:0:0:
280,310,213222,2,0,P|308:299|351:290,1,55.68,2|0,0:0|0:0,0:0:0:0:
465,384,213590,1,2,0:0:0:0:
445,314,213774,2,0,P|438:343|427:376,1,55.68,2|0,0:0|0:0,0:0:0:0:
512,76,214142,6,0,B|385:15|306:134|317:127|267:239|107:273|69:192|36:105|101:25|204:25|240:101,1,668.16,2|2,0:0|0:0,0:0:0:0:
73,368,225921,5,0,3:0:0:0:
105,298,226289,1,0,3:0:0:0:
66,232,226657,1,0,3:0:0:0:
96,160,227025,1,0,3:2:0:0:
311,13,227393,5,0,3:2:0:0:
343,79,227761,2,0,P|334:106|319:141,1,55.68,0|2,3:2|0:0,0:0:0:0:
323,131,228130,1,2,0:0:0:0:
505,290,228406,6,0,L|482:191,1,83.52,2|2,0:1|0:0,0:0:0:0:
191,307,228866,6,0,B|286:321|263:353|362:371,1,180.959998895508,4|0,3:1|0:0,0:0:0:0:
234,202,229418,1,2,3:2:0:0:
366,244,229602,5,10,0:0:0:0:
248,359,229786,1,0,3:2:0:0:
366,244,229970,1,2,0:0:0:0:
135,139,230154,6,0,P|146:181|157:242,1,90.4799994477539,0|0,3:2|0:0,0:0:0:0:
245,73,230522,1,0,3:2:0:0:
106,0,230706,1,8,0:0:0:0:
245,73,230890,1,2,0:0:0:0:
87,280,231074,6,0,P|43:265|-5:256,1,90.4799994477539,8|0,0:0|3:2,0:0:0:0:
113,121,231442,1,2,0:0:0:0:
248,223,231626,1,2,3:2:0:0:
248,223,231719,1,0,3:2:0:0:
248,223,231811,6,0,B|278:230|305:247|305:247|378:218|331:137,1,180.959998895508,4|2,3:2|0:0,0:0:0:0:
280,96,232363,1,2,3:2:0:0:
462,34,232547,2,0,P|443:81|427:130,1,90.4799994477539,10|0,0:0|3:2,0:0:0:0:
337,0,232915,1,2,0:0:0:0:
487,251,233099,1,2,0:0:0:0:
487,251,233191,1,2,0:0:0:0:
487,251,233283,6,0,B|393:251|411:287|307:280,1,180.959998895508,4|0,3:2|0:0,0:0:0:0:
453,384,233835,2,0,P|437:341|424:289,1,90.4799994477539,2|8,3:2|0:0,0:0:0:0:
254,384,234203,1,2,3:2:0:0:
96,247,234387,1,8,0:0:0:0:
179,231,234571,1,2,0:0:0:0:
179,231,234663,1,2,0:0:0:0:
179,231,234755,6,0,P|162:275|144:334,1,90.4799994477539,4|0,3:2|0:0,0:0:0:0:
23,193,235123,2,0,P|66:177|112:153,1,90.4799994477539,2|0,0:0|0:0,0:0:0:0:
310,280,235492,6,0,B|403:278|480:342|480:342,1,180.959998895508,10|8,0:0|3:0,0:0:0:0:
278,108,236044,6,0,B|242:154|242:154|265:217,1,111.36,12|2,0:0|0:0,0:0:0:0:
418,108,236596,1,2,0:0:0:0:
356,59,236780,2,0,P|408:79|462:95,1,111.36,2|2,0:0|0:0,0:0:0:0:
341,172,237332,1,2,0:0:0:0:
411,198,237516,1,2,0:0:0:0:
278,3,237700,5,4,3:1:0:0:
139,110,237884,1,2,3:2:0:0:
260,203,238068,2,0,P|246:152|236:99,1,99.1799987893067,8|0,0:0|0:0,0:0:0:0:
189,54,238344,1,8,0:0:0:0:
182,44,238436,2,0,P|187:21|197:-6,2,49.5899993946533,0|8|0,3:2|0:0|3:2,0:0:0:0:
61,137,238804,1,8,0:0:0:0:
177,279,238988,1,2,0:0:0:0:
181,266,239080,1,2,0:0:0:0:
185,251,239172,6,0,P|135:248|90:278,1,99.1799987893067,0|0,3:2|3:2,0:0:0:0:
223,142,239541,1,8,0:0:0:0:
323,321,239725,2,0,B|361:329|395:344|395:344|444:321|414:270,1,148.76999818396,0|8,3:2|0:0,0:0:0:0:
364,237,240093,1,0,3:2:0:0:
228,348,240277,1,8,0:0:0:0:
38,224,240461,1,2,0:0:0:0:
27,212,240553,1,2,0:0:0:0:
15,199,240645,6,0,P|31:144|44:92,1,99.1799987893067,4|2,3:2|3:2,0:0:0:0:
215,7,241013,1,10,0:0:0:0:
327,117,241197,1,2,0:0:0:0:
333,155,241289,1,8,0:0:0:0:
305,176,241381,2,0,L|246:156,1,49.5899993946533,0|8,3:2|0:0,0:0:0:0:
204,103,241565,1,0,3:2:0:0:
360,5,241749,1,8,0:0:0:0:
463,93,241933,1,2,0:0:0:0:
479,106,242025,1,2,0:0:0:0:
492,118,242117,6,0,P|499:167|510:223,1,99.1799987893067,0|0,3:2|3:2,0:0:0:0:
346,332,242485,1,8,0:0:0:0:
452,384,242669,2,0,P|470:323|375:228,1,198.359997578613,0|0,3:2|3:2,0:0:0:0:
237,332,243222,1,8,0:0:0:0:
178,277,243406,1,2,0:0:0:0:
182,260,243498,1,2,0:0:0:0:
188,239,243590,5,4,3:2:0:0:
336,143,243774,1,0,3:2:0:0:
242,40,243958,2,0,P|211:80|221:141,1,99.1799987893067,8|2,0:0|0:0,0:0:0:0:
252,189,244234,1,8,0:0:0:0:
259,201,244326,2,0,P|280:212|304:232,2,49.5899993946533,0|8|0,3:2|0:0|3:2,0:0:0:0:
330,55,244694,1,8,0:0:0:0:
115,194,244878,1,2,0:0:0:0:
115,194,244970,1,2,0:0:0:0:
115,194,245062,6,0,P|69:206|3:228,1,99.1799987893067,0|0,3:2|3:2,0:0:0:0:
142,66,245430,1,8,0:0:0:0:
259,201,245614,2,0,P|273:272|294:355,1,148.76999818396,0|8,3:2|0:0,0:0:0:0:
277,366,245982,1,0,3:2:0:0:
170,259,246166,1,8,0:0:0:0:
360,135,246350,1,2,0:0:0:0:
381,185,246442,1,2,0:0:0:0:
348,221,246534,5,4,1:0:0:0:
52,32,246811,5,8,0:0:0:0:
48,14,246903,2,0,B|84:26|84:26|97:40|97:40|149:56,1,99.1799987893067,8|8,3:2|0:1,0:0:0:0:
231,134,247179,5,8,0:1:0:0:
241,119,247271,2,0,B|193:108|193:108|137:140,1,99.1799987893067,8|8,3:2|0:1,0:0:0:0:
57,266,247547,5,8,0:1:0:0:
48,253,247639,5,10,3:2:0:0:
93,223,247731,1,8,0:1:0:0:
144,234,247823,1,10,0:2:0:0:
175,280,247915,1,8,0:1:0:0:
171,299,248007,5,10,3:2:0:0:
199,361,248099,1,8,0:1:0:0:
263,378,248191,1,8,3:0:0:0:
320,344,248283,1,8,3:0:0:0:
326,331,248375,6,0,L|316:264,1,49.5899993946533,8|8,0:1|0:1,0:0:0:0:
90,337,248559,2,0,L|74:391,1,49.5899993946533,8|0,3:0|0:0,0:0:0:0:
287,188,248743,5,12,3:2:0:0:
48,78,248927,1,12,3:2:0:0:
287,188,249479,5,4,1:0:0:0:
430,377,249663,1,8,3:0:0:0:
483,329,249755,1,8,3:0:0:0:
465,262,249847,2,0,L|399:239,1,66.9899986711579,8|0,3:0|3:2,0:0:0:0:
240,113,250031,5,12,0:0:0:0:
97,302,250215,1,8,3:0:0:0:
44,254,250307,1,8,3:0:0:0:
62,187,250399,2,0,L|128:164,1,66.9899986711579,8|0,3:0|3:0,0:0:0:0:
293,30,250584,6,0,P|258:20|211:4,1,66.9899986711579,12|0,0:0|0:0,0:0:0:0:
308,230,250768,2,0,P|316:197|333:151,1,66.9899986711579,8|0,3:0|3:0,0:0:0:0:
61,42,250952,6,0,P|43:103|98:152,1,133.979997342316,4|8,1:0|3:0,0:0:0:0:
133,211,251228,1,8,3:0:0:0:
149,206,251320,2,0,P|167:174|167:135,1,66.9899986711579,0|8,3:2|3:0,0:0:0:0:
0,350,251504,6,0,B|46:334|46:334|66:312|66:312|128:292,1,133.979997342316,4|8,0:0|3:0,0:0:0:0:
164,358,251780,1,8,3:0:0:0:
144,375,251872,2,0,L|80:351,1,66.9899986711579,8|8,3:0|3:0,0:0:0:0:
279,252,252056,1,12,0:0:0:0:
87,149,252240,1,8,3:0:0:0:
302,354,252424,5,12,1:0:0:0:
162,121,252608,1,8,3:0:0:0:
105,154,252700,1,8,3:0:0:0:
123,219,252792,2,0,P|153:232|190:252,1,66.9899986711579,8|0,3:0|3:0,0:0:0:0:
315,44,252976,5,12,0:0:0:0:
455,277,253160,1,8,3:0:0:0:
512,244,253252,1,8,3:0:0:0:
494,179,253344,2,0,P|464:166|427:146,1,66.9899986711579,8|8,3:0|3:0,0:0:0:0:
300,265,253528,2,0,P|291:297|279:334,2,66.9899986711579,12|0|0,0:0|3:0|3:0,0:0:0:0:
206,102,253804,5,8,0:0:0:0:
189,111,253896,2,0,P|219:152|284:148,1,100.920000846954,4|0,3:1|3:0,0:0:0:0:
307,187,254080,6,0,P|295:150|281:94,1,75.6900006352158,12|0,0:0|0:0,0:0:0:0:
118,274,254265,5,0,3:0:0:0:
134,286,254357,2,0,P|146:249|160:193,1,75.6900006352158,12|0,0:0|0:0,0:0:0:0:
350,363,254541,5,0,3:0:0:0:
363,343,254633,2,0,B|283:323|305:401|198:370,1,151.380001270432,12|0,1:0|0:0,0:0:0:0:
285,114,254909,5,8,0:1:0:0:
299,104,255001,5,8,3:1:0:0:
357,130,255093,1,8,0:1:0:0:
370,195,255185,1,8,0:1:0:0:
330,249,255277,1,8,0:1:0:0:
315,256,255369,6,0,P|277:242|248:240,1,57.4200017523194,4|0,1:0|0:0,0:0:0:0:
207,176,255737,6,0,P|173:217|186:272,1,99.1799987893067,10|0,0:0|0:0,0:0:0:0:
355,58,256105,2,0,P|332:16|278:0,1,99.1799987893067,2|0,3:2|0:0,0:0:0:0:
448,224,256473,1,10,0:0:0:0:
404,286,256657,1,2,0:0:0:0:
404,286,256749,1,2,0:0:0:0:
404,286,256841,6,0,P|354:297|297:323,1,99.1799987893067,2|0,3:2|0:0,0:0:0:0:
133,196,257209,1,10,0:0:0:0:
208,384,257393,1,2,0:0:0:0:
208,384,257485,1,2,0:0:0:0:
208,384,257577,2,0,B|188:345|213:312|219:317|249:290|208:222,1,148.76999818396,0|0,3:2|0:0,0:0:0:0:
229,224,257946,1,10,0:0:0:0:
131,49,258130,1,2,0:0:0:0:
108,70,258222,1,2,0:0:0:0:
112,102,258314,6,0,P|154:122|210:142,1,99.1799987893067,4|0,3:2|0:0,0:0:0:0:
362,3,258682,1,8,0:0:0:0:
255,60,258866,1,0,0:0:0:0:
440,205,259050,2,0,P|464:161|458:96,1,99.1799987893067,0|0,3:2|0:0,0:0:0:0:
314,235,259418,1,8,0:0:0:0:
380,327,259602,1,2,0:0:0:0:
380,327,259694,1,2,0:0:0:0:
380,327,259786,6,0,P|427:339|488:372,1,99.1799987893067,0|0,3:2|0:0,0:0:0:0:
289,155,260154,2,0,P|213:173|133:206,1,148.76999818396,8|0,0:0|0:0,0:0:0:0:
137,219,260522,1,0,3:2:0:0:
330,90,260706,1,8,3:2:0:0:
444,289,260890,1,8,1:0:0:0:
241,39,261074,6,0,B|211:64|179:88|179:88|201:139|226:205,1,198.359997578613,4|0,1:2|3:2,0:0:0:0:
391,34,261626,1,8,3:0:0:0:
512,258,261811,6,0,B|409:226|446:351|319:305,1,198.359997578613,4|8,1:2|0:0,0:0:0:0:
148,77,262363,1,8,0:0:0:0:
104,316,262547,6,0,B|55:378|-12:336|-24:272|28:212|114:217|149:312|140:306|161:377|236:375,1,396.719995157227,4|2,1:0|0:0,0:0:0:0:
234,375,263651,5,2,0:0:0:0:
262,308,263835,1,2,0:0:0:0:
386,207,264048,6,0,P|393:240|403:276,2,64.3800015717774,2|2|2,0:0|0:0|0:0,0:0:0:0:
326,162,264571,2,0,P|334:131|341:84,1,64.3800015717774,2|0,0:0|0:0,0:0:0:0:
398,52,264939,2,0,B|327:51|342:72|260:70,1,128.760003143555,2|2,0:0|0:0,0:0:0:0:
36,251,265675,5,2,0:0:0:0:
104,217,265859,1,2,0:0:0:0:
174,268,266043,5,2,0:0:0:0:
244,297,266227,1,2,0:0:0:0:
330,237,266411,6,0,P|339:204|347:159,1,64.3800015717774,2|2,0:0|0:0,0:0:0:0:
414,287,266779,1,2,0:0:0:0:
329,342,266963,1,2,0:0:0:0:
396,378,267147,6,0,L|473:392,1,64.3800015717774,2|2,0:0|0:0,0:0:0:0:
301,254,267515,2,0,L|223:278,1,64.3800015717774,2|2,0:0|0:0,0:0:0:0:
389,105,267883,2,0,L|534:149,1,128.760003143555,2|2,0:0|0:0,0:0:0:0:
127,4,268619,5,2,0:0:0:0:
98,71,268803,1,2,0:0:0:0:
165,122,268987,5,2,0:0:0:0:
141,193,269171,1,2,0:0:0:0:
222,242,269355,5,2,0:0:0:0:
144,228,269540,1,2,0:0:0:0:
94,286,269724,1,2,0:0:0:0:
248,160,269908,5,2,0:0:0:0:
320,224,270092,2,0,P|306:256|298:296,1,64.3800015717774,2|2,0:0|0:0,0:0:0:0:
92,373,270460,2,0,P|87:340|79:300,1,64.3800015717774,2|2,0:0|0:0,0:0:0:0:
127,253,270828,2,0,P|189:258|220:320,1,128.760003143555,2|2,0:0|0:0,0:0:0:0:
491,67,271594,5,2,0:0:0:0:
415,56,271785,1,2,0:0:0:0:
367,114,271970,1,2,0:0:0:0:
387,185,272150,1,2,0:0:0:0:
495,166,272520,5,2,0:0:0:0:
452,229,272700,2,0,P|461:261|472:303,1,64.3800015717774,2|2,0:0|0:0,0:0:0:0:
388,377,273077,6,0,B|342:362|342:362|323:333|323:333|267:315,1,128.760003143555,2|2,0:0|0:0,0:0:0:0:
96,194,273657,2,0,P|159:175|235:157,1,128.760003143555,2|0,0:0|0:0,0:0:0:0:
272,211,274233,5,2,0:0:0:0:
221,265,274444,1,2,0:0:0:0:
145,136,274655,6,0,P|152:102|162:52,1,64.3800015717774,2|2,0:0|0:0,0:0:0:0:
226,41,275078,1,2,0:0:0:0:
452,229,275539,6,0,P|443:262|435:319,1,64.3800015717774,2|2,0:0|0:0,0:0:0:0:
371,328,276144,1,2,0:0:0:0:
328,265,276459,1,2,0:0:0:0:
122,367,276976,6,0,P|125:355|128:336,3,21.75,2|2|2|2,0:0|0:0|0:0|0:0,0:0:0:0:
146,330,277234,1,2,0:0:0:0:
0,64,277840,5,2,0:0:0:0:
61,113,278055,5,2,0:0:0:0:
180,26,278340,5,2,0:0:0:0:
243,171,278631,5,2,0:0:0:0:
354,49,278959,5,2,0:0:0:0:
448,138,279324,5,2,0:0:0:0:
512,93,279740,5,2,0:0:0:0:
222,246,280410,5,2,0:0:0:0:
218,258,280515,2,0,L|211:290,2,21.75,2|2|2,0:0|0:0|0:0,0:0:0:0:
