osu file format v14

[General]
AudioFilename: audio.mp3
AudioLeadIn: 0
PreviewTime: 127755
Countdown: 0
SampleSet: Soft
StackLeniency: 0.7
Mode: 0
LetterboxInBreaks: 0
WidescreenStoryboard: 0

[Editor]
DistanceSpacing: 1.6
BeatDivisor: 4
GridSize: 4
TimelineZoom: 2.3

[Metadata]
Title:Love? Reason why!!
TitleUnicode:Love? Reason why!!
Artist:Suzuki Konomi
ArtistUnicode:鈴木このみ
Creator:kunka
Version:Advanced
Source:恋愛フロップス
Tags:op opening anime japanese pop jpop j-pop renai LOVE FLOPS project_railgun project railgun Kowari Akitoshi Corinn -Laura- kunkakunkakunkakunka
BeatmapID:3932175
BeatmapSetID:1900700

[Difficulty]
HPDrainRate:4
CircleSize:3.2
OverallDifficulty:4
ApproachRate:5.5
SliderMultiplier:1.2
SliderTickRate:1

[Events]
//Background and Video events
0,0,"BG.jpg",0,0
//Break Periods
2,155765,162323
2,169779,176338
//Storyboard Layer 0 (Background)
//Storyboard Layer 1 (Fail)
//Storyboard Layer 2 (Pass)
//Storyboard Layer 3 (Foreground)
//Storyboard Layer 4 (Overlay)
//Storyboard Sound Samples

[TimingPoints]
529,437.956204379562,4,2,1,60,1,0
4032,-83.3333333333333,4,2,1,60,0,0
9288,-83.3333333333333,4,2,1,40,0,0
9726,-83.3333333333333,4,2,1,50,0,0
10164,-83.3333333333333,4,2,1,60,0,0
11039,-100,4,2,1,45,0,0
23302,-125,4,2,1,40,0,0
24178,-100,4,2,1,60,0,0
25054,-90.9090909090909,4,2,1,50,0,0
37317,-125,4,2,1,45,0,0
40601,-90.9090909090909,4,2,1,50,0,0
47828,-100,4,2,1,60,0,0
50456,-90.9090909090909,4,2,1,65,0,0
51331,-90.9090909090909,4,2,1,70,0,0
52207,-90.9090909090909,4,2,1,75,0,0
53083,-76.9230769230769,4,2,1,80,0,1
65346,-76.9230769230769,4,2,1,85,0,1
66222,-76.9230769230769,4,2,1,90,0,1
67098,-76.9230769230769,4,2,1,80,0,1
77609,-100,4,2,1,60,0,1
78485,-90.9090909090909,4,2,1,70,0,1
79361,-83.3333333333333,4,2,1,80,0,1
80237,-90.9090909090909,4,2,1,70,0,1
81112,-100,4,2,1,60,0,0
95127,-125,4,2,1,50,0,0
96879,-100,4,2,1,70,0,0
97974,-83.3333333333333,4,2,1,60,0,0
98631,-100,4,2,1,50,0,0
99945,-100,4,2,1,55,0,0
102134,-83.3333333333333,4,2,1,60,0,0
103886,-90.9090909090909,4,2,1,50,0,0
109142,-125,4,2,1,45,0,0
112426,-90.9090909090909,4,2,1,50,0,0
116149,-125,4,2,1,45,0,0
117682,-90.9090909090909,4,2,1,50,0,0
119653,-100,4,2,1,60,0,0
122280,-100,4,2,1,65,0,0
124908,-90.9090909090909,4,2,1,70,0,0
126660,-83.3333333333333,4,2,1,75,0,0
127536,-83.3333333333333,4,2,1,65,0,0
128412,-76.9230769230769,4,2,1,80,0,1
140674,-76.9230769230769,4,2,1,85,0,1
141550,-76.9230769230769,4,2,1,90,0,1
142426,-76.9230769230769,4,2,1,80,0,1
152937,-100,4,2,1,60,0,1
153813,-90.9090909090909,4,2,1,70,0,1
154689,-83.3333333333333,4,2,1,80,0,1
155565,-90.9090909090909,4,2,1,70,0,1
156441,-125,4,2,1,40,0,0
163448,-100,4,2,1,45,0,0
166952,-125,4,2,1,40,0,0
167828,-125,4,2,1,35,0,0
168704,-125,4,2,1,30,0,0
169580,-125,4,2,1,25,0,0
170456,-125,4,2,1,20,0,0
177463,-111.111111111111,4,2,1,65,0,0
178339,-90.9090909090909,4,2,1,75,0,0
179215,-76.9230769230769,4,2,1,70,0,0
180091,-83.3333333333333,4,2,1,65,0,0
180966,-90.9090909090909,4,2,1,60,0,0
187974,-111.111111111111,4,2,1,55,0,0
190601,-100,4,2,1,60,0,0
197609,-90.9090909090909,4,2,1,65,0,0
201112,-90.9090909090909,4,2,1,50,0,0
201988,-90.9090909090909,4,2,1,60,0,0
202864,-83.3333333333333,4,2,1,70,0,0
203740,-83.3333333333333,4,2,1,65,0,0
204616,-76.9230769230769,4,2,1,80,0,1
218631,-100,4,2,1,60,0,1
219507,-90.9090909090909,4,2,1,70,0,1
220383,-83.3333333333333,4,2,1,80,0,1
221258,-90.9090909090909,4,2,1,70,0,1
222134,-83.3333333333333,4,2,1,60,0,0
227390,-83.3333333333333,4,2,1,40,0,0
227828,-83.3333333333333,4,2,1,50,0,0
228266,-83.3333333333333,4,2,1,60,0,0

[Colours]
Combo1 : 244,156,77
Combo2 : 10,146,122
Combo3 : 103,154,250
Combo4 : 244,77,102
Combo5 : 205,240,66
Combo6 : 231,50,235

[HitObjects]
417,294,4032,6,0,P|451:282|495:280,2,71.9999978027344,4|2|2,3:2|0:0|3:2,0:0:0:0:
334,337,4689,1,10,0:0:0:0:
278,261,4908,2,0,P|280:225|292:191,1,71.9999978027344,2|2,3:2|0:0,0:0:0:0:
333,106,5346,1,2,3:2:0:0:
157,42,5784,2,0,P|87:39|44:95,1,143.999995605469,4|2,3:2|3:2,0:0:0:0:
54,186,6441,1,10,0:0:0:0:
137,228,6660,2,0,P|205:208|284:206,1,143.999995605469,2|10,3:2|3:0,0:0:0:0:
387,53,7536,6,0,P|353:41|309:39,2,71.9999978027344,4|2|2,3:2|0:0|3:2,0:0:0:0:
446,125,8193,1,10,0:0:0:0:
397,205,8412,2,0,P|385:239|383:283,1,71.9999978027344,2|2,3:2|0:0,0:0:0:0:
381,368,8850,1,2,3:2:0:0:
193,367,9288,2,0,P|190:331|178:297,1,71.9999978027344,12|10,3:2|0:0,0:0:0:0:
96,251,9726,2,0,B|84:220|63:195|63:195|106:177|143:149|143:149|175:205|175:205|212:177|255:159|255:159|238:141|231:117,1,359.999989013672,10|10,0:0|0:0,0:0:0:0:
190,33,11039,6,0,P|133:22|78:52,2,120,4|2|0,3:2|3:2|3:0,0:0:0:0:
273,44,12134,2,0,P|298:31|330:23,2,60,2|2|2,0:0|3:2|0:0,0:0:0:0:
231,117,12791,2,0,B|293:120|270:171|334:165,1,120,2|0,3:2|3:0,0:0:0:0:
487,132,13667,2,0,P|462:184|453:255,1,120,0|0,3:0|3:0,0:0:0:0:
402,312,14324,1,2,0:0:0:0:
402,312,14543,6,0,P|369:299|324:293,1,60,2|2,3:2|0:0,0:0:0:0:
276,343,14981,2,0,B|251:348|251:348|205:325|160:352,1,120,2|0,3:2|3:0,0:0:0:0:
83,317,15638,2,0,P|50:325|17:316,2,60,2|2|2,0:0|3:2|0:0,0:0:0:0:
138,253,16295,2,0,B|158:238|174:205|174:205|201:226|230:226,1,120,2|0,3:2|3:0,0:0:0:0:
395,209,17171,2,0,P|422:153|409:94,1,120,0|0,3:0|3:0,0:0:0:0:
343,47,17828,1,2,0:0:0:0:
343,47,18047,6,0,P|287:64|226:66,2,120,2|0|0,3:2|3:0|3:0,0:0:0:0:
302,210,19361,2,0,P|274:201|243:200,1,60,2|2,3:2|0:0,0:0:0:0:
181,257,19799,2,0,P|153:265|122:266,1,60,2|2,3:2|0:0,0:0:0:0:
48,226,20237,1,0,3:0:0:0:
105,68,20674,2,0,P|159:56|214:86,1,120,2|0,3:2|3:0,0:0:0:0:
278,139,21331,1,2,0:0:0:0:
278,139,21550,6,0,P|263:203|256:262,2,120,2|0|0,3:2|3:0|3:0,0:0:0:0:
346,89,22645,2,0,P|339:59|335:30,2,60,2|2|2,0:0|3:2|0:0,0:0:0:0:
412,141,23302,1,2,3:2:0:0:
412,141,25054,6,0,P|423:170|431:204,1,66.0000020141602,4|2,3:2|0:0,0:0:0:0:
425,290,25492,2,0,P|373:290|332:325,1,99.0000030212403,10|2,0:0|3:2,0:0:0:0:
214,275,26149,2,0,P|204:308|212:341,2,66.0000020141602,2|10|2,0:0|0:0|0:0,0:0:0:0:
283,224,26806,2,0,L|272:158,1,66.0000020141602,2|2,3:2|3:2,0:0:0:0:
297,123,27134,2,0,L|364:128,1,66.0000020141602,2|2,0:0|0:0,0:0:0:0:
361,41,27572,2,0,P|326:32|287:40,1,66.0000020141602,2|2,3:2|0:0,0:0:0:0:
255,49,27901,1,2,3:2:0:0:
85,24,28339,1,10,3:0:0:0:
31,91,28558,6,0,P|37:124|41:165,1,66.0000020141602,4|2,3:2|0:0,0:0:0:0:
50,241,28996,2,0,P|95:222|144:232,1,99.0000030212403,10|2,0:0|3:2,0:0:0:0:
264,274,29653,2,0,P|257:307|254:348,2,66.0000020141602,2|10|2,3:2|0:0|0:0,0:0:0:0:
320,208,30310,2,0,P|352:208|388:221,1,66.0000020141602,2|2,3:2|3:2,0:0:0:0:
421,240,30638,2,0,P|438:211|463:190,1,66.0000020141602,2|2,0:0|0:0,0:0:0:0:
453,104,31076,2,0,L|385:94,1,66.0000020141602,2|10,3:2|0:0,0:0:0:0:
345,88,31404,1,2,3:2:0:0:
224,209,31842,1,2,3:2:0:0:
154,158,32061,6,0,L|167:90,1,66.0000020141602,4|2,3:2|3:2,0:0:0:0:
138,59,32390,2,0,L|70:46,1,66.0000020141602,2|2,0:0|0:0,0:0:0:0:
14,109,32828,2,0,P|27:155|32:207,1,99.0000030212403,2|0,3:2|3:0,0:0:0:0:
30,291,33375,1,10,0:0:0:0:
30,291,33594,1,2,0:0:0:0:
102,337,33813,2,0,P|134:333|166:324,1,66.0000020141602,2|2,3:2|0:0,0:0:0:0:
204,302,34142,2,0,P|236:305|268:314,1,66.0000020141602,2|2,3:2|0:0,0:0:0:0:
345,275,34580,2,0,P|366:219|430:187,1,132.00000402832,2|8,3:2|0:0,0:0:0:0:
388,66,35346,1,10,3:0:0:0:
303,72,35565,6,0,L|237:79,1,66.0000020141602,4|2,3:2|0:0,0:0:0:0:
201,55,35893,1,2,3:2:0:0:
127,99,36112,2,0,L|134:165,1,66.0000020141602,2|8,0:0|0:0,0:0:0:0:
107,199,36441,2,0,P|91:258|124:319,1,132.00000402832,10|2,0:0|3:2,0:0:0:0:
290,278,37317,6,0,P|301:231|278:189,1,96,4|0,3:2|3:0,0:0:0:0:
257,106,37974,1,2,0:0:0:0:
257,106,38193,2,0,B|292:72|292:72|341:77,1,96,2|2,3:2|3:2,0:0:0:0:
408,128,38850,1,2,0:0:0:0:
408,128,39069,2,0,P|398:174|391:231,1,96,2|0,3:2|3:0,0:0:0:0:
355,301,39726,1,2,0:0:0:0:
355,301,39945,2,0,L|254:290,1,96,2|10,3:2|0:0,0:0:0:0:
173,280,40601,1,4,3:2:0:0:
248,122,41039,6,0,P|250:87|240:57,1,66.0000020141602,2|10,0:0|3:2,0:0:0:0:
169,9,41477,1,2,0:0:0:0:
104,65,41696,2,0,P|96:117|118:160,1,99.0000030212403,2|2,3:2|0:0,0:0:0:0:
142,191,42134,1,10,3:2:0:0:
201,253,42353,2,0,B|268:263|256:208|324:221,1,132.00000402832,2|2,0:0|0:0,0:0:0:0:
396,268,43010,1,10,3:2:0:0:
474,233,43229,2,0,P|465:165|442:104,1,132.00000402832,2|0,0:0|0:0,0:0:0:0:
361,78,43886,2,0,L|313:90,2,44.0000013427735,2|2|2,3:2|3:2|3:2,0:0:0:0:
393,30,44324,5,12,3:2:0:0:
393,30,44543,1,8,3:2:0:0:
470,275,45200,2,0,B|446:267|446:267|398:283|398:283|378:271,1,99.0000030212403,10|0,0:0|0:0,0:0:0:0:
250,256,45857,6,0,P|201:251|159:276,1,99.0000030212403,4|0,3:2|0:0,0:0:0:0:
132,308,46295,1,2,3:2:0:0:
132,308,46514,1,10,0:0:0:0:
50,279,46733,2,0,B|32:250|32:250|41:183,1,99.0000030212403,4|0,3:2|0:0,0:0:0:0:
48,143,47171,1,10,3:0:0:0:
123,102,47390,2,0,P|159:102|195:108,1,66.0000020141602,10|10,0:0|3:0,0:0:0:0:
260,59,47828,5,4,3:2:0:0:
319,118,48047,2,0,P|318:147|314:177,2,60,2|10|2,0:0|0:0|3:2,0:0:0:0:
387,68,48704,2,0,P|387:38|391:8,2,60,10|2|10,3:0|3:2|0:0,0:0:0:0:
448,126,49361,2,0,B|468:154|468:154|450:189|451:240,1,120,4|0,3:2|3:0,0:0:0:0:
387,293,50018,2,0,P|358:293|328:289,1,60,2|10,3:2|0:0,0:0:0:0:
256,192,50456,12,12,52207,0:0:0:0:
190,91,53083,6,0,P|150:86|111:89,1,77.9999964294435,4|10,3:2|0:0,0:0:0:0:
69,117,53412,2,0,P|58:155|67:196,1,77.9999964294435,2|2,0:0|3:2,0:0:0:0:
153,243,53850,2,0,P|155:281|150:320,1,77.9999964294435,2|2,3:2|3:2,0:0:0:0:
136,369,54178,1,10,0:0:0:0:
331,316,54616,1,10,0:0:0:0:
424,354,54835,6,0,P|428:315|439:278,1,77.9999964294435,2|10,3:2|0:0,0:0:0:0:
490,267,55164,2,0,P|485:228|474:191,1,77.9999964294435,2|2,0:0|3:2,0:0:0:0:
390,133,55601,2,0,P|351:137|314:148,1,77.9999964294435,2|2,3:2|3:2,0:0:0:0:
266,168,55930,1,10,0:0:0:0:
195,358,56368,1,10,0:0:0:0:
118,291,56587,6,0,P|80:279|42:275,1,77.9999964294435,2|10,3:2|0:0,0:0:0:0:
10,235,56915,2,0,P|8:196|25:162,1,77.9999964294435,2|2,0:0|3:2,0:0:0:0:
112,109,57353,2,0,P|150:113|187:124,1,77.9999964294435,2|2,3:2|3:2,0:0:0:0:
236,140,57682,1,10,0:0:0:0:
430,81,58120,1,10,0:0:0:0:
397,177,58339,6,0,P|397:220|413:253,1,77.9999964294435,2|10,3:2|0:0,0:0:0:0:
423,300,58667,2,0,B|388:298|372:324|372:324|339:314|316:334,1,116.999994644165,2|8,0:0|0:0,0:0:0:0:
223,370,59215,1,4,3:2:0:0:
21,348,59653,2,0,B|5:312|5:312|22:277,1,77.9999964294435,10|2,0:0|3:2,0:0:0:0:
93,204,60091,6,0,P|131:204|173:216,1,77.9999964294435,4|10,3:2|0:0,0:0:0:0:
218,229,60419,1,2,0:0:0:0:
322,118,60747,1,10,0:0:0:0:
235,65,60966,2,0,P|196:65|155:77,1,77.9999964294435,2|10,0:0|0:0,0:0:0:0:
57,66,61404,1,2,3:2:0:0:
57,66,61623,1,10,0:0:0:0:
38,165,61842,6,0,P|48:201|59:249,1,77.9999964294435,2|10,3:2|0:0,0:0:0:0:
49,291,62171,2,0,B|85:279|85:279|117:303|117:303|157:291,1,116.999994644165,2|8,0:0|0:0,0:0:0:0:
253,270,62718,1,2,0:0:0:0:
449,320,63156,2,0,B|414:337|414:337|378:322,1,77.9999964294435,2|10,3:2|0:0,0:0:0:0:
346,225,63594,6,0,P|351:185|363:148,1,77.9999964294435,2|10,3:2|0:0,0:0:0:0:
332,107,63923,2,0,P|293:100|254:109,1,77.9999964294435,2|2,0:0|3:2,0:0:0:0:
210,130,64251,1,10,0:0:0:0:
112,100,64470,2,0,P|116:59|127:19,2,77.9999964294435,2|10|2,0:0|0:0|3:2,0:0:0:0:
137,198,65127,1,10,0:0:0:0:
88,286,65346,6,0,P|147:299|198:277,2,116.999994644165,4|2|10,3:2|3:2|0:0,0:0:0:0:
20,209,66222,2,0,P|24:169|36:127,1,77.9999964294435,4|10,3:2|0:0,0:0:0:0:
119,76,66660,1,10,0:0:0:0:
119,76,66879,1,8,0:0:0:0:
213,112,67098,6,0,P|253:121|292:117,1,77.9999964294435,4|10,3:2|0:0,0:0:0:0:
328,84,67426,2,0,P|366:80|404:89,1,77.9999964294435,2|2,0:0|3:2,0:0:0:0:
467,169,67864,2,0,P|455:205|450:249,1,77.9999964294435,2|2,3:2|3:2,0:0:0:0:
444,295,68193,1,10,0:0:0:0:
242,276,68631,1,10,0:0:0:0:
156,331,68850,6,0,P|118:346|81:340,1,77.9999964294435,2|10,3:2|0:0,0:0:0:0:
48,302,69178,2,0,P|43:263|31:226,1,77.9999964294435,2|2,0:0|3:2,0:0:0:0:
96,148,69616,2,0,P|135:148|179:158,1,77.9999964294435,2|2,3:2|3:2,0:0:0:0:
222,170,69945,1,10,0:0:0:0:
383,293,70383,1,10,0:0:0:0:
467,237,70601,6,0,L|459:157,1,77.9999964294435,2|10,3:2|0:0,0:0:0:0:
410,142,70930,2,0,L|418:62,1,77.9999964294435,2|2,0:0|3:2,0:0:0:0:
327,15,71368,2,0,P|288:9|253:24,1,77.9999964294435,2|2,3:2|3:2,0:0:0:0:
212,55,71696,1,10,0:0:0:0:
22,126,72134,1,10,0:0:0:0:
114,167,72353,6,0,P|148:184|169:217,1,77.9999964294435,2|10,3:2|0:0,0:0:0:0:
210,248,72682,2,0,P|259:215|319:211,1,116.999994644165,2|8,0:0|0:0,0:0:0:0:
416,218,73229,1,4,0:0:0:0:
312,43,73667,2,0,P|319:80|324:124,1,77.9999964294435,10|10,0:0|0:0,0:0:0:0:
222,133,74105,6,0,P|184:122|142:134,1,77.9999964294435,4|10,3:2|0:0,0:0:0:0:
107,163,74434,2,0,P|117:217|124:282,1,116.999994644165,2|8,0:0|0:0,0:0:0:0:
207,337,74981,1,2,0:0:0:0:
351,194,75419,2,0,P|311:195|274:204,1,77.9999964294435,2|10,3:2|0:0,0:0:0:0:
176,233,75857,6,0,P|136:231|99:223,1,77.9999964294435,2|10,3:2|0:0,0:0:0:0:
64,186,76185,1,2,0:0:0:0:
54,91,76404,2,0,P|99:57|159:62,1,116.999994644165,2|4,3:2|3:2,0:0:0:0:
358,37,77171,2,0,P|352:73|349:123,1,77.9999964294435,10|2,0:0|3:2,0:0:0:0:
353,216,77609,5,8,0:0:0:0:
32,334,78485,2,0,P|64:335|97:341,1,66.0000020141602,4|10,3:2|0:0,0:0:0:0:
161,283,78923,2,0,P|159:250|153:217,1,66.0000020141602,10|10,0:0|3:0,0:0:0:0:
205,148,79361,6,0,P|256:162|306:145,2,107.999996704102,4|8|0,3:2|3:0|3:0,0:0:0:0:
132,100,80237,2,0,L|85:105,2,33.0000010070801,10|10|10,0:0|0:0|0:0,0:0:0:0:
158,66,80565,1,10,3:2:0:0:
344,8,81112,6,0,P|388:1|429:17,1,90,4|8,3:2|0:0,0:0:0:0:
466,43,81550,1,0,3:0:0:0:
490,129,81769,1,10,0:0:0:0:
320,191,82207,1,2,0:0:0:0:
320,191,82426,2,0,B|307:252|361:237|351:306,1,120,8|2,3:2|3:2,0:0:0:0:
261,306,83083,2,0,P|270:338|271:373,2,60,2|2|10,0:0|3:2|0:0,0:0:0:0:
189,250,83740,2,0,L|120:259,1,60,2|2,3:2|0:0,0:0:0:0:
61,201,84178,1,10,3:2:0:0:
61,201,84397,1,2,0:0:0:0:
97,118,84616,6,0,P|137:102|184:106,1,90,2|8,3:2|0:0,0:0:0:0:
222,126,85054,1,0,3:0:0:0:
271,200,85273,1,8,0:0:0:0:
262,289,85492,2,0,P|217:278|149:275,2,90,2|2|2,3:2|0:0|0:0,0:0:0:0:
324,354,86368,2,0,P|366:356|411:327,1,90,10|8,3:2|0:0,0:0:0:0:
432,295,86806,1,2,3:2:0:0:
432,204,87025,1,8,0:0:0:0:
370,138,87244,2,0,P|316:135|259:172,1,120,2|10,3:2|3:0,0:0:0:0:
116,276,88120,6,0,P|105:229|76:186,1,90,4|8,3:2|0:0,0:0:0:0:
48,164,88558,1,0,3:0:0:0:
58,74,88777,1,8,0:0:0:0:
238,76,89215,2,0,P|236:45|230:10,2,60,2|10|10,0:0|3:2|0:0,0:0:0:0:
223,165,89872,1,4,3:2:0:0:
161,230,90091,2,0,P|131:225|101:223,2,60,2|2|10,0:0|3:2|0:0,0:0:0:0:
205,308,90747,2,0,P|234:306|264:301,1,60,2|10,3:2|0:0,0:0:0:0:
349,332,91185,1,2,3:2:0:0:
349,332,91404,1,2,3:2:0:0:
429,292,91623,6,0,L|436:196,1,90,4|8,3:2|0:0,0:0:0:0:
468,171,92061,1,0,3:0:0:0:
428,90,92280,1,10,0:0:0:0:
248,82,92718,2,0,L|243:18,2,60,10|10|2,0:0|3:2|0:0,0:0:0:0:
197,157,93375,2,0,P|157:176|111:166,1,90,2|10,3:2|0:0,0:0:0:0:
75,142,93813,1,2,3:2:0:0:
23,215,94032,2,0,P|55:332|168:255,1,300,10|2,0:0|3:2,0:0:0:0:
318,58,96003,6,0,P|342:78|361:116,1,64,8|0,3:0|3:0,0:0:0:0:
371,146,96441,2,0,P|347:166|328:204,1,64,4|0,3:0|3:0,0:0:0:0:
319,245,96879,1,12,3:2:0:0:
92,267,97974,6,0,P|59:251|8:259,2,71.9999978027344,4|10|2,3:2|3:2|3:2,0:0:0:0:
156,329,98631,1,10,0:0:0:0:
358,326,100383,6,0,L|363:263,1,60,10|10,3:0|3:0,0:0:0:0:
402,244,100711,2,0,L|397:184,1,60,0|2,3:0|3:2,0:0:0:0:
387,94,101149,1,2,3:2:0:0:
162,38,102134,6,0,P|123:41|85:52,1,71.9999978027344,4|10,3:2|0:0,0:0:0:0:
58,93,102463,2,0,P|61:131|72:170,1,71.9999978027344,10|10,0:0|3:0,0:0:0:0:
170,202,102901,2,0,P|160:236|158:272,1,71.9999978027344,4|10,3:2|0:0,0:0:0:0:
154,326,103229,1,2,3:2:0:0:
368,352,103667,1,10,3:0:0:0:
425,271,103886,6,0,P|423:238|414:206,1,66.0000020141602,4|2,3:2|0:0,0:0:0:0:
377,183,104215,2,0,P|378:150|387:118,1,66.0000020141602,2|2,3:2|0:0,0:0:0:0:
342,44,104653,2,0,L|240:52,1,99.0000030212403,2|0,3:2|0:0,0:0:0:0:
164,18,105200,1,10,0:0:0:0:
164,18,105419,1,2,0:0:0:0:
98,73,105638,2,0,P|89:104|87:137,1,66.0000020141602,2|2,3:2|3:2,0:0:0:0:
123,161,105966,2,0,P|131:192|133:225,1,66.0000020141602,2|2,0:0|0:0,0:0:0:0:
81,294,106404,2,0,P|135:266|203:285,1,132.00000402832,2|8,3:2|0:0,0:0:0:0:
308,357,107171,1,2,3:2:0:0:
379,309,107390,6,0,P|376:272|370:235,1,66.0000020141602,4|2,3:2|0:0,0:0:0:0:
356,203,107718,1,2,3:2:0:0:
293,144,107937,2,0,P|295:111|300:78,1,66.0000020141602,2|8,0:0|0:0,0:0:0:0:
334,51,108266,2,0,B|386:95|403:33|456:81,1,132.00000402832,10|2,0:0|3:2,0:0:0:0:
496,199,109142,6,0,L|481:301,1,96,4|0,3:2|3:0,0:0:0:0:
411,345,109799,1,2,0:0:0:0:
411,345,110018,2,0,B|392:335|364:349|364:349|346:323|326:321,1,96,2|2,3:2|3:2,0:0:0:0:
245,292,110674,1,2,0:0:0:0:
245,292,110893,2,0,P|200:313|155:304,1,96,2|0,3:2|3:0,0:0:0:0:
145,218,111550,1,2,0:0:0:0:
145,218,111769,2,0,P|190:197|235:206,1,96,2|10,3:2|0:0,0:0:0:0:
314,240,112426,1,4,3:2:0:0:
382,82,112864,6,0,P|346:84|316:90,1,66.0000020141602,2|10,0:0|3:2,0:0:0:0:
231,100,113302,1,2,0:0:0:0:
166,43,113521,2,0,P|119:27|71:44,1,99.0000030212403,2|2,3:2|0:0,0:0:0:0:
39,68,113959,1,10,3:2:0:0:
14,150,114178,2,0,P|39:210|58:283,1,132.00000402832,2|2,0:0|0:0,0:0:0:0:
112,339,114835,1,10,3:2:0:0:
187,298,115054,2,0,P|220:246|204:179,1,132.00000402832,2|0,0:0|0:0,0:0:0:0:
143,119,115711,2,0,P|120:125|92:130,2,44.0000013427735,2|2|2,3:2|3:2|3:2,0:0:0:0:
181,76,116149,5,12,3:2:0:0:
181,76,117463,1,8,0:0:0:0:
251,27,117682,6,0,P|297:14|348:29,1,99.0000030212403,4|0,3:2|0:0,0:0:0:0:
380,51,118120,1,2,3:2:0:0:
380,51,118339,1,10,0:0:0:0:
365,135,118558,2,0,P|349:187|346:237,1,99.0000030212403,4|0,3:2|0:0,0:0:0:0:
348,274,118996,1,2,3:2:0:0:
278,334,119215,2,0,P|243:328|208:329,1,66.0000020141602,10|10,0:0|3:0,0:0:0:0:
133,361,119653,5,4,3:2:0:0:
69,305,119872,2,0,P|39:310|9:310,2,60,2|10|2,0:0|0:0|3:2,0:0:0:0:
124,241,120528,2,0,P|153:240|183:246,2,60,10|2|10,0:0|3:2|0:0,0:0:0:0:
60,185,121185,2,0,P|41:134|71:75,1,120,4|0,3:2|3:0,0:0:0:0:
139,33,121842,1,8,0:0:0:0:
255,153,122280,6,0,P|249:182|249:212,2,60,10|2|10,0:0|3:2|0:0,0:0:0:0:
303,83,122937,2,0,P|354:64|413:94,1,120,4|0,3:2|3:0,0:0:0:0:
452,163,123594,2,0,P|452:192|446:222,1,60,8|2,0:0|3:2,0:0:0:0:
375,267,124032,2,0,P|380:296|380:326,2,60,10|2|10,0:0|3:2|0:0,0:0:0:0:
321,201,124689,1,2,3:2:0:0:
240,170,124908,6,0,P|206:171|174:178,1,66.0000020141602,12|0,0:0|3:0,0:0:0:0:
134,194,125237,1,12,0:0:0:0:
86,313,125565,2,0,P|140:315|191:327,1,99.0000030212403,12|0,0:0|3:0,0:0:0:0:
303,371,126222,2,0,P|336:363|370:362,1,66.0000020141602,4|2,3:2|0:0,0:0:0:0:
423,286,126660,6,0,P|414:248|400:213,1,71.9999978027344,4|2,3:2|3:2,0:0:0:0:
365,188,126988,2,0,P|327:196|292:210,1,71.9999978027344,4|0,3:2|3:0,0:0:0:0:
254,231,127317,1,4,3:2:0:0:
254,231,127536,1,12,0:0:0:0:
207,149,127755,2,0,P|216:111|230:76,2,71.9999978027344,10|10|10,0:0|0:0|0:0,0:0:0:0:
119,114,128412,6,0,P|79:105|39:121,1,77.9999964294435,4|10,3:2|0:0,0:0:0:0:
6,150,128740,2,0,P|19:186|28:223,1,77.9999964294435,2|2,0:0|3:2,0:0:0:0:
118,273,129178,2,0,P|154:259|192:250,1,77.9999964294435,2|2,3:2|3:2,0:0:0:0:
243,243,129507,1,10,0:0:0:0:
407,361,129945,1,10,0:0:0:0:
480,291,130164,6,0,P|471:253|457:216,1,77.9999964294435,2|10,3:2|0:0,0:0:0:0:
415,187,130492,2,0,P|377:195|340:209,1,77.9999964294435,2|2,0:0|3:2,0:0:0:0:
259,148,130930,2,0,P|267:110|281:73,1,77.9999964294435,2|2,3:2|3:2,0:0:0:0:
304,28,131258,1,10,0:0:0:0:
106,72,131696,1,10,0:0:0:0:
151,162,131915,6,0,P|164:198|173:236,1,77.9999964294435,2|10,3:2|0:0,0:0:0:0:
126,257,132244,2,0,P|112:293|103:331,1,77.9999964294435,2|2,0:0|3:2,0:0:0:0:
4,307,132682,2,0,P|17:270|26:232,1,77.9999964294435,2|2,3:2|3:2,0:0:0:0:
34,182,133010,1,10,0:0:0:0:
177,38,133448,1,10,0:0:0:0:
267,83,133667,6,0,P|305:88|341:74,1,77.9999964294435,2|10,3:2|0:0,0:0:0:0:
388,54,133996,2,0,P|450:44|497:72,1,116.999994644165,2|8,0:0|0:0,0:0:0:0:
428,146,134543,1,4,3:2:0:0:
238,219,134981,2,0,B|222:255|222:255|239:290,1,77.9999964294435,10|2,0:0|3:2,0:0:0:0:
321,349,135419,6,0,P|360:338|399:333,1,77.9999964294435,4|10,3:2|0:0,0:0:0:0:
447,330,135747,1,2,0:0:0:0:
506,189,136076,1,10,0:0:0:0:
432,119,136295,2,0,P|394:105|353:113,1,77.9999964294435,2|10,0:0|0:0,0:0:0:0:
259,84,136733,1,2,3:2:0:0:
259,84,136952,1,10,0:0:0:0:
211,173,137171,6,0,L|221:251,1,77.9999964294435,2|10,3:2|0:0,0:0:0:0:
230,300,137499,2,0,P|177:285|113:305,1,116.999994644165,2|8,0:0|0:0,0:0:0:0:
32,354,138047,1,2,0:0:0:0:
3,153,138485,2,0,P|4:112|13:75,1,77.9999964294435,2|10,3:2|0:0,0:0:0:0:
108,40,138923,6,0,P|116:77|117:116,1,77.9999964294435,2|10,3:2|0:0,0:0:0:0:
147,157,139251,2,0,P|184:148|223:147,1,77.9999964294435,2|2,0:0|3:2,0:0:0:0:
265,176,139580,1,10,0:0:0:0:
333,250,139799,2,0,P|326:286|339:340,2,77.9999964294435,2|10|2,0:0|0:0|3:2,0:0:0:0:
401,175,140456,1,10,0:0:0:0:
353,86,140674,6,0,P|410:72|464:96,2,116.999994644165,12|10|10,0:0|0:0|0:0,0:0:0:0:
261,130,141550,2,0,L|183:118,1,77.9999964294435,4|10,3:2|0:0,0:0:0:0:
87,150,141988,1,10,0:0:0:0:
87,150,142207,1,8,0:0:0:0:
39,239,142426,6,0,P|58:272|67:310,1,77.9999964294435,4|10,3:2|0:0,0:0:0:0:
112,335,142755,2,0,P|145:315|183:306,1,77.9999964294435,2|2,0:0|3:2,0:0:0:0:
264,245,143193,2,0,P|254:207|235:173,1,77.9999964294435,2|2,3:2|3:2,0:0:0:0:
206,131,143521,1,10,0:0:0:0:
374,18,143959,1,10,0:0:0:0:
441,90,144178,6,0,P|431:129|428:168,1,77.9999964294435,2|10,3:2|0:0,0:0:0:0:
470,196,144507,2,0,P|479:235|483:274,1,77.9999964294435,2|2,0:0|3:2,0:0:0:0:
427,357,144945,2,0,L|346:349,1,77.9999964294435,2|2,3:2|3:2,0:0:0:0:
298,343,145273,1,10,0:0:0:0:
322,141,145711,1,10,0:0:0:0:
235,87,145930,6,0,P|197:87|159:100,1,77.9999964294435,2|10,3:2|0:0,0:0:0:0:
118,129,146258,2,0,P|81:116|42:116,1,77.9999964294435,2|2,0:0|3:2,0:0:0:0:
27,217,146696,2,0,P|63:229|102:229,1,77.9999964294435,2|2,3:2|3:2,0:0:0:0:
153,220,147025,1,10,0:0:0:0:
270,54,147463,1,10,0:0:0:0:
366,89,147682,6,0,P|404:88|441:76,1,77.9999964294435,2|10,3:2|0:0,0:0:0:0:
491,66,148010,2,0,B|483:106|483:106|499:142|499:142|491:178,1,116.999994644165,2|8,0:0|0:0,0:0:0:0:
462,275,148558,1,4,3:2:0:0:
280,185,148996,2,0,P|289:222|296:264,1,77.9999964294435,10|10,0:0|0:0,0:0:0:0:
235,343,149434,6,0,P|196:349|158:358,1,77.9999964294435,4|10,3:2|0:0,0:0:0:0:
109,347,149762,2,0,P|85:294|100:235,1,116.999994644165,2|8,0:0|0:0,0:0:0:0:
148,150,150310,1,2,0:0:0:0:
300,16,150747,2,0,L|222:29,1,77.9999964294435,2|10,3:2|0:0,0:0:0:0:
271,118,151185,6,0,L|347:105,1,77.9999964294435,2|10,3:2|0:0,0:0:0:0:
398,98,151514,1,2,0:0:0:0:
468,170,151733,2,0,P|422:204|407:260,1,116.999994644165,2|4,3:2|3:2,0:0:0:0:
206,292,152499,2,0,B|171:273|171:273|125:289,1,77.9999964294435,10|10,0:0|3:0,0:0:0:0:
38,317,152937,5,8,0:0:0:0:
251,47,153813,2,0,P|263:78|271:116,1,66.0000020141602,4|10,3:2|0:0,0:0:0:0:
206,167,154251,2,0,P|176:151|145:141,1,66.0000020141602,10|10,0:0|3:0,0:0:0:0:
76,192,154689,6,0,B|102:242|52:242|74:294,2,107.999996704102,4|8|0,3:2|3:0|3:0,0:0:0:0:
30,117,155565,1,8,0:0:0:0:
162,115,163448,6,0,P|237:161|315:126,1,180,4|2,0:0|0:0,0:0:0:0:
379,72,164324,2,0,P|439:75|467:128,1,120,2|2,0:0|0:0,0:0:0:0:
452,290,165200,2,0,P|419:284|387:282,1,60,2|2,0:0|0:0,0:0:0:0:
326,334,165638,1,2,0:0:0:0:
326,334,165857,1,2,0:0:0:0:
267,272,166076,2,0,P|258:240|267:207,1,60,2|2,0:0|0:0,0:0:0:0:
321,153,166514,2,0,P|326:123|317:95,1,60,2|2,0:0|0:0,0:0:0:0:
254,38,166952,6,0,P|160:30|60:64,3,192,2|2|2|2,0:0|0:0|0:0|0:0,0:0:0:0:
81,349,177463,5,4,3:2:0:0:
412,260,178339,1,4,3:2:0:0:
72,38,179215,1,4,3:2:0:0:
30,236,179653,1,4,3:2:0:0:
209,181,180091,2,0,P|279:170|341:214,1,143.999995605469,4|10,3:2|0:0,0:0:0:0:
491,132,180966,6,0,P|468:185|456:263,1,132.00000402832,4|8,3:2|0:0,0:0:0:0:
401,324,181623,1,2,3:2:0:0:
401,324,181842,2,0,B|337:300|337:356|273:324,1,132.00000402832,10|8,0:0|0:0,0:0:0:0:
112,265,182718,2,0,P|102:199|77:139,1,132.00000402832,2|8,3:2|0:0,0:0:0:0:
117,62,183375,1,2,3:2:0:0:
117,62,183594,2,0,P|179:52|234:91,1,132.00000402832,10|8,0:0|0:0,0:0:0:0:
372,191,184470,6,0,P|309:181|254:220,1,132.00000402832,4|8,3:2|0:0,0:0:0:0:
277,301,185127,1,2,3:2:0:0:
277,301,185346,2,0,P|339:310|394:271,1,132.00000402832,12|8,0:0|0:0,0:0:0:0:
480,123,186222,2,0,P|471:85|458:52,1,66.0000020141602,4|2,3:2|3:2,0:0:0:0:
385,19,186660,2,0,P|347:27|314:41,1,66.0000020141602,10|2,0:0|3:2,0:0:0:0:
250,85,187098,2,0,B|214:78|186:98|186:98|163:69|127:63,1,132.00000402832,10|8,0:0|0:0,0:0:0:0:
47,76,187755,1,2,3:2:0:0:
47,76,187974,6,0,P|24:150|54:230,1,161.999995056153,12|8,0:0|3:0,0:0:0:0:
111,289,188850,2,0,P|96:328|97:367,2,80.9999975280763,8|8|0,3:0|3:0|3:0,0:0:0:0:
181,237,189726,2,0,B|208:234|208:234|237:244,1,53.9999983520508,0|2,3:0|3:2,0:0:0:0:
310,283,190164,1,12,0:0:0:0:
456,192,190601,5,4,3:2:0:0:
256,348,192353,5,4,3:2:0:0:
56,192,194105,5,4,3:2:0:0:
256,36,195857,6,0,L|257:160,1,120,4|8,3:2|0:0,0:0:0:0:
391,233,196733,2,0,L|391:169,1,60,2|0,3:2|3:0,0:0:0:0:
391,88,197171,1,12,0:0:0:0:
256,155,197609,6,0,P|221:156|190:144,1,66.0000020141602,4|2,3:2|0:0,0:0:0:0:
155,123,197937,1,10,0:0:0:0:
26,118,198266,1,10,0:0:0:0:
5,201,198485,2,0,P|8:233|18:269,1,66.0000020141602,2|2,3:2|0:0,0:0:0:0:
81,322,198923,2,0,P|112:313|145:310,1,66.0000020141602,10|2,3:2|0:0,0:0:0:0:
230,325,199361,2,0,P|283:355|354:337,2,132.00000402832,2|0|2,3:2|3:0|3:2,0:0:0:0:
193,157,200674,2,0,P|189:124|180:89,1,66.0000020141602,10|10,3:2|0:0,0:0:0:0:
256,192,201112,12,4,203740,3:2:0:0:
312,318,204616,6,0,P|352:316|390:332,1,77.9999964294435,4|10,3:2|0:0,0:0:0:0:
435,313,204945,2,0,P|448:276|446:238,1,77.9999964294435,2|2,0:0|3:2,0:0:0:0:
376,164,205383,2,0,L|294:174,1,77.9999964294435,2|2,3:2|3:2,0:0:0:0:
248,180,205711,1,10,0:0:0:0:
95,314,206149,1,10,0:0:0:0:
99,212,206368,6,0,P|90:174|67:143,1,77.9999964294435,2|10,3:2|0:0,0:0:0:0:
37,101,206696,2,0,P|45:63|68:32,1,77.9999964294435,2|2,0:0|3:2,0:0:0:0:
169,18,207134,2,0,L|251:28,1,77.9999964294435,2|2,3:2|3:2,0:0:0:0:
297,34,207463,1,10,0:0:0:0:
291,237,207901,1,10,0:0:0:0:
379,286,208120,6,0,P|417:298|458:291,1,77.9999964294435,2|10,3:2|0:0,0:0:0:0:
498,267,208448,2,0,P|500:227|509:180,1,77.9999964294435,2|2,0:0|3:2,0:0:0:0:
469,94,208886,2,0,P|431:82|390:89,1,77.9999964294435,2|2,3:2|3:2,0:0:0:0:
344,102,209215,1,10,0:0:0:0:
151,38,209653,1,10,0:0:0:0:
65,92,209872,6,0,P|65:131|74:177,1,77.9999964294435,2|10,3:2|0:0,0:0:0:0:
112,199,210200,2,0,P|166:185|224:212,1,116.999994644165,2|8,0:0|0:0,0:0:0:0:
293,278,210747,1,4,3:2:0:0:
402,107,211185,2,0,B|440:102|440:102|469:130,1,77.9999964294435,10|2,0:0|3:2,0:0:0:0:
494,228,211623,6,0,P|472:261|465:300,1,77.9999964294435,4|10,3:2|0:0,0:0:0:0:
417,317,211952,2,0,P|384:295|345:288,1,77.9999964294435,2|2,0:0|3:2,0:0:0:0:
269,354,212390,2,0,B|219:315|209:369|157:335,1,116.999994644165,2|8,3:2|0:0,0:0:0:0:
102,252,212937,1,2,3:2:0:0:
102,252,213156,1,10,0:0:0:0:
161,169,213375,6,0,P|199:169|243:176,1,77.9999964294435,2|10,3:2|0:0,0:0:0:0:
283,150,213704,2,0,P|283:112|276:68,1,77.9999964294435,2|2,0:0|3:2,0:0:0:0:
190,18,214142,2,0,P|131:13|77:54,1,116.999994644165,2|10,3:2|0:0,0:0:0:0:
45,136,214689,1,2,3:2:0:0:
45,136,214908,1,10,0:0:0:0:
96,223,215127,6,0,P|101:261|101:300,1,77.9999964294435,4|10,3:2|0:0,0:0:0:0:
203,312,215565,2,0,P|237:295|276:297,1,77.9999964294435,2|10,3:2|0:0,0:0:0:0:
324,313,215893,1,2,3:2:0:0:
413,189,216222,1,10,0:0:0:0:
347,111,216441,6,0,P|309:109|271:128,1,77.9999964294435,2|10,3:2|0:0,0:0:0:0:
225,141,216769,2,0,P|186:142|151:126,1,77.9999964294435,2|2,0:0|0:0,0:0:0:0:
113,90,217098,1,10,0:0:0:0:
42,162,217317,2,0,P|51:200|56:246,1,77.9999964294435,2|10,3:2|0:0,0:0:0:0:
135,301,217755,2,0,P|183:244|261:263,1,155.999992858887,2|10,3:2|0:0,0:0:0:0:
433,356,218631,5,8,0:0:0:0:
239,72,219507,2,0,P|226:104|220:146,1,66.0000020141602,4|10,3:2|0:0,0:0:0:0:
153,189,219945,2,0,P|166:221|172:263,1,66.0000020141602,10|10,0:0|3:0,0:0:0:0:
242,301,220383,6,0,P|292:288|342:314,2,107.999996704102,4|8|0,3:2|3:0|3:0,0:0:0:0:
164,337,221258,2,0,P|128:334|97:327,1,66.0000020141602,10|10,0:0|0:0,0:0:0:0:
55,322,221587,1,2,3:2:0:0:
132,101,222134,6,0,P|131:63|114:29,2,71.9999978027344,4|2|2,3:2|0:0|3:2,0:0:0:0:
117,193,222791,1,10,0:0:0:0:
187,254,223010,2,0,P|223:245|258:243,1,71.9999978027344,2|2,3:2|0:0,0:0:0:0:
348,266,223448,1,2,3:2:0:0:
471,126,223886,2,0,P|425:73|348:72,1,143.999995605469,4|2,3:2|3:2,0:0:0:0:
279,125,224543,1,10,0:0:0:0:
186,139,224762,2,0,B|153:121|115:140|115:140|92:101|54:103,1,143.999995605469,2|10,3:2|3:0,0:0:0:0:
83,288,225638,6,0,P|68:320|67:356,2,71.9999978027344,4|2|2,3:2|0:0|3:2,0:0:0:0:
153,224,226295,1,10,0:0:0:0:
238,263,226514,2,0,P|272:272|308:273,1,71.9999978027344,2|2,3:2|0:0,0:0:0:0:
390,226,226952,1,2,3:2:0:0:
256,192,227390,12,12,229032,0:0:0:0:
