osu file format v14

[General]
AudioFilename: audio.mp3
AudioLeadIn: 0
PreviewTime: 57075
Countdown: 0
SampleSet: Normal
StackLeniency: 0.3
Mode: 1
LetterboxInBreaks: 0
WidescreenStoryboard: 0

[Editor]
DistanceSpacing: 1.3
BeatDivisor: 4
GridSize: 4
TimelineZoom: 2.5

[Metadata]
Title:DAYS of DASH (TV Size)
TitleUnicode:DAYS of DASH (TV Size)
Artist:Suzuki Konomi
ArtistUnicode:鈴木このみ
Creator:Kondou-Shinichi
Version:Oni
Source:さくら荘のペットな彼女
Tags:Sonnyc Sakurasou no Pet na Kanojo Ending 1 ED
BeatmapID:1393578
BeatmapSetID:657948

[Difficulty]
HPDrainRate:6
CircleSize:4
OverallDifficulty:6
ApproachRate:8
SliderMultiplier:1.4
SliderTickRate:1

[Events]
//Background and Video events
0,0,"Sakurasou.jpg",0,0
Video,0,"DAYSofDASH.avi"
//Break Periods
//Storyboard Layer 0 (Background)
//Storyboard Layer 1 (Fail)
//Storyboard Layer 2 (Pass)
//Storyboard Layer 3 (Foreground)
//Storyboard Sound Samples

[TimingPoints]
825,375,4,1,0,99,1,0
825,-111.111111111111,4,1,0,99,0,0
57825,-105.263157894737,4,1,0,99,0,0
58200,-100,4,1,0,99,0,1
81637,-100,4,1,0,99,0,0

[HitObjects]
114,69,825,5,0,0:0:0:0:
114,69,1012,1,2,0:0:0:0:
114,69,1387,1,0,0:0:0:0:
114,69,1575,1,2,0:0:0:0:
114,69,1762,1,0,0:0:0:0:
114,69,1949,1,2,0:0:0:0:
114,69,2137,1,2,0:0:0:0:
114,69,2324,1,0,0:0:0:0:
114,69,2512,1,0,0:0:0:0:
114,69,3450,1,0,0:0:0:0:
114,69,3543,1,2,0:0:0:0:
114,69,3637,1,2,0:0:0:0:
114,69,3731,1,0,0:0:0:0:
114,69,3825,1,2,0:0:0:0:
114,69,3918,1,0,0:0:0:0:
114,69,4012,1,2,0:0:0:0:
114,69,4200,1,0,0:0:0:0:
114,69,4293,1,0,0:0:0:0:
114,69,4387,1,2,0:0:0:0:
114,69,4575,1,2,0:0:0:0:
114,69,4762,1,0,0:0:0:0:
114,69,4950,1,2,0:0:0:0:
114,69,5137,1,2,0:0:0:0:
114,69,5325,1,0,0:0:0:0:
114,69,5512,1,2,0:0:0:0:
114,69,5887,1,0,0:0:0:0:
114,69,5981,1,2,0:0:0:0:
114,69,6075,1,2,0:0:0:0:
114,69,6168,1,2,0:0:0:0:
114,69,6262,1,2,0:0:0:0:
114,69,6450,1,0,0:0:0:0:
114,69,6543,1,0,0:0:0:0:
114,69,6637,1,2,0:0:0:0:
114,69,6825,1,0,0:0:0:0:
114,69,7012,1,2,0:0:0:0:
114,69,7200,1,2,0:0:0:0:
114,69,7387,1,0,0:0:0:0:
114,69,7481,1,2,0:0:0:0:
114,69,7668,1,0,0:0:0:0:
114,69,7762,1,2,0:0:0:0:
114,69,7950,1,0,0:0:0:0:
114,69,8137,1,2,0:0:0:0:
114,69,8325,1,0,0:0:0:0:
114,69,8512,1,2,0:0:0:0:
114,69,8700,1,2,0:0:0:0:
114,69,8887,1,0,0:0:0:0:
114,69,8981,1,2,0:0:0:0:
114,69,9168,1,0,0:0:0:0:
114,69,9262,1,2,0:0:0:0:
114,69,9450,1,0,0:0:0:0:
114,69,9543,1,0,0:0:0:0:
114,69,9637,1,2,0:0:0:0:
114,69,9731,1,2,0:0:0:0:
114,69,9825,1,0,0:0:0:0:
114,69,10012,1,0,0:0:0:0:
114,69,10200,1,2,0:0:0:0:
114,69,10387,1,0,0:0:0:0:
114,69,10481,1,2,0:0:0:0:
114,69,10668,1,0,0:0:0:0:
114,69,10762,1,2,0:0:0:0:
114,69,10950,1,0,0:0:0:0:
114,69,11137,1,2,0:0:0:0:
114,69,11512,1,2,0:0:0:0:
114,69,11887,1,0,0:0:0:0:
114,69,11981,1,0,0:0:0:0:
114,69,12075,1,2,0:0:0:0:
114,69,12262,1,0,0:0:0:0:
114,69,12450,1,2,0:0:0:0:
114,69,12637,1,0,0:0:0:0:
114,69,12731,1,0,0:0:0:0:
114,69,12825,1,2,0:0:0:0:
114,69,13200,1,0,0:0:0:0:
114,69,13575,1,0,0:0:0:0:
114,69,13950,1,0,0:0:0:0:
114,69,14325,1,0,0:0:0:0:
114,69,14512,1,0,0:0:0:0:
114,69,14700,1,2,0:0:0:0:
114,69,14887,1,0,0:0:0:0:
114,69,15262,1,0,0:0:0:0:
114,69,15450,1,2,0:0:0:0:
114,69,15637,1,0,0:0:0:0:
114,69,15731,1,0,0:0:0:0:
114,69,15825,1,2,0:0:0:0:
114,69,16012,1,0,0:0:0:0:
114,69,16200,1,0,0:0:0:0:
114,69,16387,1,2,0:0:0:0:
114,69,16575,1,0,0:0:0:0:
114,69,16668,1,0,0:0:0:0:
114,69,16762,1,2,0:0:0:0:
114,69,16950,1,0,0:0:0:0:
114,69,17137,1,2,0:0:0:0:
114,69,17325,1,0,0:0:0:0:
114,69,17512,1,2,0:0:0:0:
114,69,17700,1,0,0:0:0:0:
114,69,17887,1,0,0:0:0:0:
114,69,17981,1,0,0:0:0:0:
114,69,18075,1,2,0:0:0:0:
114,69,18262,1,0,0:0:0:0:
114,69,18637,1,0,0:0:0:0:
114,69,18731,1,0,0:0:0:0:
114,69,18825,1,2,0:0:0:0:
114,69,19012,1,2,0:0:0:0:
114,69,19200,1,0,0:0:0:0:
114,69,19387,1,2,0:0:0:0:
114,69,19762,1,2,0:0:0:0:
114,69,19856,1,0,0:0:0:0:
114,69,19950,1,0,0:0:0:0:
114,69,20137,1,2,0:0:0:0:
114,69,20325,1,0,0:0:0:0:
114,69,20512,1,0,0:0:0:0:
114,69,20700,1,2,0:0:0:0:
114,69,20887,1,0,0:0:0:0:
114,69,20981,1,0,0:0:0:0:
114,69,21075,1,2,0:0:0:0:
114,69,21262,1,0,0:0:0:0:
114,69,21450,1,2,0:0:0:0:
114,69,21637,1,2,0:0:0:0:
114,69,21731,1,0,0:0:0:0:
114,69,21825,1,0,0:0:0:0:
114,69,22012,1,2,0:0:0:0:
114,69,22200,1,2,0:0:0:0:
114,69,22387,1,2,0:0:0:0:
114,69,22481,1,0,0:0:0:0:
114,69,22575,1,0,0:0:0:0:
114,69,22762,1,2,0:0:0:0:
114,69,22856,1,0,0:0:0:0:
114,69,22950,1,2,0:0:0:0:
114,69,23137,1,2,0:0:0:0:
114,69,23512,1,0,0:0:0:0:
114,69,23700,1,2,0:0:0:0:
114,69,23887,1,2,0:0:0:0:
114,69,24262,1,2,0:0:0:0:
114,69,24450,1,2,0:0:0:0:
114,69,24637,1,2,0:0:0:0:
114,69,24825,1,0,0:0:0:0:
114,69,25012,1,2,0:0:0:0:
114,69,25200,1,0,0:0:0:0:
114,69,25387,1,0,0:0:0:0:
114,69,25481,1,2,0:0:0:0:
114,69,25668,1,0,0:0:0:0:
114,69,25762,1,2,0:0:0:0:
114,69,25950,1,0,0:0:0:0:
114,69,26137,1,2,0:0:0:0:
114,69,26325,1,0,0:0:0:0:
114,69,26513,1,0,0:0:0:0:
114,69,26700,1,2,0:0:0:0:
114,69,26888,1,0,0:0:0:0:
114,69,26981,1,2,0:0:0:0:
114,69,27168,1,0,0:0:0:0:
114,69,27263,1,2,0:0:0:0:
114,69,27450,1,2,0:0:0:0:
114,69,27543,1,0,0:0:0:0:
114,69,27637,1,0,0:0:0:0:
114,69,27731,1,2,0:0:0:0:
114,69,27825,1,2,0:0:0:0:
114,69,28013,1,2,0:0:0:0:
114,69,28200,1,0,0:0:0:0:
114,69,28387,1,0,0:0:0:0:
114,69,28481,1,2,0:0:0:0:
114,69,28668,1,0,0:0:0:0:
114,69,28762,1,2,0:0:0:0:
114,69,28950,1,0,0:0:0:0:
114,69,29137,1,2,0:0:0:0:
114,69,29231,1,0,0:0:0:0:
114,69,29325,1,0,0:0:0:0:
114,69,29512,1,0,0:0:0:0:
114,69,29700,1,2,0:0:0:0:
114,69,29887,1,0,0:0:0:0:
114,69,30168,1,0,0:0:0:0:
114,69,30262,1,2,0:0:0:0:
114,69,30450,1,2,0:0:0:0:
114,69,30543,1,0,0:0:0:0:
114,69,30637,1,0,0:0:0:0:
114,69,30731,1,0,0:0:0:0:
114,69,30825,1,0,0:0:0:0:
114,69,31012,1,0,0:0:0:0:
114,69,31200,1,2,0:0:0:0:
114,69,31387,1,0,0:0:0:0:
114,69,31575,1,0,0:0:0:0:
114,69,31668,1,0,0:0:0:0:
114,69,31762,1,2,0:0:0:0:
114,69,31950,1,0,0:0:0:0:
114,69,32137,1,2,0:0:0:0:
114,69,32325,1,0,0:0:0:0:
114,69,32512,1,0,0:0:0:0:
114,69,32700,1,2,0:0:0:0:
114,69,32887,1,0,0:0:0:0:
114,69,33262,1,0,0:0:0:0:
114,69,33356,1,0,0:0:0:0:
114,69,33450,1,2,0:0:0:0:
114,69,33637,1,0,0:0:0:0:
114,69,33825,1,2,0:0:0:0:
114,69,34012,1,0,0:0:0:0:
114,69,34200,1,2,0:0:0:0:
114,69,34387,1,2,0:0:0:0:
114,69,34575,1,0,0:0:0:0:
114,69,34762,1,2,0:0:0:0:
114,69,34856,1,0,0:0:0:0:
114,69,34950,1,0,0:0:0:0:
114,69,35137,1,2,0:0:0:0:
114,69,35325,1,0,0:0:0:0:
114,69,35512,1,2,0:0:0:0:
114,69,35700,1,0,0:0:0:0:
114,69,35887,1,0,0:0:0:0:
114,69,36168,1,0,0:0:0:0:
114,69,36262,1,0,0:0:0:0:
114,69,36356,1,0,0:0:0:0:
114,69,36450,1,2,0:0:0:0:
114,69,36637,1,2,0:0:0:0:
114,69,36825,1,0,0:0:0:0:
114,69,37012,1,2,0:0:0:0:
114,69,37200,1,2,0:0:0:0:
114,69,37387,1,2,0:0:0:0:
114,69,37575,1,0,0:0:0:0:
114,69,37762,1,2,0:0:0:0:
114,69,37856,1,0,0:0:0:0:
114,69,37950,1,0,0:0:0:0:
114,69,38137,1,2,0:0:0:0:
114,69,38325,1,0,0:0:0:0:
114,69,38512,1,0,0:0:0:0:
114,69,38700,1,2,0:0:0:0:
114,69,38887,1,0,0:0:0:0:
114,69,39262,1,0,0:0:0:0:
114,69,39356,1,0,0:0:0:0:
114,69,39450,1,2,0:0:0:0:
114,69,39637,1,2,0:0:0:0:
114,69,39825,1,0,0:0:0:0:
114,69,40012,1,2,0:0:0:0:
114,69,40200,1,2,0:0:0:0:
114,69,40387,1,2,0:0:0:0:
114,69,40762,1,2,0:0:0:0:
114,69,40950,1,0,0:0:0:0:
114,69,41137,1,2,0:0:0:0:
114,69,41512,1,0,0:0:0:0:
114,69,41700,1,2,0:0:0:0:
114,69,41887,1,0,0:0:0:0:
114,69,42075,1,0,0:0:0:0:
114,69,42168,1,2,0:0:0:0:
114,69,42262,1,0,0:0:0:0:
114,69,42356,1,0,0:0:0:0:
114,69,42450,1,2,0:0:0:0:
114,69,42637,1,0,0:0:0:0:
114,69,42825,1,2,0:0:0:0:
114,69,43200,1,2,0:0:0:0:
114,69,43575,1,2,0:0:0:0:
114,69,43762,1,0,0:0:0:0:
114,69,43950,1,2,0:0:0:0:
114,69,44137,1,0,0:0:0:0:
114,69,44325,1,2,0:0:0:0:
114,69,44700,1,2,0:0:0:0:
114,69,44887,1,0,0:0:0:0:
114,69,45075,1,2,0:0:0:0:
114,69,45450,1,2,0:0:0:0:
114,69,45825,1,2,0:0:0:0:
114,69,46012,1,2,0:0:0:0:
114,69,46200,1,2,0:0:0:0:
114,69,46575,1,0,0:0:0:0:
114,69,46762,1,2,0:0:0:0:
114,69,46950,1,2,0:0:0:0:
114,69,47137,1,2,0:0:0:0:
114,69,47512,1,0,0:0:0:0:
114,69,47700,1,2,0:0:0:0:
114,69,47887,1,0,0:0:0:0:
114,69,48075,1,2,0:0:0:0:
114,69,48262,1,0,0:0:0:0:
114,69,48356,1,0,0:0:0:0:
114,69,48450,1,2,0:0:0:0:
114,69,48637,1,2,0:0:0:0:
114,69,48825,1,2,0:0:0:0:
114,69,49200,1,2,0:0:0:0:
114,69,49575,1,2,0:0:0:0:
114,69,49762,1,0,0:0:0:0:
114,69,49950,1,2,0:0:0:0:
114,69,50325,1,2,0:0:0:0:
114,69,50512,1,0,0:0:0:0:
114,69,50700,1,2,0:0:0:0:
114,69,50887,1,0,0:0:0:0:
114,69,51075,1,2,0:0:0:0:
114,69,51450,1,2,0:0:0:0:
114,69,51637,1,0,0:0:0:0:
114,69,51825,1,2,0:0:0:0:
114,69,52200,1,0,0:0:0:0:
114,69,52575,1,2,0:0:0:0:
114,69,52762,1,0,0:0:0:0:
114,69,52950,1,0,0:0:0:0:
114,69,53325,1,2,0:0:0:0:
114,69,53700,1,0,0:0:0:0:
114,69,53887,1,0,0:0:0:0:
114,69,53981,1,0,0:0:0:0:
114,69,54075,1,2,0:0:0:0:
114,69,54168,1,2,0:0:0:0:
114,69,54262,1,0,0:0:0:0:
114,69,54637,1,0,0:0:0:0:
114,69,54825,1,2,0:0:0:0:
114,69,55200,1,0,0:0:0:0:
114,69,55387,1,2,0:0:0:0:
114,69,55575,1,0,0:0:0:0:
114,69,55762,1,2,0:0:0:0:
114,69,55950,1,0,0:0:0:0:
114,69,56137,1,2,0:0:0:0:
114,69,56325,1,2,0:0:0:0:
114,69,56418,1,2,0:0:0:0:
114,69,56512,1,0,0:0:0:0:
114,69,56700,1,0,0:0:0:0:
114,69,56887,1,2,0:0:0:0:
114,69,56981,1,2,0:0:0:0:
114,69,57075,1,0,0:0:0:0:
114,69,57262,1,2,0:0:0:0:
114,69,57325,1,2,0:0:0:0:
114,69,57387,1,2,0:0:0:0:
114,69,57450,1,2,0:0:0:0:
114,69,57825,1,6,0:0:0:0:
114,69,58200,1,0,0:0:0:0:
114,69,58387,1,2,0:0:0:0:
114,69,58481,1,2,0:0:0:0:
114,69,58575,1,0,0:0:0:0:
114,69,58762,1,2,0:0:0:0:
114,69,58950,1,0,0:0:0:0:
114,69,59137,1,2,0:0:0:0:
114,69,59231,1,2,0:0:0:0:
114,69,59325,1,0,0:0:0:0:
114,69,59512,1,2,0:0:0:0:
114,69,59700,1,0,0:0:0:0:
114,69,59887,1,2,0:0:0:0:
114,69,59981,1,0,0:0:0:0:
114,69,60168,1,0,0:0:0:0:
114,69,60262,1,2,0:0:0:0:
114,69,60450,1,0,0:0:0:0:
114,69,60543,1,0,0:0:0:0:
114,69,60637,1,2,0:0:0:0:
114,69,60731,1,2,0:0:0:0:
114,69,60825,1,0,0:0:0:0:
114,69,61200,1,0,0:0:0:0:
114,69,61387,1,2,0:0:0:0:
114,69,61481,1,2,0:0:0:0:
114,69,61575,1,0,0:0:0:0:
114,69,61762,1,2,0:0:0:0:
114,69,61950,1,0,0:0:0:0:
114,69,62137,1,2,0:0:0:0:
114,69,62231,1,2,0:0:0:0:
114,69,62325,1,0,0:0:0:0:
114,69,62512,1,2,0:0:0:0:
114,69,62700,1,0,0:0:0:0:
114,69,62887,1,2,0:0:0:0:
114,69,62981,1,0,0:0:0:0:
114,69,63168,1,0,0:0:0:0:
114,69,63262,1,2,0:0:0:0:
114,69,63450,1,0,0:0:0:0:
114,69,63637,1,2,0:0:0:0:
114,69,63731,1,2,0:0:0:0:
114,69,63825,1,0,0:0:0:0:
114,69,64200,1,0,0:0:0:0:
114,69,64387,1,2,0:0:0:0:
114,69,64481,1,2,0:0:0:0:
114,69,64575,1,0,0:0:0:0:
114,69,64762,1,2,0:0:0:0:
114,69,64950,1,0,0:0:0:0:
114,69,65137,1,2,0:0:0:0:
114,69,65231,1,2,0:0:0:0:
114,69,65325,1,0,0:0:0:0:
114,69,65512,1,2,0:0:0:0:
114,69,65700,1,0,0:0:0:0:
114,69,65887,1,2,0:0:0:0:
114,69,66262,1,2,0:0:0:0:
114,69,66450,1,2,0:0:0:0:
114,69,66637,1,2,0:0:0:0:
114,69,66731,1,2,0:0:0:0:
114,69,66825,1,0,0:0:0:0:
114,69,67012,1,0,0:0:0:0:
114,69,67200,1,2,0:0:0:0:
114,69,67387,1,2,0:0:0:0:
114,69,67575,1,0,0:0:0:0:
114,69,67762,1,2,0:0:0:0:
114,69,67856,1,2,0:0:0:0:
114,69,67950,1,0,0:0:0:0:
114,69,68137,1,0,0:0:0:0:
114,69,68231,1,2,0:0:0:0:
114,69,68325,1,2,0:0:0:0:
114,69,68700,1,2,0:0:0:0:
114,69,68887,1,2,0:0:0:0:
114,69,69262,1,2,0:0:0:0:
114,69,69450,1,0,0:0:0:0:
114,69,69637,1,0,0:0:0:0:
114,69,69731,1,2,0:0:0:0:
114,69,69825,1,2,0:0:0:0:
114,69,70200,1,0,0:0:0:0:
114,69,70388,1,2,0:0:0:0:
114,69,70481,1,2,0:0:0:0:
114,69,70575,1,0,0:0:0:0:
114,69,70763,1,2,0:0:0:0:
114,69,70950,1,0,0:0:0:0:
114,69,71138,1,2,0:0:0:0:
114,69,71231,1,2,0:0:0:0:
114,69,71325,1,0,0:0:0:0:
114,69,71513,1,2,0:0:0:0:
114,69,71700,1,0,0:0:0:0:
114,69,71887,1,2,0:0:0:0:
114,69,71981,1,0,0:0:0:0:
114,69,72168,1,0,0:0:0:0:
114,69,72263,1,2,0:0:0:0:
114,69,72449,1,0,0:0:0:0:
114,69,72543,1,0,0:0:0:0:
114,69,72637,1,2,0:0:0:0:
114,69,72731,1,2,0:0:0:0:
114,69,72825,1,0,0:0:0:0:
114,69,73200,1,0,0:0:0:0:
114,69,73387,1,2,0:0:0:0:
114,69,73481,1,2,0:0:0:0:
114,69,73575,1,0,0:0:0:0:
114,69,73762,1,2,0:0:0:0:
114,69,73950,1,0,0:0:0:0:
114,69,74137,1,2,0:0:0:0:
114,69,74231,1,2,0:0:0:0:
114,69,74325,1,0,0:0:0:0:
114,69,74512,1,2,0:0:0:0:
114,69,74700,1,0,0:0:0:0:
114,69,74887,1,2,0:0:0:0:
114,69,75262,1,2,0:0:0:0:
114,69,75450,1,0,0:0:0:0:
114,69,75637,1,2,0:0:0:0:
114,69,75825,1,0,0:0:0:0:
114,69,76012,1,2,0:0:0:0:
114,69,76200,1,2,0:0:0:0:
114,69,76387,1,0,0:0:0:0:
114,69,76481,1,2,0:0:0:0:
114,69,76575,1,2,0:0:0:0:
114,69,76762,1,0,0:0:0:0:
114,69,76950,1,2,0:0:0:0:
114,69,77137,1,2,0:0:0:0:
114,69,77231,1,2,0:0:0:0:
114,69,77325,1,0,0:0:0:0:
114,69,77512,1,2,0:0:0:0:
114,69,77700,1,2,0:0:0:0:
114,69,77887,1,2,0:0:0:0:
114,69,78075,1,2,0:0:0:0:
114,69,78450,1,2,0:0:0:0:
114,69,78637,1,2,0:0:0:0:
114,69,78731,1,2,0:0:0:0:
114,69,78825,1,0,0:0:0:0:
114,69,79012,1,0,0:0:0:0:
114,69,79200,1,2,0:0:0:0:
114,69,79387,1,0,0:0:0:0:
114,69,79762,1,0,0:0:0:0:
114,69,79950,1,2,0:0:0:0:
114,69,80043,1,2,0:0:0:0:
114,69,80137,1,0,0:0:0:0:
114,69,80512,1,2,0:0:0:0:
114,69,80700,1,2,0:0:0:0:
114,69,80887,1,2,0:0:0:0:
114,69,80981,1,0,0:0:0:0:
114,69,81075,1,0,0:0:0:0:
114,69,81262,1,2,0:0:0:0:
114,69,81450,1,2,0:0:0:0:
114,69,81637,1,6,0:0:0:0:
