osu file format v14

[General]
AudioFilename: audio.mp3
AudioLeadIn: 0
PreviewTime: 57075
Countdown: 0
SampleSet: None
StackLeniency: 0.3
Mode: 1
LetterboxInBreaks: 0
WidescreenStoryboard: 1

[Editor]
DistanceSpacing: 1.3
BeatDivisor: 4
GridSize: 4
TimelineZoom: 0.6

[Metadata]
Title:DAYS of DASH (TV Size)
TitleUnicode:DAYS of DASH (TV Size)
Artist:Suzuki Konomi
ArtistUnicode:鈴木このみ
Creator:Kondou-Shinichi
Version:Kantan
Source:さくら荘のペットな彼女
Tags:Sonnyc Sakurasou no Pet na Kanojo Ending 1 ED
BeatmapID:1393644
BeatmapSetID:657948

[Difficulty]
HPDrainRate:8
CircleSize:4
OverallDifficulty:3
ApproachRate:8
SliderMultiplier:1.4
SliderTickRate:1

[Events]
//Background and Video events
0,0,"Sakurasou.jpg",0,0
Video,0,"DAYSofDASH.avi"
//Break Periods
//Storyboard Layer 0 (Background)
//Storyboard Layer 1 (Fail)
//Storyboard Layer 2 (Pass)
//Storyboard Layer 3 (Foreground)
//Storyboard Sound Samples

[TimingPoints]
825,375,4,1,0,99,1,0
825,-133.333333333333,4,1,0,99,0,0
57825,-128.205128205128,4,1,0,99,0,0
58200,-125,4,1,0,99,0,1
81637,-125,4,1,0,99,0,0

[HitObjects]
90,60,825,5,0,0:0:0:0:
90,60,1387,1,0,0:0:0:0:
90,60,2325,1,2,0:0:0:0:
90,60,3450,1,2,0:0:0:0:
90,60,3825,1,0,0:0:0:0:
90,60,4387,1,0,0:0:0:0:
90,60,4950,1,0,0:0:0:0:
90,60,5512,1,2,0:0:0:0:
90,60,6075,1,0,0:0:0:0:
90,60,6825,1,2,0:0:0:0:
90,60,7387,1,0,0:0:0:0:
90,60,7950,1,0,0:0:0:0:
90,60,8700,1,0,0:0:0:0:
90,60,9262,1,2,0:0:0:0:
90,60,9825,1,0,0:0:0:0:
90,60,10387,1,2,0:0:0:0:
90,60,11137,1,2,0:0:0:0:
90,60,12825,1,2,0:0:0:0:
90,60,13575,1,0,0:0:0:0:
90,60,14325,1,2,0:0:0:0:
90,60,14887,1,0,0:0:0:0:
90,60,15825,1,2,0:0:0:0:
90,60,16575,1,0,0:0:0:0:
90,60,17325,1,2,0:0:0:0:
90,60,17887,1,0,0:0:0:0:
90,60,18825,1,2,0:0:0:0:
90,60,19575,1,0,0:0:0:0:
90,60,20325,1,2,0:0:0:0:
90,60,20887,1,0,0:0:0:0:
90,60,21825,1,0,0:0:0:0:
90,60,22387,1,2,0:0:0:0:
90,60,23137,1,2,0:0:0:0:
90,60,23700,1,2,0:0:0:0:
90,60,24637,1,0,0:0:0:0:
90,60,25200,1,2,0:0:0:0:
90,60,25950,1,0,0:0:0:0:
90,60,26887,1,2,0:0:0:0:
90,60,27450,1,2,0:0:0:0:
90,60,28387,1,2,0:0:0:0:
90,60,28950,1,0,0:0:0:0:
90,60,29887,1,2,0:0:0:0:
90,60,30825,1,0,0:0:0:0:
90,60,31575,1,0,0:0:0:0:
90,60,32325,1,2,0:0:0:0:
90,60,32887,1,0,0:0:0:0:
90,60,33825,1,0,0:0:0:0:
90,60,34575,1,0,0:0:0:0:
90,60,35325,1,2,0:0:0:0:
90,60,35887,1,0,0:0:0:0:
90,60,36825,1,0,0:0:0:0:
90,60,37575,1,0,0:0:0:0:
90,60,38325,1,2,0:0:0:0:
90,60,38887,1,0,0:0:0:0:
90,60,39825,1,0,0:0:0:0:
90,60,40387,1,2,0:0:0:0:
90,60,41137,1,2,0:0:0:0:
90,60,41887,1,0,0:0:0:0:
90,60,42825,1,2,0:0:0:0:
90,60,43575,1,0,0:0:0:0:
90,60,44325,1,2,0:0:0:0:
90,60,45075,1,0,0:0:0:0:
90,60,45825,1,2,0:0:0:0:
90,60,46575,1,0,0:0:0:0:
90,60,47137,1,2,0:0:0:0:
90,60,47700,1,0,0:0:0:0:
90,60,48825,1,2,0:0:0:0:
90,60,49575,1,0,0:0:0:0:
90,60,50325,1,2,0:0:0:0:
90,60,51075,1,0,0:0:0:0:
90,60,51825,1,2,0:0:0:0:
90,60,53325,1,0,0:0:0:0:
90,60,54825,1,2,0:0:0:0:
90,60,55575,1,0,0:0:0:0:
90,60,56325,1,0,0:0:0:0:
90,60,57075,1,2,0:0:0:0:
90,60,57450,1,2,0:0:0:0:
90,60,57825,1,6,0:0:0:0:
90,60,58387,1,0,0:0:0:0:
90,60,58762,1,2,0:0:0:0:
90,60,59325,1,0,0:0:0:0:
90,60,59887,1,2,0:0:0:0:
90,60,60637,1,0,0:0:0:0:
90,60,61387,1,0,0:0:0:0:
90,60,61762,1,2,0:0:0:0:
90,60,62325,1,0,0:0:0:0:
90,60,62887,1,2,0:0:0:0:
90,60,63637,1,0,0:0:0:0:
90,60,64387,1,0,0:0:0:0:
90,60,64762,1,2,0:0:0:0:
90,60,65325,1,0,0:0:0:0:
90,60,65887,1,2,0:0:0:0:
90,60,66637,1,0,0:0:0:0:
90,60,67200,1,0,0:0:0:0:
90,60,67762,1,0,0:0:0:0:
90,60,68325,1,2,0:0:0:0:
90,60,68887,1,2,0:0:0:0:
90,60,69450,1,2,0:0:0:0:
90,60,69825,1,0,0:0:0:0:
90,60,70387,1,0,0:0:0:0:
90,60,70762,1,2,0:0:0:0:
90,60,71325,1,0,0:0:0:0:
90,60,71887,1,2,0:0:0:0:
90,60,72637,1,0,0:0:0:0:
90,60,73387,1,0,0:0:0:0:
90,60,73762,1,0,0:0:0:0:
90,60,74325,1,0,0:0:0:0:
90,60,74887,1,2,0:0:0:0:
90,60,75637,1,2,0:0:0:0:
90,60,76387,1,0,0:0:0:0:
90,60,77137,1,2,0:0:0:0:
90,60,77700,1,0,0:0:0:0:
90,60,78075,1,2,0:0:0:0:
90,60,78450,1,0,0:0:0:0:
90,60,79387,1,2,0:0:0:0:
90,60,80137,1,0,0:0:0:0:
90,60,80700,1,0,0:0:0:0:
90,60,81262,1,2,0:0:0:0:
90,60,81637,1,6,0:0:0:0:
