osu file format v14

[General]
AudioFilename: audio.mp3
AudioLeadIn: 0
PreviewTime: 135012
Countdown: 0
SampleSet: Soft
StackLeniency: 0.4
Mode: 0
LetterboxInBreaks: 0
WidescreenStoryboard: 0

[Editor]
DistanceSpacing: 0.9
BeatDivisor: 4
GridSize: 4
TimelineZoom: 2

[Metadata]
Title:DAYS of DASH
TitleUnicode:DAYS of DASH
Artist:Suzuki Konomi
ArtistUnicode:鈴木このみ
Creator:Kalibe
Version:Brilliance
Source:さくら荘のペットな彼女
Tags:Sakurasou no Pet na Kanojo full ver ending akitoshi rizen deppyforce pkhg
BeatmapID:1095507
BeatmapSetID:515921

[Difficulty]
HPDrainRate:7
CircleSize:4
OverallDifficulty:8
ApproachRate:9
SliderMultiplier:1.77
SliderTickRate:1

[Events]
//Background and Video events
0,0,"643905.jpg",0,0
//Break Periods
2,199150,210350
//Storyboard Layer 0 (Background)
//Storyboard Layer 1 (Fail)
//Storyboard Layer 2 (Pass)
//Storyboard Layer 3 (Foreground)
//Storyboard Sound Samples

[TimingPoints]
2450,375,4,2,1,55,1,0
2450,-125,4,2,1,55,0,0
2637,-125,4,2,2,55,0,0
7137,-90.9090909090909,4,2,1,65,0,0
8450,-100,4,2,1,60,0,0
18762,-125,4,2,1,60,0,0
20450,-111.111111111111,4,2,2,50,0,0
32450,-100,4,2,1,60,0,0
38450,-111.111111111111,4,2,2,55,0,0
50450,-111.111111111111,4,2,1,55,0,0
59450,-125,4,2,2,50,0,0
62450,-111.111111111111,4,2,2,55,0,0
63575,-111.111111111111,4,2,1,60,0,0
64700,-90.9090909090908,4,2,2,70,0,0
65075,-83.3333333333333,4,2,1,75,0,0
65450,-76.9230769230769,4,2,1,80,0,1
65731,-76.9230769230769,4,2,1,5,0,1
65825,-90.9090909090909,4,2,1,65,0,1
75950,-83.3333333333333,4,2,1,75,0,0
76231,-83.3333333333333,4,2,1,5,0,0
76325,-83.3333333333333,4,2,1,65,0,0
76418,-83.3333333333333,4,2,1,5,0,0
76512,-100,4,2,1,70,0,0
76793,-100,4,2,1,5,0,0
76887,-76.9230769230769,4,2,1,75,0,0
77075,-76.9230769230769,4,2,1,70,0,0
77450,-90.9090909090909,4,2,1,65,0,1
83450,-90.9090909090909,4,2,1,70,0,1
87762,-111.111111111111,4,2,2,50,0,0
88512,-90.9090909090909,4,2,1,65,0,0
89075,-90.9090909090909,4,2,2,65,0,0
89450,-100,4,2,1,65,0,0
89637,-125,4,2,1,60,0,0
92075,-125,4,2,2,60,0,0
92637,-125,4,2,1,60,0,0
94325,-90.9090909090909,4,2,1,65,0,0
94606,-90.9090909090909,4,2,1,5,0,0
94700,-125,4,2,1,55,0,0
95450,-111.111111111111,4,2,2,55,0,0
107262,-90.9090909090908,4,2,1,70,0,0
108950,-100,4,2,2,60,0,0
120950,-111.111111111111,4,2,1,55,0,0
126950,-111.111111111111,4,2,1,50,0,0
128450,-111.111111111111,4,2,1,55,0,0
129950,-125,4,2,1,50,0,0
132950,-142.857142857143,4,2,1,55,0,0
133606,-142.857142857143,4,2,1,5,0,0
133700,-125,4,2,1,50,0,0
134450,-100,4,2,1,65,0,0
135200,-90.9090909090909,4,2,2,70,0,0
135575,-83.3333333333333,4,2,1,75,0,0
135950,-76.9230769230769,4,2,1,80,0,1
136231,-76.9230769230769,4,2,1,5,0,1
136325,-90.9090909090909,4,2,1,65,0,1
146450,-83.3333333333333,4,2,1,75,0,0
146731,-83.3333333333333,4,2,1,5,0,0
146825,-100,4,2,1,65,0,0
146918,-100,4,2,1,5,0,0
147012,-83.3333333333333,4,2,1,70,0,0
147387,-100,4,2,1,60,0,0
147950,-90.9090909090909,4,2,1,65,0,1
153950,-90.9090909090909,4,2,1,70,0,1
158262,-111.111111111111,4,2,2,50,0,0
159950,-100,4,2,2,60,0,0
171950,-111.111111111111,4,2,1,60,0,0
177950,-99.9999999999999,4,2,2,65,0,0
182825,-99.9999999999999,4,2,2,55,0,0
183200,-99.9999999999999,4,2,2,60,0,0
183575,-111.111111111111,4,2,1,65,0,0
183856,-111.111111111111,4,2,1,5,0,0
183950,-100,4,2,2,60,0,0
188262,-133.333333333333,4,2,1,50,0,0
189856,-133.333333333333,4,2,1,5,0,0
189950,-100,4,2,1,60,0,0
192950,-111.111111111111,4,2,1,55,0,0
198200,-90.9090909090909,4,2,1,55,0,0
198481,-111.111111111111,4,2,1,5,0,0
198575,-83.3333333333333,4,2,1,55,0,0
198856,-111.111111111111,4,2,1,5,0,0
198950,-111.111111111111,4,2,1,55,0,0
210950,-125,4,2,1,50,0,0
219950,-100,4,2,2,60,0,0
221450,-90.9090909090909,4,2,1,65,0,0
221731,-90.9090909090909,4,2,1,5,0,0
221825,-90.9090909090909,4,2,1,60,0,0
222012,-83.3333333333333,4,2,1,70,0,0
222387,-76.9230769230769,4,2,1,75,0,0
222950,-90.9090909090909,4,2,1,65,0,1
233450,-83.3333333333333,4,2,1,75,0,0
233731,-90.9090909090909,4,2,1,5,0,0
233825,-83.3333333333333,4,2,1,65,0,0
233918,-83.3333333333333,4,2,1,5,0,0
234012,-100,4,2,1,70,0,0
234293,-100,4,2,1,5,0,0
234387,-76.9230769230769,4,2,1,75,0,0
234950,-90.9090909090909,4,2,1,65,0,1
240950,-90.9090909090909,4,2,1,70,0,1
246856,-90.9090909090909,4,2,1,70,0,0
248450,-90.9090909090909,4,2,1,15,0,0

[Colours]
Combo1 : 253,153,236
Combo2 : 245,205,131
Combo3 : 174,250,90
Combo4 : 255,64,64

[HitObjects]
156,104,2450,5,2,0:0:0:0:
281,54,2637,2,0,P|237:129|228:199,1,141.6,2|0,0:0|0:0,0:0:0:0:
87,120,3200,2,0,L|178:98,1,70.8,2|0,0:0|0:0,0:0:0:0:
280,229,3575,2,0,L|216:171,1,70.8,2|0,0:0|0:0,0:0:0:0:
260,48,3950,5,2,0:0:0:0:
280,229,4137,1,0,0:0:0:0:
87,120,5075,5,0,0:0:0:0:
119,107,5168,1,2,0:0:0:0:
154,108,5262,1,2,0:0:0:0:
185,124,5356,1,2,0:0:0:0:
206,151,5450,5,2,0:0:0:0:
172,162,5543,1,0,0:0:0:0:
138,151,5637,2,0,P|121:84|155:11,1,141.6,2|0,0:0|0:0,0:0:0:0:
290,68,6200,2,0,P|285:103|276:154,1,70.8,2|0,0:0|0:0,0:0:0:0:
70,172,6575,2,0,P|101:161|157:146,1,70.8,2|0,0:0|0:0,0:0:0:0:
279,137,6950,5,0,3:0:0:0:
74,72,7137,2,0,B|61:102|59:137|59:137|78:197|78:197|78:229|63:272,1,194.700005941773,12|0,0:0|3:0,0:0:0:0:
67,279,7606,1,0,3:0:0:0:
67,279,7700,6,0,P|92:288|128:292,1,48.6750014854432,8|8,3:0|0:0,0:0:0:0:
230,224,7887,2,0,P|204:228|164:244,1,48.6750014854432,8|8,3:0|0:0,0:0:0:0:
108,372,8075,2,0,P|136:368|172:356,1,48.6750014854432,8|0,0:0|3:0,0:0:0:0:
228,300,8262,2,8,P|256:304|296:316,1,48.6750014854432,8|8,3:0|3:0,0:0:0:0:
368,356,8450,6,0,P|413:357|469:340,1,88.5,6|0,0:0|0:0,0:0:0:0:
504,236,8825,1,8,0:0:0:0:
320,141,9012,2,0,P|276:256|276:312,1,177
386,242,9575,1,8,0:0:0:0:
228,140,9762,6,0,P|186:122|141:108,1,88.5,2|0,0:0|0:0,0:0:0:0:
109,274,10137,2,0,P|133:240|168:182,1,88.5,0|10,0:0|0:0,0:0:0:0:
48,76,10512,2,0,P|58:117|79:177,1,88.5,0|2,0:0|0:0,0:0:0:0:
232,248,10887,1,0,0:0:0:0:
144,92,11075,1,10,0:0:0:0:
25,282,11262,5,0,0:0:0:0:
25,282,11356,1,0,3:0:0:0:
25,282,11450,2,0,B|67:287|67:287|137:272,1,88.5,4|2,0:0|0:0,0:0:0:0:
244,240,11825,1,8,0:0:0:0:
116,156,12012,2,0,B|199:184|209:132|291:161,1,177
200,76,12575,1,8,0:0:0:0:
152,244,12762,6,0,P|146:288|139:337,1,88.5,0|2,0:0|0:0,0:0:0:0:
371,193,13137,2,0,P|330:175|288:160,1,88.5,0|8,0:0|0:0,0:0:0:0:
113,91,13512,1,0,0:0:0:0:
113,91,13606,1,0,0:0:0:0:
113,91,13700,2,0,P|156:85|215:71,1,88.5,2|0,0:0|3:0,0:0:0:0:
312,24,14075,1,8,0:0:0:0:
488,136,14262,5,8,0:0:0:0:
488,136,14356,1,8,0:0:0:0:
488,136,14450,2,0,B|388:116,1,88.5,6|0,0:0|0:0,0:0:0:0:
300,48,14825,1,8,0:0:0:0:
112,168,15012,2,0,B|192:148|200:200|288:180,1,177,2|0,0:0|0:0,0:0:0:0:
401,118,15575,1,8,0:0:0:0:
262,23,15762,6,0,L|243:118,1,88.5,0|2,0:0|0:0,0:0:0:0:
308,265,16137,2,0,L|283:172,1,88.5,0|8,0:0|0:0,0:0:0:0:
101,123,16512,2,0,L|78:221,1,88.5,0|2,0:0|0:0,0:0:0:0:
170,351,16887,1,0,3:0:0:0:
275,222,17075,5,8,0:0:0:0:
285,179,17168,1,0,3:0:0:0:
285,134,17262,1,0,3:0:0:0:
280,88,17356,1,2,3:2:0:0:
287,45,17450,5,4,0:0:0:0:
376,128,17637,1,2,0:0:0:0:
192,168,17825,1,8,0:0:0:0:
279,320,18012,2,0,B|304:271|304:271|293:143,1,177,2|2,0:0|0:0,0:0:0:0:
177,26,18575,5,8,0:0:0:0:
148,240,18762,1,4,0:0:0:0:
209,301,20075,5,8,0:0:0:0:
227,263,20168,1,0,0:0:0:0:
227,220,20262,1,0,3:0:0:0:
212,179,20356,1,0,3:0:0:0:
196,137,20450,6,0,P|192:96|208:48,1,79.649997569275,4|0,0:0|0:0,0:0:0:0:
288,108,20825,1,0,0:0:0:0:
111,151,21012,2,0,P|88:239|96:317,1,159.29999513855,2|0,0:0|0:0,0:0:0:0:
227,263,21575,2,0,P|264:252|320:248,1,79.649997569275,2|0,0:0|0:0,0:0:0:0:
427,348,21950,6,0,B|364:338|364:338|308:362|256:347,1,159.29999513855,2|0,0:0|0:0,0:0:0:0:
149,289,22512,1,2,0:0:0:0:
138,259,22606,1,0,0:0:0:0:
132,227,22700,1,0,0:0:0:0:
132,195,22793,1,0,0:0:0:0:
142,164,22887,2,0,P|182:173|229:183,1,79.649997569275
304,204,23168,1,2,0:0:0:0:
304,204,23262,2,0,L|294:148,1,39.8249987846375,2|2,0:0|0:0,0:0:0:0:
162,87,23450,6,0,P|151:124|140:171,1,79.649997569275,2|0,0:0|0:0,0:0:0:0:
275,63,23825,1,2,0:0:0:0:
378,162,24012,2,0,P|291:171|214:181,1,159.29999513855
88,214,24575,1,2,0:0:0:0:
166,274,24762,2,0,P|204:280|246:288,1,79.649997569275,0|2,0:0|0:0,0:0:0:0:
146,65,25137,6,0,P|108:154|82:232,1,159.29999513855
87,213,25606,1,0,0:0:0:0:
87,213,25700,1,2,0:0:0:0:
207,153,25887,1,0,0:0:0:0:
40,92,26075,1,2,0:0:0:0:
224,53,26262,5,0,3:0:0:0:
224,53,26356,1,0,3:0:0:0:
224,53,26450,2,0,P|181:58|139:66,1,79.649997569275,2|0,0:0|0:0,0:0:0:0:
14,100,26825,1,0,0:0:0:0:
207,153,27012,2,0,P|212:265|197:313,1,159.29999513855,2|0,0:0|0:0,0:0:0:0:
131,222,27575,1,0,0:0:0:0:
294,173,27762,1,2,0:0:0:0:
370,285,27950,6,0,P|280:258|199:238,1,159.29999513855
98,175,28512,2,0,P|135:169|201:159,1,79.649997569275,2|0,0:0|0:0,0:0:0:0:
287,84,28887,2,0,P|273:120|257:175,1,79.649997569275,2|0,0:0|3:0,0:0:0:0:
233,319,29262,5,2,0:0:0:0:
233,319,29356,1,2,0:0:0:0:
233,319,29450,2,0,P|224:274|209:217,1,79.649997569275,2|0,0:0|0:0,0:0:0:0:
175,111,29825,1,0,3:0:0:0:
39,186,30012,2,0,B|56:301|56:301|100:260,1,159.29999513855,2|4,0:0|0:0,0:0:0:0:
261,159,30575,1,2,0:0:0:0:
124,48,30762,1,0,0:0:0:0:
98,192,30950,6,0,L|86:279,1,79.649997569275,4|0,0:0|0:0,0:0:0:0:
180,120,31325,1,2,0:0:0:0:
328,256,31512,2,0,B|272:236|216:259|216:259|168:240,1,159.29999513855,0|0,0:0|3:0,0:0:0:0:
58,197,31981,1,0,3:0:0:0:
58,197,32075,6,8,L|116:189,1,39.8249987846375,8|0,0:0|0:0,0:0:0:0:
218,128,32262,2,0,L|161:116,1,39.8249987846375,2|2,0:0|0:0,0:0:0:0:
88,31,32450,6,0,B|72:72|72:72|68:122,1,88.5,4|2,0:0|0:0,0:0:0:0:
88,284,32825,1,8,0:0:0:0:
200,212,33012,2,0,B|303:198|251:248|373:233,1,177,0|2,3:0|0:0,0:0:0:0:
229,128,33575,2,0,P|211:168|199:215,1,88.5,8|0,0:0|0:0,0:0:0:0:
400,316,33950,6,0,P|387:273|370:232,1,88.5,0|0,3:0|0:0,0:0:0:0:
302,144,34325,1,8,0:0:0:0:
120,231,34512,2,0,B|248:255|248:255|210:298,1,177,0|0,3:0|0:0,0:0:0:0:
123,319,35075,1,8,0:0:0:0:
186,153,35262,1,0,0:0:0:0:
336,246,35450,6,0,L|221:258,1,88.5,0|2,3:0|0:0,0:0:0:0:
102,206,35825,1,8,0:0:0:0:
205,11,36012,2,0,B|223:136|223:136|195:185,1,177,2|0,0:0|3:0,0:0:0:0:
112,120,36575,1,8,0:0:0:0:
284,202,36762,1,2,0:0:0:0:
284,202,36856,1,0,0:0:0:0:
284,202,36950,6,0,P|240:191|195:180,1,88.5,0|0,3:0|0:0,0:0:0:0:
36,132,37325,1,8,0:0:0:0:
68,328,37512,2,0,L|96:232,1,88.5
92,243,37793,1,8,0:0:0:0:
92,243,37887,1,0,3:0:0:0:
284,202,38075,6,0,P|290:225|299:264,1,44.25,8|0,0:0|3:0,0:0:0:0:
182,290,38262,2,0,P|184:272|189:246,1,44.25,0|0,3:0|0:0,0:0:0:0:
348,156,38450,6,0,P|363:201|377:258,1,79.649997569275,4|0,0:0|0:0,0:0:0:0:
312,352,38825,1,8,0:0:0:0:
139,233,39012,2,0,B|240:224|240:224|310:250,1,159.29999513855,2|0,0:0|0:0,0:0:0:0:
404,316,39575,1,8,0:0:0:0:
348,156,39762,1,0,0:0:0:0:
139,233,39950,6,0,L|222:225,1,79.649997569275,2|0,0:0|0:0,0:0:0:0:
360,184,40325,1,8,0:0:0:0:
175,79,40512,2,0,P|144:178|139:255,1,159.29999513855,2|0,0:0|0:0,0:0:0:0:
244,344,41075,2,0,P|250:306|260:248,1,79.649997569275,8|0,0:0|0:0,0:0:0:0:
256,148,41450,5,2,0:0:0:0:
138,232,41637,1,0,0:0:0:0:
340,304,41825,1,8,0:0:0:0:
192,352,42012,2,0,P|108:357|20:364,1,159.29999513855,2|0,0:0|0:0,0:0:0:0:
152,272,42575,1,8,0:0:0:0:
288,340,42762,6,0,P|328:348|392:356,1,79.649997569275,2|0,0:0|0:0,0:0:0:0:
272,176,43137,2,0,P|248:212|224:264,1,79.649997569275,0|8,0:0|0:0,0:0:0:0:
136,356,43512,2,0,P|108:252|84:192,1,159.29999513855,2|0,0:0|3:0,0:0:0:0:
168,84,44075,1,8,0:0:0:0:
200,264,44262,1,8,0:0:0:0:
348,196,44450,6,0,P|308:184|256:172,1,79.649997569275,4|0,0:0|0:0,0:0:0:0:
120,176,44825,1,8,0:0:0:0:
206,320,45012,2,0,P|237:248|274:168,1,159.29999513855,2|0,0:0|0:0,0:0:0:0:
319,278,45575,1,8,0:0:0:0:
151,194,45762,1,0,0:0:0:0:
252,57,45950,6,0,P|259:96|264:141,1,79.649997569275,2|0,0:0|0:0,0:0:0:0:
206,320,46325,1,8,0:0:0:0:
337,174,46512,2,0,B|157:198,1,159.29999513855,2|0,0:0|3:0,0:0:0:0:
392,248,47075,1,8,0:0:0:0:
179,195,47262,1,0,0:0:0:0:
364,76,47450,6,0,P|354:114|343:167,1,79.649997569275,2|0,0:0|0:0,0:0:0:0:
296,304,47825,1,8,0:0:0:0:
192,216,48012,2,0,P|100:236|80:292,1,159.29999513855,2|0,0:0|0:0,0:0:0:0:
188,360,48575,1,8,0:0:0:0:
224,208,48762,6,0,P|208:108|188:36,1,159.29999513855,4|0,0:0|0:0,0:0:0:0:
50,102,49325,2,0,P|42:141|37:184,1,79.649997569275,8|0,0:0|0:0,0:0:0:0:
164,291,49700,1,0,0:0:0:0:
164,291,49793,1,8,0:0:0:0:
164,291,49887,1,0,3:0:0:0:
301,227,50075,2,0,P|256:214|205:203,1,79.649997569275,8|0,0:0|0:0,0:0:0:0:
8,288,50450,6,0,B|61:281|61:281|105:297|105:297|173:289,1,159.29999513855,4|8,0:0|0:0,0:0:0:0:
465,260,51200,1,2,0:0:0:0:
465,260,51387,1,0,0:0:0:0:
333,184,51575,2,0,P|321:221|312:269,1,79.649997569275,8|0,0:0|0:0,0:0:0:0:
416,128,51950,6,0,P|324:137|260:95,1,159.29999513855,2|8,0:0|0:0,0:0:0:0:
164,32,52512,1,0,0:0:0:0:
24,88,52700,2,0,L|108:104,1,79.649997569275,2|0,0:0|0:0,0:0:0:0:
242,21,53075,2,0,L|155:33,1,79.649997569275,8|0,0:0|0:0,0:0:0:0:
48,168,53450,5,0,0:0:0:0:
48,168,53637,1,0,0:0:0:0:
224,116,53825,2,0,P|217:154|208:204,1,79.649997569275,8|0,0:0|0:0,0:0:0:0:
96,312,54200,1,2,0:0:0:0:
132,144,54387,1,0,3:0:0:0:
252,208,54575,1,10,0:0:0:0:
176,308,54762,6,0,P|68:296|40:248,1,159.29999513855,2|0,0:0|0:0,0:0:0:0:
120,72,55325,1,10,0:0:0:0:
276,148,55512,1,0,3:0:0:0:
127,236,55700,1,10,0:0:0:0:
264,76,55887,1,0,0:0:0:0:
332,316,56075,1,2,0:0:0:0:
216,272,56262,5,0,3:0:0:0:
216,272,56356,1,0,3:0:0:0:
216,272,56450,2,0,L|384:256,1,159.29999513855,4|8,0:0|0:0,0:0:0:0:
76,200,57200,1,2,0:0:0:0:
76,200,57387,1,0,0:0:0:0:
204,120,57575,2,0,P|217:155|232:208,1,79.649997569275,8|0,0:0|0:0,0:0:0:0:
56,320,57950,6,0,P|68:232|84:148,1,159.29999513855,2|8,0:0|0:0,0:0:0:0:
128,44,58512,1,0,3:0:0:0:
282,133,58700,2,0,L|190:117,1,79.649997569275,2|0,0:0|0:0,0:0:0:0:
2,175,59075,2,0,L|104:158,1,79.649997569275,8|0,0:0|0:0,0:0:0:0:
288,252,59450,6,0,P|200:260|148:216,2,141.6,4|8|0,0:0|0:0|0:0,0:0:0:0:
412,200,60387,1,0,3:0:0:0:
340,84,60575,2,0,L|324:168,1,70.8,8|0,0:0|3:0,0:0:0:0:
248,332,60950,6,0,L|228:180,1,141.6,0|8,0:0|0:0,0:0:0:0:
120,82,61512,1,0,0:0:0:0:
158,97,61606,1,8,0:0:0:0:
198,97,61700,1,2,3:0:0:0:
234,85,61793,1,8,0:0:0:0:
270,73,61887,2,0,P|306:77|358:89,1,70.8,0|0,3:0|0:0,0:0:0:0:
448,120,62262,1,2,3:0:0:0:
296,156,62450,6,0,P|272:240|292:316,1,159.29999513855,4|0,0:0|0:0,0:0:0:0:
356,236,63012,1,0,0:0:0:0:
184,188,63200,5,0,3:0:0:0:
296,156,63387,1,0,3:0:0:0:
112,136,63575,5,0,3:0:0:0:
272,244,63762,1,0,3:0:0:0:
148,48,63950,5,0,1:0:0:0:
168,284,64137,1,0,1:0:0:0:
84,120,64325,5,10,0:0:0:0:
320,237,64512,1,0,3:0:0:0:
320,237,64606,1,0,3:0:0:0:
320,237,64700,6,0,L|260:245,1,48.6750014854432,2|0,0:0|0:0,0:0:0:0:
199,166,64887,2,0,L|227:110,1,48.6750014854432,0|8,3:0|0:0,0:0:0:0:
336,112,65075,2,0,L|372:160,1,53.0999983795166,8|0,0:0|3:0,0:0:0:0:
336,312,65262,2,8,L|268:320,1,53.0999983795166,10|0,0:0|3:0,0:0:0:0:
168,240,65450,6,0,L|240:80,1,172.574992100144,6|0,0:0|0:0,0:0:0:0:
268,222,65825,6,0,P|275:271|284:322,1,97.3500029708863,8|0,0:0|0:0,0:0:0:0:
352,184,66200,1,0,0:0:0:0:
168,240,66387,1,0,0:0:0:0:
368,316,66575,1,8,0:0:0:0:
276,184,66762,1,0,0:0:0:0:
144,280,66950,6,0,P|96:292|48:292,1,97.3500029708863,2|0,0:0|0:0,0:0:0:0:
124,160,67325,1,8,0:0:0:0:
244,228,67512,2,0,B|328:268|356:204|436:240,1,194.700005941773,0|2,0:0|0:0,0:0:0:0:
388,316,68075,1,8,0:0:0:0:
262,132,68262,5,0,0:0:0:0:
262,132,68356,1,0,3:0:0:0:
262,132,68450,2,0,P|251:178|242:236,1,97.3500029708863,2|0,0:0|0:0,0:0:0:0:
260,344,68825,1,8,0:0:0:0:
352,192,69012,1,0,0:0:0:0:
152,220,69200,1,0,0:0:0:0:
348,304,69387,1,0,0:0:0:0:
262,132,69575,1,8,0:0:0:0:
160,320,69762,1,0,0:0:0:0:
280,227,69950,6,0,P|272:179|260:128,1,97.3500029708863,2|0,0:0|0:0,0:0:0:0:
224,20,70325,1,8,0:0:0:0:
71,113,70512,2,0,B|164:84|169:156|269:129,1,194.700005941773,0|2,0:0|0:0,0:0:0:0:
400,104,71075,1,8,0:0:0:0:
224,20,71262,1,0,0:0:0:0:
256,240,71450,6,0,P|296:116|308:48,1,194.700005941773,2|8,0:0|0:0,0:0:0:0:
188,124,72012,1,0,0:0:0:0:
368,200,72200,1,0,0:0:0:0:
304,24,72387,1,0,0:0:0:0:
152,148,72575,1,8,0:0:0:0:
312,132,72762,1,0,0:0:0:0:
92,84,72950,6,0,P|75:131|64:196,1,97.3500029708863,2|0,0:0|0:0,0:0:0:0:
88,332,73325,1,8,0:0:0:0:
264,276,73512,2,0,B|332:280|332:280|380:312|380:312|456:318,1,194.700005941773
327,179,74075,1,10,0:0:0:0:
276,364,74262,1,0,0:0:0:0:
140,276,74450,6,0,P|92:264|36:256,1,97.3500029708863,2|0,0:0|0:0,0:0:0:0:
232,195,74825,2,0,P|280:183|336:180,1,97.3500029708863,8|0,0:0|0:0,0:0:0:0:
152,96,75200,1,0,0:0:0:0:
182,298,75387,1,0,3:0:0:0:
324,208,75575,5,8,3:2:0:0:
108,344,75762,1,0,0:0:0:0:
336,327,75950,6,0,B|280:308|280:308|228:313|228:313|170:295,1,159.29999513855,14|0,0:0|0:0,0:0:0:0:
71,243,76325,2,0,L|127:235,1,53.0999983795166,2|0,3:0|0:0,0:0:0:0:
196,124,76512,6,0,P|124:116|88:164,1,132.75,14|0,0:0|0:0,0:0:0:0:
97,338,76887,6,0,P|127:299|119:227,1,115.049994733429,2|12,0:0|0:0,0:0:0:0:
7,113,77262,1,8,0:0:0:0:
7,113,77356,1,8,0:0:0:0:
7,113,77450,6,0,B|99:157|100:84|199:125,1,194.700005941773,4|8,0:0|0:0,0:0:0:0:
364,204,78012,1,0,0:0:0:0:
204,244,78200,1,0,0:0:0:0:
272,68,78387,1,0,0:0:0:0:
384,228,78575,1,8,0:0:0:0:
204,148,78762,1,0,0:0:0:0:
372,40,78950,6,0,P|362:87|348:152,1,97.3500029708863,2|0,0:0|0:0,0:0:0:0:
316,288,79325,1,8,0:0:0:0:
171,120,79512,2,0,B|207:208|151:220|179:312,1,194.700005941773
280,224,80075,1,8,0:0:0:0:
96,172,80262,1,0,0:0:0:0:
83,328,80450,6,0,P|132:318|192:308,1,97.3500029708863,2|0,0:0|0:0,0:0:0:0:
364,288,80825,1,8,0:0:0:0:
288,120,81012,1,0,0:0:0:0:
116,208,81200,2,0,P|163:216|224:228,1,97.3500029708863
392,188,81575,1,8,0:0:0:0:
260,92,81762,1,0,0:0:0:0:
179,311,81950,5,2,0:0:0:0:
320,156,82137,1,0,0:0:0:0:
396,308,82325,1,8,0:0:0:0:
190,170,82512,1,0,3:0:0:0:
190,170,82606,2,0,B|164:260|164:260|180:316,1,146.025004456329,0|0,3:0|3:0,0:0:0:0:
352,240,83075,2,0,L|252:256,1,97.3500029708863,8|0,3:0|0:0,0:0:0:0:
72,284,83450,5,4,0:0:0:0:
190,170,83637,1,0,0:0:0:0:
276,348,83825,1,8,0:0:0:0:
446,278,84012,2,0,B|376:260|376:260|312:268|312:268|254:254,1,194.700005941773,4|0,0:0|3:0,0:0:0:0:
104,216,84575,1,8,0:0:0:0:
244,80,84762,6,0,P|336:128|292:196,1,194.700005941773,4|0,0:0|0:0,0:0:0:0:
140,120,85325,1,8,0:0:0:0:
176,332,85512,1,0,0:0:0:0:
305,189,85700,1,8,0:0:0:0:
52,212,85887,6,0,L|128:228,1,48.6750014854432,0|0,0:0|3:0,0:0:0:0:
200,242,86075,1,8,0:0:0:0:
16,304,86262,2,0,L|72:296,1,48.6750014854432,0|0,3:0|3:0,0:0:0:0:
296,262,86450,6,0,L|192:241,1,97.3500029708863,4|0,0:0|0:0,0:0:0:0:
24,192,86825,1,8,0:0:0:0:
204,132,87012,2,0,B|221:205|221:205|201:249|201:249|213:325,1,194.700005941773,4|0,0:0|0:0,0:0:0:0:
320,232,87575,1,8,0:0:0:0:
124,180,87762,6,0,B|104:252|104:252|120:348,1,159.29999513855,4|0,0:0|0:0,0:0:0:0:
320,276,88325,1,2,0:0:0:0:
216,248,88512,1,8,0:0:0:0:
200,252,88606,1,8,0:0:0:0:
186,258,88700,1,8,0:0:0:0:
420,312,88887,1,0,3:0:0:0:
210,199,89075,6,0,P|212:227|219:262,1,48.6750014854432
314,324,89262,2,0,P|318:300|319:257,1,48.6750014854432,2|2,0:0|0:0,0:0:0:0:
295,178,89450,6,0,P|252:185|205:200,1,88.5,4|2,0:0|0:0,0:0:0:0:
104,248,89825,1,0,0:0:0:0:
16,172,90012,2,0,P|1:245|7:314,2,141.6,2|2|2,0:0|0:0|0:0,0:0:0:0:
92,76,90950,5,0,0:0:0:0:
209,198,91137,2,0,P|148:216|96:148,1,141.6,2|0,0:0|0:0,0:0:0:0:
188,108,91700,2,0,L|280:120,1,70.8,0|2,0:0|0:0,0:0:0:0:
419,167,92075,1,0,0:0:0:0:
388,168,92168,1,2,0:0:0:0:
356,176,92262,1,2,0:0:0:0:
328,188,92356,1,2,0:0:0:0:
308,212,92450,6,0,L|356:224,1,35.4,2|0,0:0|0:0,0:0:0:0:
490,162,92637,2,0,L|392:169,1,70.8,2|0,0:0|3:0,0:0:0:0:
264,36,93012,2,0,B|244:136|244:136|312:116,1,141.6,2|0,0:0|0:0,0:0:0:0:
368,84,93575,1,0,0:0:0:0:
334,246,93762,1,2,0:0:0:0:
282,124,93950,5,0,0:0:0:0:
440,184,94137,1,0,3:0:0:0:
317,332,94325,2,0,B|305:224|305:224|341:252,1,146.025004456329,12|0,0:0|0:0,0:0:0:0:
402,263,94700,6,0,B|365:258|365:258|321:242,1,70.8,2|0,0:1|0:0,0:0:0:0:
164,304,95075,2,0,B|198:303|198:303|248:292,1,70.8,2|0,0:1|0:0,0:0:0:0:
264,104,95450,6,0,B|248:140|248:140|240:200,1,79.649997569275,4|0,0:0|0:0,0:0:0:0:
318,333,95825,1,8,0:0:0:0:
448,272,96012,2,0,P|360:252|280:244,1,159.29999513855
120,244,96575,1,8,0:0:0:0:
200,352,96762,5,0,0:0:0:0:
200,352,96856,1,0,0:0:0:0:
200,352,96950,2,0,P|206:312|212:256,1,79.649997569275
192,132,97325,1,8,0:0:0:0:
41,257,97512,2,0,L|133:241,1,79.649997569275,2|0,0:0|0:0,0:0:0:0:
119,243,97793,1,8,0:0:0:0:
119,243,97887,1,0,3:0:0:0:
230,123,98075,6,0,L|178:135,1,39.8249987846375,8|0,0:0|0:0,0:0:0:0:
76,156,98262,2,0,L|132:172,1,39.8249987846375,2|0,0:0|0:0,0:0:0:0:
200,224,98450,6,0,P|204:264|192:320,1,79.649997569275
284,176,98825,1,8,0:0:0:0:
353,334,99012,2,0,P|273:316|198:302,1,159.29999513855,2|0,0:0|0:0,0:0:0:0:
56,280,99575,1,8,0:0:0:0:
185,145,99762,5,0,0:0:0:0:
185,145,99856,1,8,0:0:0:0:
185,145,99950,2,0,L|201:229,1,79.649997569275,0|2,3:0|0:0,0:0:0:0:
88,184,100325,1,8,0:0:0:0:
284,132,100512,1,0,0:0:0:0:
284,132,100606,1,0,0:0:0:0:
284,132,100700,2,0,L|268:192,2,39.8249987846375,0|0|0,0:0|3:0|3:0,0:0:0:0:
364,36,101075,1,8,0:0:0:0:
448,200,101262,5,0,0:0:0:0:
448,200,101356,1,8,0:0:0:0:
448,200,101450,2,0,P|408:188|356:172,1,79.649997569275,4|0,0:0|0:0,0:0:0:0:
280,56,101825,1,8,0:0:0:0:
108,196,102012,2,0,P|147:193|196:188,1,79.649997569275,2|0,0:0|0:0,0:0:0:0:
376,268,102387,2,0,P|336:260|276:244,1,79.649997569275,2|8,0:0|0:0,0:0:0:0:
140,304,102762,1,0,0:0:0:0:
173,110,102950,6,0,P|181:152|189:198,1,79.649997569275,4|0,0:0|0:0,0:0:0:0:
232,332,103325,1,8,0:0:0:0:
340,176,103512,1,0,0:0:0:0:
454,256,103700,2,0,L|374:268,1,79.649997569275,0|0,0:0|3:0,0:0:0:0:
145,184,104075,6,0,P|167:188|205:202,1,39.8249987846375,8|0,0:0|0:0,0:0:0:0:
320,216,104262,2,0,P|297:218|264:224,1,39.8249987846375,0|0,3:0|3:0,0:0:0:0:
116,260,104450,6,0,P|156:268|216:288,1,79.649997569275,4|0,0:0|0:0,0:0:0:0:
288,144,104825,1,8,0:0:0:0:
154,36,105012,2,0,P|169:122|186:208,1,159.29999513855,2|0,0:0|0:0,0:0:0:0:
268,317,105575,1,8,0:0:0:0:
371,223,105762,5,0,0:0:0:0:
371,223,105856,1,8,0:0:0:0:
371,223,105950,1,0,3:0:0:0:
193,279,106137,1,0,0:0:0:0:
286,116,106325,1,8,0:0:0:0:
445,258,106512,2,0,B|370:222|370:222|287:231,1,159.29999513855,2|0,0:0|0:0,0:0:0:0:
125,283,107075,1,8,0:0:0:0:
125,283,107168,1,8,0:0:0:0:
125,283,107262,6,0,B|171:264|221:282|221:282|259:321|321:315,1,194.700005941773,4|0,0:0|0:0,0:0:0:0:
458,161,107825,2,0,L|442:277,1,97.3500029708863,8|0,0:0|0:0,0:0:0:0:
281,168,108200,1,8,0:0:0:0:
245,152,108293,1,0,3:0:0:0:
206,146,108387,1,8,3:0:0:0:
167,151,108481,1,0,3:0:0:0:
133,171,108575,1,4,3:0:0:0:
98,188,108668,1,0,0:0:0:0:
59,190,108762,1,0,0:0:0:0:
21,179,108856,1,0,0:0:0:0:
0,145,108950,6,0,P|-4:101|13:47,1,88.5,4|0,0:0|0:0,0:0:0:0:
98,188,109325,1,8,0:0:0:0:
258,138,109512,2,0,P|151:110|81:110,1,177
120,220,110075,1,8,0:0:0:0:
200,36,110262,1,0,0:0:0:0:
279,171,110450,6,0,P|274:211|267:259,1,88.5,2|0,0:0|0:0,0:0:0:0:
164,140,110825,1,8,0:0:0:0:
172,296,111012,2,0,B|268:272|244:340|360:312,1,177
366,159,111575,2,0,P|322:163|262:175,1,88.5,8|0,0:0|0:0,0:0:0:0:
104,216,111950,5,2,0:0:0:0:
216,276,112137,1,0,0:0:0:0:
156,92,112325,1,8,0:0:0:0:
17,198,112512,2,0,L|117:218,1,88.5,2|0,0:0|0:0,0:0:0:0:
103,215,112793,1,8,0:0:0:0:
103,215,112887,1,0,3:0:0:0:
64,120,113075,1,8,0:0:0:0:
88,316,113262,1,0,0:0:0:0:
220,248,113450,6,0,P|228:204|220:148,1,88.5,2|0,0:0|0:0,0:0:0:0:
160,44,113825,1,8,0:0:0:0:
140,212,114012,2,0,L|340:188,1,177,0|0,3:0|0:0,0:0:0:0:
456,128,114575,2,0,L|432:216,1,88.5,8|0,0:0|0:0,0:0:0:0:
232,120,114950,5,2,0:0:0:0:
248,268,115137,1,0,0:0:0:0:
368,152,115325,1,8,0:0:0:0:
168,64,115512,2,0,B|152:124|152:124|172:184|172:184|156:240,1,177,2|0,0:0|3:0,0:0:0:0:
68,168,116075,1,8,0:0:0:0:
256,236,116262,5,0,0:0:0:0:
256,236,116356,1,0,3:0:0:0:
256,236,116450,2,0,L|351:235,1,88.5,2|0,0:0|0:0,0:0:0:0:
264,128,116825,1,8,0:0:0:0:
188,296,117012,2,0,B|246:312|246:312|379:308,1,177,2|0,0:0|0:0,0:0:0:0:
364,100,117575,2,0,L|356:156,1,44.25,8|8,0:0|0:0,0:0:0:0:
344,235,117762,1,2,0:0:0:0:
446,131,117950,6,0,L|346:93,1,88.5,4|0,0:0|0:0,0:0:0:0:
209,30,118325,1,8,0:0:0:0:
79,83,118512,2,0,P|183:72|219:127,1,177,2|0,0:0|0:0,0:0:0:0:
256,236,119075,1,8,0:0:0:0:
124,304,119262,6,0,B|213:278|185:342|297:322,1,177,4|0,0:0|0:0,0:0:0:0:
424,208,119825,1,12,0:0:0:0:
512,272,120012,2,0,B|416:284|416:284|332:256,1,177,2|0,0:0|0:0,0:0:0:0:
172,200,120575,1,8,0:0:0:0:
172,200,120762,1,0,0:0:0:0:
392,100,120950,6,0,L|216:120,1,159.29999513855,4|8,0:0|0:0,0:0:0:0:
392,100,121700,1,2,0:0:0:0:
392,100,121887,1,0,0:0:0:0:
252,40,122075,2,0,P|240:76|232:128,1,79.649997569275,8|0,0:0|0:0,0:0:0:0:
372,244,122450,6,0,P|338:221|283:197,1,79.649997569275,2|0,0:0|0:0,0:0:0:0:
108,228,122825,2,0,P|148:224|208:204,1,79.649997569275,8|0,0:0|0:0,0:0:0:0:
372,160,123200,1,2,0:0:0:0:
372,160,123387,1,0,0:0:0:0:
448,267,123575,2,0,L|368:242,1,79.649997569275,8|0,0:0|0:0,0:0:0:0:
190,190,123950,5,2,0:0:0:0:
340,156,124137,1,0,0:0:0:0:
176,96,124325,2,0,P|144:196|144:272,1,159.29999513855,10|0,0:0|0:0,0:0:0:0:
295,227,124887,2,0,P|250:208|199:199,1,79.649997569275,0|8,3:0|0:0,0:0:0:0:
77,306,125262,6,0,P|189:294|257:310,1,159.29999513855,4|0,0:0|3:0,0:0:0:0:
384,208,125825,1,2,0:0:0:0:
219,162,126012,2,0,L|221:223,1,39.8249987846375,2|2,0:0|0:0,0:0:0:0:
233,302,126200,5,8,0:0:0:0:
272,319,126293,1,8,0:0:0:0:
315,324,126387,1,8,3:0:0:0:
357,314,126481,1,0,3:0:0:0:
391,286,126575,1,2,0:0:0:0:
228,123,126762,2,0,L|214:177,1,39.8249987846375,0|0,3:0|3:0,0:0:0:0:
147,265,126950,6,0,P|248:240|315:245,2,159.29999513855,4|0|2,0:0|0:0|0:0,0:0:0:0:
147,265,127887,1,0,3:0:0:0:
26,183,128075,2,0,P|65:187|128:200,1,79.649997569275
294,140,128450,6,0,P|252:149|203:167,1,79.649997569275,2|0,0:0|0:0,0:0:0:0:
72,80,128825,2,0,P|111:90|159:106,1,79.649997569275,2|8,3:2|0:0,0:0:0:0:
43,260,129200,2,0,P|33:221|25:182,1,79.649997569275,2|8,0:0|3:0,0:0:0:0:
148,102,129575,1,10,0:0:0:0:
252,312,129762,5,8,0:0:0:0:
252,312,129856,1,8,0:0:0:0:
252,312,129950,2,0,B|279:263|279:263|269:173,1,141.6,4|0,0:0|0:0,0:0:0:0:
128,228,130512,2,0,L|212:247,1,70.8,0|8,3:0|0:0,0:0:0:0:
407,180,130887,2,0,B|308:163|308:163|263:180,1,141.6,0|0,3:0|3:0,0:0:0:0:
252,312,131450,5,2,0:0:0:0:
455,262,131637,2,0,L|299:234,1,141.6,0|0,3:0|0:0,0:0:0:0:
315,236,132106,1,0,0:0:0:0:
315,236,132200,1,8,0:0:0:0:
248,140,132387,1,0,0:0:0:0:
142,278,132575,1,0,3:0:0:0:
5,207,132762,1,0,3:0:0:0:
5,207,132856,1,0,3:0:0:0:
5,207,132950,6,0,B|64:224|122:189|122:189|111:242|146:282,1,216.824993383026,6|0,0:0|0:0,0:0:0:0:
164,304,133700,2,0,P|208:328|260:340,2,94.4,2|2|2,0:0|0:0|0:0,0:0:0:0:
240,124,134450,5,8,0:0:0:0:
254,165,134543,1,8,0:0:0:0:
264,208,134637,1,8,0:0:0:0:
266,252,134731,1,0,3:0:0:0:
262,296,134825,2,0,P|257:317|247:348,3,44.25,0|4|4|0,3:0|3:0|3:0|3:0,0:0:0:0:
164,304,135200,6,0,P|159:280|160:252,1,48.6750014854432,2|0,0:0|3:0,0:0:0:0:
207,178,135387,2,0,P|229:169|255:164,1,48.6750014854432,0|0,3:0|3:0,0:0:0:0:
316,267,135575,2,0,L|252:247,1,53.0999983795166,8|0,0:0|3:0,0:0:0:0:
85,152,135762,1,8,0:0:0:0:
85,152,135856,1,8,0:0:0:0:
85,152,135950,6,0,B|175:126|151:189|258:162,1,172.574992100144,6|0,0:0|0:0,0:0:0:0:
372,136,136325,6,0,P|354:182|336:236,1,97.3500029708863,8|0,0:0|0:0,0:0:0:0:
163,303,136700,1,2,0:0:0:0:
209,95,136887,1,0,0:0:0:0:
265,251,137075,1,8,0:0:0:0:
372,136,137262,1,0,0:0:0:0:
202,214,137450,6,0,P|181:258|162:307,1,97.3500029708863,2|0,0:0|0:0,0:0:0:0:
273,288,137825,1,8,0:0:0:0:
96,181,138012,2,0,L|294:148,1,194.700005941773,0|2,0:0|0:0,0:0:0:0:
189,83,138575,1,8,0:0:0:0:
382,217,138762,1,0,0:0:0:0:
262,242,138950,6,0,P|271:194|288:148,1,97.3500029708863,2|0,0:0|0:0,0:0:0:0:
344,40,139325,1,8,0:0:0:0:
400,240,139512,1,2,0:0:0:0:
288,148,139700,1,0,0:0:0:0:
436,11,139887,2,0,L|410:129,1,97.3500029708863,0|8,0:0|0:0,0:0:0:0:
262,242,140262,1,0,0:0:0:0:
195,117,140450,6,0,P|239:130|295:151,1,97.3500029708863,2|0,0:0|0:0,0:0:0:0:
344,40,140825,1,8,0:0:0:0:
442,199,141012,2,0,L|303:221,1,97.3500029708863
104,231,141387,2,0,L|239:263,1,97.3500029708863,2|8,0:0|0:0,0:0:0:0:
320,324,141762,1,0,0:0:0:0:
184,160,141950,6,0,P|124:284|120:352,1,194.700005941773,2|8,0:0|0:0,0:0:0:0:
228,280,142512,1,0,0:0:0:0:
40,208,142700,1,0,0:0:0:0:
166,64,142887,2,0,L|186:172,1,97.3500029708863,0|8,0:0|0:0,0:0:0:0:
119,339,143262,1,0,0:0:0:0:
76,104,143450,5,2,0:0:0:0:
176,272,143637,1,0,0:0:0:0:
268,132,143825,1,8,0:0:0:0:
408,256,144012,2,0,P|360:236|296:216,1,97.3500029708863,0|2,0:0|0:0,0:0:0:0:
164,184,144387,1,0,0:0:0:0:
256,332,144575,1,8,0:0:0:0:
140,144,144762,1,0,0:0:0:0:
24,244,144950,6,0,B|112:276|128:208|224:248,1,194.700005941773,2|8,0:0|0:0,0:0:0:0:
352,316,145512,1,0,0:0:0:0:
308,180,145700,1,0,3:0:0:0:
166,316,145887,1,0,3:0:0:0:
220,96,146075,5,8,0:0:0:0:
256,352,146262,1,0,3:0:0:0:
388,236,146450,6,0,B|280:200|280:200|228:216,1,159.29999513855,14|0,0:0|0:0,0:0:0:0:
124,315,146825,2,0,L|192:303,1,44.25,2|0,3:0|0:0,0:0:0:0:
260,292,147012,5,2,0:0:0:0:
224,136,147200,1,8,0:0:0:0:
86,322,147387,1,2,0:0:0:0:
340,276,147575,1,2,0:3:0:0:
340,276,147950,6,0,B|300:252|252:252|252:252|192:272|140:248,1,194.700005941773,4|8,0:0|0:0,0:0:0:0:
200,168,148512,1,0,0:0:0:0:
272,336,148700,1,0,0:0:0:0:
392,192,148887,2,0,P|344:196|292:208,1,97.3500029708863,0|8,0:0|0:0,0:0:0:0:
151,252,149262,1,0,0:0:0:0:
172,56,149450,6,0,P|192:100|200:156,1,97.3500029708863,2|0,0:0|0:0,0:0:0:0:
188,272,149825,1,8,0:0:0:0:
64,212,150012,2,0,B|48:168|48:168|64:112,1,97.3500029708863,0|2,0:0|0:0,0:0:0:0:
272,104,150387,2,0,B|285:152|285:152|269:196,1,97.3500029708863,0|8,0:0|0:0,0:0:0:0:
151,252,150762,1,0,0:0:0:0:
84,92,150950,6,0,P|128:80|196:72,1,97.3500029708863,2|0,0:0|0:0,0:0:0:0:
360,140,151325,1,8,0:0:0:0:
152,200,151512,1,0,0:0:0:0:
264,40,151700,1,0,0:0:0:0:
352,264,151887,1,0,0:0:0:0:
244,116,152075,1,8,0:0:0:0:
176,320,152262,1,0,0:0:0:0:
376,240,152450,6,0,B|388:196|388:196|380:140,1,97.3500029708863,2|0,0:0|0:0,0:0:0:0:
268,4,152825,1,8,0:0:0:0:
168,192,153012,1,0,3:0:0:0:
168,192,153106,2,0,B|259:210|259:210|315:186,1,146.025004456329,0|0,3:0|3:0,0:0:0:0:
247,106,153575,1,8,3:0:0:0:
120,276,153762,1,0,0:0:0:0:
307,189,153950,5,4,0:0:0:0:
128,120,154137,1,0,0:0:0:0:
120,324,154325,1,8,0:0:0:0:
208,220,154512,2,0,B|245:133|185:127|219:28,1,194.700005941773,4|0,0:0|0:0,0:0:0:0:
299,86,155075,1,8,0:0:0:0:
122,169,155262,6,0,P|94:221|126:349,1,194.700005941773,4|0,0:0|0:0,0:0:0:0:
308,176,155825,2,0,P|260:156|200:148,1,97.3500029708863,8|0,0:0|0:0,0:0:0:0:
30,198,156200,2,0,P|77:189|122:170,1,97.3500029708863,8|0,0:0|0:0,0:0:0:0:
122,169,156481,1,0,3:0:0:0:
122,169,156575,1,8,0:0:0:0:
264,48,156762,1,0,3:0:0:0:
264,48,156856,1,0,3:0:0:0:
264,48,156950,6,0,B|218:176|218:176|244:236,1,194.700005941773,4|8,0:0|0:0,0:0:0:0:
484,183,157512,2,0,B|396:147|374:213|294:173,1,194.700005941773,6|0,0:0|0:0,0:0:0:0:
152,60,158075,1,8,0:0:0:0:
269,17,158262,6,0,P|287:91|295:177,1,159.29999513855,4|0,0:0|0:0,0:0:0:0:
283,327,158825,1,8,0:0:0:0:
416,280,159012,2,0,P|372:260|320:248,1,79.649997569275,2|0,0:0|0:0,0:0:0:0:
204,338,159387,2,0,P|239:337|297:321,1,79.649997569275,2|8,0:0|0:0,0:0:0:0:
350,166,159762,5,8,0:0:0:0:
350,166,159856,1,8,0:0:0:0:
350,166,159950,2,0,P|338:207|325:274,2,88.5,4|0|8,0:0|0:0|0:0,0:0:0:0:
436,240,160512,1,0,0:0:0:0:
448,116,160700,2,0,P|340:128|260:144,1,177,2|8,0:0|0:0,0:0:0:0:
156,172,161262,1,0,0:0:0:0:
328,256,161450,5,2,0:0:0:0:
264,68,161637,1,0,0:0:0:0:
172,212,161825,1,8,0:0:0:0:
32,144,162012,2,0,P|24:188|20:244,1,88.5,2|0,0:0|0:0,0:0:0:0:
112,328,162387,2,0,P|156:324|211:313,1,88.5,2|8,0:0|0:0,0:0:0:0:
220,154,162762,2,0,P|194:190|166:239,1,88.5,2|0,0:0|3:0,0:0:0:0:
96,352,163137,5,2,0:0:0:0:
284,340,163325,2,0,L|188:312,1,88.5,8|0,0:0|0:0,0:0:0:0:
20,231,163700,1,2,0:0:0:0:
192,200,163887,1,0,0:0:0:0:
84,308,164075,1,8,0:0:0:0:
88,152,164262,6,0,P|96:108|112:56,1,88.5,2|0,0:0|0:0,0:0:0:0:
276,212,164637,2,0,P|232:220|176:226,1,88.5,2|8,0:0|0:0,0:0:0:0:
0,252,165012,2,0,P|44:259|100:272,1,88.5,2|0,0:0|0:0,0:0:0:0:
200,328,165387,1,2,0:0:0:0:
220,136,165575,1,8,0:0:0:0:
71,182,165762,5,8,0:0:0:0:
71,182,165856,1,8,0:0:0:0:
71,182,165950,2,0,P|77:222|87:278,1,88.5,4|0,0:0|0:0,0:0:0:0:
268,252,166325,2,0,P|224:240|168:228,1,88.5,8|0,0:0|0:0,0:0:0:0:
207,49,166700,2,0,P|214:91|227:149,1,88.5,2|0,0:0|0:0,0:0:0:0:
161,316,167075,2,0,P|170:270|185:220,1,88.5,8|0,0:0|0:0,0:0:0:0:
312,104,167450,5,2,0:0:0:0:
268,252,167637,2,0,P|260:206|240:144,1,88.5,0|8,0:0|0:0,0:0:0:0:
88,76,168012,2,0,B|64:128|64:128|88:192|64:264,1,177,2|0,0:0|0:0,0:0:0:0:
160,136,168575,1,8,0:0:0:0:
218,306,168762,1,0,0:0:0:0:
352,256,168950,6,0,L|444:280,1,88.5,2|0,0:0|0:0,0:0:0:0:
308,160,169325,1,8,0:0:0:0:
199,220,169512,2,0,P|206:262|221:314,1,88.5,2|0,0:0|0:0,0:0:0:0:
111,151,169887,2,0,P|68:139|24:131,1,88.5,2|8,0:0|0:0,0:0:0:0:
52,232,170262,1,2,0:0:0:0:
168,88,170450,5,0,0:0:0:0:
24,131,170637,1,2,0:0:0:0:
199,220,170825,1,12,0:0:0:0:
34,350,171012,2,0,L|49:252,1,88.5,0|8,3:0|0:0,0:0:0:0:
112,152,171387,2,8,L|123:203,2,44.25
84,64,171762,1,0,3:0:0:0:
42,250,171950,6,0,P|118:233|217:217,1,159.29999513855,4|2,0:0|0:0,0:0:0:0:
336,256,172512,1,0,3:0:0:0:
253,69,172700,2,0,L|196:224,1,159.29999513855,12|8,0:0|0:0,0:0:0:0:
240,340,173262,6,0,B|231:286|231:286|266:185,1,159.29999513855,4|0,0:0|0:0,0:0:0:0:
246,347,174012,1,0,0:0:0:0:
246,347,174106,1,0,0:0:0:0:
246,347,174200,2,4,L|232:301,2,39.8249987846375,4|4|4,3:0|3:0|3:0,3:0:0:0:
243,109,174575,2,0,B|263:189,1,79.649997569275,2|8,0:1|0:0,0:0:0:0:
269,192,174856,1,0,0:0:0:0:
269,192,174950,6,0,B|222:183|222:183|161:197|161:197|101:185,1,159.29999513855,4|8,0:0|0:0,0:0:0:0:
247,286,175512,2,0,L|336:276,1,79.649997569275,0|0,3:0|0:0,0:0:0:0:
243,109,175887,1,8,0:0:0:0:
220,292,176075,1,8,0:0:0:0:
113,187,176262,6,0,B|87:294|87:294|111:351,1,159.29999513855,4|0,0:0|0:0,0:0:0:0:
326,278,176825,1,8,0:0:0:0:
257,185,177012,2,0,P|153:162|104:196,1,159.29999513855
186,244,177575,1,8,0:0:0:0:
223,56,177762,5,8,0:0:0:0:
223,56,177856,1,8,0:0:0:0:
223,56,177950,2,0,B|194:25|194:25|167:98|190:161,1,177,4|0,0:0|3:0,0:0:0:0:
339,243,178512,2,0,L|242:217,1,88.5,2|8,0:0|0:0,0:0:0:0:
83,265,178887,2,0,L|178:237,1,88.5,2|0,0:0|0:0,0:0:0:0:
242,104,179262,6,0,P|252:216|278:280,1,177,2|8,0:0|0:0,0:0:0:0:
332,188,179825,1,0,0:0:0:0:
204,328,180012,1,2,0:0:0:0:
120,184,180200,1,8,0:0:0:0:
244,156,180387,2,0,L|224:248,1,88.5,2|0,0:0|0:0,0:0:0:0:
120,352,180762,5,0,3:0:0:0:
120,352,180856,1,0,3:0:0:0:
120,352,180950,1,4,0:0:0:0:
55,224,181137,2,0,B|109:208|109:208|231:244,1,177,2|0,0:0|0:0,0:0:0:0:
332,280,181700,1,8,0:0:0:0:
420,184,181887,2,0,P|376:188|320:196,1,88.5,2|0,0:0|0:0,0:0:0:0:
136,240,182262,5,8,0:0:0:0:
136,240,182356,1,8,0:0:0:0:
136,240,182450,1,4,0:0:0:0:
255,203,182637,1,2,0:0:0:0:
192,68,182825,6,0,L|180:132,1,44.25,0|0,3:0|0:0,0:0:0:0:
211,211,183012,2,0,L|272:199,1,44.25,0|0,3:0|3:0,0:0:0:0:
328,148,183200,2,0,L|280:116,1,44.25,0|0,1:0|1:0,1:0:0:0:
244,288,183387,2,8,L|284:316,1,44.25,0|0,1:0|1:0,1:0:0:0:
356,372,183575,6,0,B|372:324|372:324|356:240,1,119.474996353912,8|0,0:3|2:0,0:0:0:0:
352,224,183950,5,8,1:2:0:0:
36,260,184325,1,8,1:2:0:0:
360,44,185075,5,8,1:2:0:0:
264,348,185450,1,8,1:2:0:0:
360,44,186012,6,0,L|304:228,1,177,4|4,3:0|3:0,0:0:0:0:
264,348,186575,2,0,P|248:304|224:252,1,88.5,8|4,0:0|3:0,0:0:0:0:
108,164,186950,5,8,1:2:0:0:
438,303,187325,1,8,1:2:0:0:
108,164,187887,5,8,1:2:0:0:
392,106,188262,2,0,B|446:103|470:132|470:132|395:180|264:180|317:103|215:100|166:120,1,398.250015192032,4|0,0:0|3:0,0:0:0:0:
66,169,189575,2,0,P|97:175|177:195,1,99.5625037980081,2|0,0:0|0:0,0:0:0:0:
191,206,189950,6,0,P|95:217|0:233,1,177,4|8,0:0|0:3,0:0:0:0:
88,352,190512,1,0,0:0:0:0:
88,352,190606,1,0,3:0:0:0:
88,352,190700,2,0,L|112:264,1,88.5,8|0,0:0|0:0,0:0:0:0:
172,119,191075,2,0,L|193:219,1,88.5,0|0,3:0|0:0,0:0:0:0:
282,311,191450,6,0,P|192:286|94:263,1,177,0|0,3:0|3:0,0:0:0:0:
173,361,192012,1,0,0:0:0:0:
275,228,192200,2,0,P|231:215|176:202,1,88.5,0|0,3:0|0:0,0:0:0:0:
27,280,192575,2,0,P|69:276|122:265,1,88.5,0|0,3:0|0:0,0:0:0:0:
308,216,192950,5,4,0:0:0:0:
308,216,193325,2,0,P|347:222|391:233,1,79.649997569275,0|0,3:0|0:0,0:0:0:0:
215,223,193700,2,0,P|177:238|141:258,1,79.649997569275,8|0,0:0|0:0,0:0:0:0:
253,148,194075,2,0,P|243:110|216:55,1,79.649997569275,0|0,3:0|0:0,0:0:0:0:
152,0,194450,5,0,3:0:0:0:
95,124,194637,2,0,L|264:149,1,159.29999513855,8|0,0:0|0:0,0:0:0:0:
389,118,195200,1,8,0:0:0:0:
304,12,195387,1,8,3:0:0:0:
236,184,195575,1,4,3:0:0:0:
404,88,195762,1,4,3:0:0:0:
172,32,195950,5,4,0:0:0:0:
256,192,196043,12,0,197825,0:0:0:0:
248,84,198200,6,0,B|349:108|349:108|349:87|328:64,1,146.025004456329,2|0,0:0|0:0,0:0:0:0:
252,164,198575,6,0,B|276:276|276:276|293:264|300:236,1,159.29999513855,2|0,0:0|0:0,0:0:0:0:
356,152,198950,5,4,0:0:0:0:
142,130,210950,5,6,0:0:0:0:
142,130,211137,2,0,L|238:118,1,70.8
311,105,211512,2,0,P|302:139|291:191,2,70.8
194,52,212075,2,0,P|203:86|217:140,1,70.8,0|0,3:0|0:0,0:0:0:0:
186,268,212450,5,2,0:0:0:0:
108,208,212637,2,0,P|140:198|182:188,1,70.8,0|0,0:0|3:0,0:0:0:0:
324,292,213012,2,0,P|251:290|183:267,1,141.6
108,208,213575,2,0,P|111:174|127:116,1,70.8
276,205,213950,5,2,0:0:0:0:
199,338,214137,2,0,L|184:256,1,70.8
100,176,214512,2,0,P|92:211|82:260,2,70.8,2|0|0,0:0|0:0|0:0,0:0:0:0:
168,83,215075,2,0,P|182:116|198:161,1,70.8,0|0,3:0|0:0,0:0:0:0:
270,278,215450,5,2,0:0:0:0:
171,288,215637,2,0,P|180:252|197:210,1,70.8,0|0,0:0|3:0,0:0:0:0:
293,138,216012,2,0,P|282:201|269:279,1,141.6
172,302,216575,2,0,L|91:310,1,70.8,0|0,3:0|0:0,0:0:0:0:
156,220,216950,5,4,0:0:0:0:
269,277,217137,2,0,P|304:268|352:260,1,70.8,2|0,0:0|3:0,0:0:0:0:
436,244,217512,2,0,P|424:276|412:320,2,70.8,2|0|0,0:0|0:0|0:0,0:0:0:0:
432,144,218075,2,0,P|400:156|364:172,1,70.8,0|0,3:0|0:0,0:0:0:0:
269,277,218450,5,0,3:0:0:0:
188,220,218637,2,0,P|176:254|168:304,2,70.8,0|0|0,0:0|3:0|0:0,0:0:0:0:
337,258,219200,2,0,P|302:268|261:278,1,70.8,8|0,0:0|0:0,0:0:0:0:
138,169,219575,2,0,P|163:193|202:237,1,70.8,0|8,3:0|0:0,0:0:0:0:
196,324,219856,5,8,0:0:0:0:
196,324,219950,2,0,P|212:220|250:148,1,177,4|0,0:0|0:0,0:0:0:0:
323,63,220512,1,0,0:0:0:0:
386,209,220700,5,0,3:0:0:0:
386,209,220793,1,0,3:2:0:0:
386,209,220887,2,0,L|313:189,1,44.25,8|8,3:0|3:0,0:0:0:0:
280,71,221075,1,8,0:0:0:0:
280,71,221168,1,8,0:0:0:0:
280,71,221262,2,0,L|348:60,1,44.25,8|8,3:0|0:0,0:0:0:0:
476,180,221450,6,0,P|435:207|336:192,1,146.025004456329,2|0,0:0|0:0,0:0:0:0:
316,168,221825,1,0,3:0:0:0:
60,240,222012,6,0,B|120:227,1,53.0999983795166,8|0,0:0|0:0,0:0:0:0:
225,304,222200,2,0,L|161:293,1,53.0999983795166,8|0,0:0|3:0,0:0:0:0:
160,154,222387,2,0,L|224:145,1,57.5249973667146,8|0,0:0|0:0,0:0:0:0:
322,210,222575,1,8,0:0:0:0:
340,258,222668,1,8,0:0:0:0:
320,306,222762,1,4,3:0:0:0:
270,322,222856,1,12,3:0:0:0:
225,304,222950,6,0,P|203:197|237:116,1,194.700005941773,4|8,0:0|0:0,0:0:0:0:
322,210,223512,1,0,3:0:0:0:
137,136,223700,2,0,L|247:117,1,97.3500029708863,0|2,0:0|0:0,0:0:0:0:
344,44,224075,1,8,0:0:0:0:
472,136,224262,1,0,0:0:0:0:
399,280,224450,6,0,P|348:287|287:296,1,97.3500029708863,2|0,0:0|0:0,0:0:0:0:
120,228,224825,1,8,0:0:0:0:
311,105,225012,2,0,B|300:170|300:170|318:232|318:232|302:300,1,194.700005941773
216,232,225575,1,8,0:0:0:0:
400,160,225762,1,0,0:0:0:0:
275,51,225950,6,0,L|255:153,1,97.3500029708863,2|0,0:0|0:0,0:0:0:0:
294,291,226325,1,8,0:0:0:0:
400,160,226512,1,0,0:0:0:0:
176,192,226700,1,0,3:0:0:0:
283,384,226887,2,0,B|299:340|299:340|291:272,1,97.3500029708863,0|8,0:0|0:0,0:0:0:0:
264,110,227262,1,0,0:0:0:0:
82,166,227450,6,0,P|129:177|182:194,1,97.3500029708863,2|0,0:0|0:0,0:0:0:0:
324,252,227825,1,8,0:0:0:0:
108,328,228012,2,0,B|204:296|204:368|300:340,1,194.700005941773
432,312,228575,1,8,0:0:0:0:
256,272,228762,5,8,0:0:0:0:
256,272,228856,1,8,0:0:0:0:
256,272,228950,1,2,0:0:0:0:
416,228,229137,1,0,0:0:0:0:
296,340,229325,1,8,0:0:0:0:
292,124,229512,2,0,P|308:168|328:240,1,97.3500029708863,0|0,0:0|3:0,0:0:0:0:
172,324,229887,1,0,0:0:0:0:
224,196,230075,1,8,0:0:0:0:
423,271,230262,1,0,0:0:0:0:
268,308,230450,6,0,L|168:324,1,97.3500029708863,2|0,0:0|0:0,0:0:0:0:
208,212,230825,1,8,0:0:0:0:
341,220,231012,2,0,P|383:242|431:278,1,97.3500029708863
208,212,231387,2,0,P|230:168|259:129,1,97.3500029708863,0|8,3:0|0:0,0:0:0:0:
360,48,231762,1,0,0:0:0:0:
423,271,231950,5,2,0:0:0:0:
308,200,232137,1,0,3:0:0:0:
168,248,232325,2,0,P|120:256|52:260,1,97.3500029708863,8|0,0:0|0:0,0:0:0:0:
144,132,232700,1,2,0:0:0:0:
280,272,232887,1,0,3:0:0:0:
327,281,232981,1,8,0:0:0:0:
375,277,233075,1,8,3:2:0:0:
419,258,233168,1,8,0:0:0:0:
446,217,233262,2,0,L|432:161,1,48.6750014854432,8|0,0:0|0:0,0:0:0:0:
312,116,233450,6,0,P|293:192|278:288,1,159.29999513855,4|0,0:0|0:0,0:0:0:0:
418,307,233825,2,0,P|395:290|372:275,1,53.0999983795166,8|0,0:0|0:0,0:0:0:0:
160,298,234012,6,0,P|241:301|285:263,1,132.75,6|0,0:0|0:0,0:0:0:0:
446,217,234387,6,0,L|383:190,1,57.5249973667146,8|0,0:0|0:0,0:0:0:0:
312,116,234575,2,0,L|253:129,1,57.5249973667146,8|8,0:0|0:0,0:0:0:0:
148,200,234762,2,0,L|82:188,1,57.5249973667146,4|4,3:0|3:0,0:0:0:0:
145,108,234950,6,0,B|175:244|175:244|157:308,1,194.700005941773,4|8,0:0|0:0,0:0:0:0:
64,212,235512,1,0,0:0:0:0:
236,132,235700,1,0,3:0:0:0:
316,240,235887,2,0,P|320:296|304:344,1,97.3500029708863,0|8,0:0|0:0,0:0:0:0:
152,228,236262,1,0,0:0:0:0:
324,156,236450,6,0,P|364:184|400:228,1,97.3500029708863,2|0,0:0|0:0,0:0:0:0:
308,335,236825,1,8,0:0:0:0:
123,254,237012,2,0,P|242:234|324:241,1,194.700005941773
236,156,237575,1,8,0:0:0:0:
156,332,237762,1,0,0:0:0:0:
88,216,237950,6,0,P|76:168|68:112,1,97.3500029708863,2|0,0:0|0:0,0:0:0:0:
212,64,238325,1,8,0:0:0:0:
88,216,238512,1,2,0:0:0:0:
108,32,238700,1,0,0:0:0:0:
306,102,238887,1,0,0:0:0:0:
160,156,239075,1,8,0:0:0:0:
260,0,239262,1,0,0:0:0:0:
400,130,239450,6,0,P|355:115|298:100,1,97.3500029708863,2|0,0:0|3:0,0:0:0:0:
116,120,239825,1,8,0:0:0:0:
176,316,240012,1,0,3:0:0:0:
176,316,240106,2,0,B|196:248|196:248|184:156,1,146.025004456329,0|0,3:0|3:0,0:0:0:0:
152,20,240575,1,8,3:0:0:0:
48,168,240762,1,0,0:0:0:0:
256,152,240950,5,4,0:0:0:0:
92,80,241137,1,0,0:0:0:0:
84,272,241325,1,8,0:0:0:0:
272,232,241512,2,0,P|168:204|80:180,1,194.700005941773,4|0,0:0|0:0,0:0:0:0:
168,292,242075,1,8,0:0:0:0:
300,156,242262,6,0,B|264:292|264:292|280:352,1,194.700005941773,4|0,0:0|0:0,0:0:0:0:
456,292,242825,1,8,0:0:0:0:
352,140,243012,1,0,0:0:0:0:
320,276,243200,1,8,0:0:0:0:
478,142,243387,6,0,L|429:156,1,48.6750014854432,0|0,3:0|3:0,0:0:0:0:
342,178,243574,1,8,0:0:0:0:
472,236,243762,2,0,L|416:252,1,48.6750014854432,0|0,3:0|3:0,0:0:0:0:
300,276,243950,6,0,L|324:164,1,97.3500029708863,4|0,0:0|0:0,0:0:0:0:
348,12,244325,1,8,0:0:0:0:
240,120,244512,2,0,B|116:148|156:80|36:104,1,194.700005941773,4|0,0:0|0:0,0:0:0:0:
84,196,245075,1,8,0:0:0:0:
186,49,245262,6,0,P|246:145|222:257,1,194.700005941773,4|0,0:0|0:0,0:0:0:0:
124,288,245825,1,0,3:0:0:0:
172,156,246012,1,8,3:0:0:0:
248,356,246200,1,8,3:0:0:0:
44,252,246387,1,8,0:0:0:0:
288,168,246575,1,8,0:0:0:0:
32,64,246762,1,10,0:0:0:0:
256,192,246856,12,0,248450,0:0:0:0:
