osu file format v14

[General]
AudioFilename: audio.mp3
AudioLeadIn: 0
PreviewTime: 112422
Countdown: 0
SampleSet: Soft
StackLeniency: 0.7
Mode: 0
LetterboxInBreaks: 0
WidescreenStoryboard: 1

[Editor]
DistanceSpacing: 1.4
BeatDivisor: 4
GridSize: 32
TimelineZoom: 1.4

[Metadata]
Title:Crossroads
TitleUnicode:Crossroads
Artist:Suzuki Konomi
ArtistUnicode:鈴木このみ
Creator:Erisu
Version:sanairrt's Hard
Source:Re:ゼロから始める異世界生活 禁書と謎の精霊
Tags:Re:Zero Kara Hajimeru Isekai Seikatsu Kinsho to Nazo no Seirei Re:Life in a different world from zero web video game op opening full ver version j-rock jrock rock japanese anime mayuzumi fuyuko sanairrt pikaqours tycani fuiba fuyu keywee -magic-
BeatmapID:3026138
BeatmapSetID:1462930

[Difficulty]
HPDrainRate:4.5
CircleSize:3.8
OverallDifficulty:6.5
ApproachRate:8
SliderMultiplier:1.35
SliderTickRate:1

[Events]
//Background and Video events
0,0,"bg.png",0,0
//Break Periods
2,21725,29579
2,84986,92840
2,137159,141427
//Storyboard Layer 0 (Background)
//Storyboard Layer 1 (Fail)
//Storyboard Layer 2 (Pass)
//Storyboard Layer 3 (Foreground)
//Storyboard Layer 4 (Overlay)
//Storyboard Sound Samples

[TimingPoints]
656,326.086956521739,4,2,12,40,1,0
656,-125,4,2,12,40,0,0
5547,-125,4,2,13,50,0,0
5873,-125,4,2,12,60,0,0
8155,-125,4,2,12,50,0,0
8482,-125,4,2,12,40,0,0
9623,-125,4,2,12,50,0,0
10764,-125,4,2,13,50,0,0
11090,-100,4,2,13,70,0,0
11253,-100,4,2,12,70,0,0
21525,-100,4,2,12,50,0,0
26416,-100,4,2,13,50,0,0
26742,-100,4,2,12,50,0,0
30003,-100,4,2,13,50,0,0
30166,-100,4,2,12,50,0,0
30492,-125,4,2,12,55,0,0
30982,-125,4,2,12,50,0,0
31634,-125,4,2,13,50,0,0
31960,-111.111111111111,4,2,12,60,0,0
42395,-111.111111111111,4,2,12,65,0,0
47530,-111.111111111111,4,2,12,65,0,0
47612,-142.857142857143,4,2,12,40,0,0
48753,-142.857142857143,4,2,13,40,0,0
48835,-142.857142857143,4,2,12,40,0,0
49242,-125,4,2,12,40,0,0
49405,-125,4,2,13,40,0,0
49569,-125,4,2,12,40,0,0
49895,-125,4,2,12,50,0,0
52340,-125,4,2,12,40,0,0
52503,-166.666666666667,4,2,12,40,0,0
52829,-100,4,2,13,80,0,0
53155,-100,4,2,12,80,0,0
56090,-100,4,2,13,80,0,0
56253,-100,4,2,12,80,0,0
56742,-100,4,2,13,80,0,0
56905,-100,4,2,12,80,0,0
57395,-100,4,2,13,80,0,0
57476,-100,4,2,12,80,0,0
61471,-100,4,2,13,80,0,0
61634,-100,4,2,12,80,0,0
62286,-100,4,2,13,80,0,0
62449,-100,4,2,12,80,0,0
62938,-100,4,2,13,80,0,0
63101,-100,4,2,12,80,0,0
68482,-100,4,2,12,60,0,0
68808,-100,4,2,13,60,0,0
68971,-100,4,2,12,60,0,0
73210,-100,4,2,12,40,0,0
73291,-100,4,2,13,40,0,0
73373,-166.666666666667,4,2,13,40,0,0
73699,-100,4,2,13,70,0,0
73862,-100,4,2,12,65,0,0
81525,-100,4,2,12,60,0,0
84786,326.086956521739,4,2,12,50,1,0
85438,-100,4,2,13,50,0,0
85601,-100,4,2,12,50,0,0
88047,-100,4,2,13,50,0,0
88210,-100,4,2,12,50,0,0
89025,-100,4,2,12,30,0,0
89188,-100,4,2,12,50,0,0
89351,-100,4,2,12,30,0,0
89514,-100,4,2,12,50,0,0
89677,-100,4,2,13,50,0,0
89840,-100,4,2,12,50,0,0
90655,-100,4,2,13,50,0,0
90819,-100,4,2,12,50,0,0
91633,-100,4,2,12,30,0,0
91796,-100,4,2,12,50,0,0
91959,-100,4,2,12,30,0,0
92122,-100,4,2,12,40,0,0
93264,-100,4,2,13,40,0,0
93427,-100,4,2,12,40,0,0
93590,-100,4,2,12,40,0,0
93753,-125,4,2,12,45,0,0
94079,-125,4,2,12,45,0,0
94242,-125,4,2,12,45,0,0
94895,-125,4,2,13,55,0,0
95220,-111.111111111111,4,2,12,60,0,0
105655,-111.111111111111,4,2,12,65,0,0
110790,-111.111111111111,4,2,12,65,0,0
110872,-142.857142857143,4,2,12,50,0,0
112014,-142.857142857143,4,2,13,50,0,0
112503,-125,4,2,12,50,0,0
112992,-125,4,2,13,50,0,0
113074,-125,4,2,12,50,0,0
113481,-125,4,2,12,60,0,0
116090,-100,4,2,13,80,0,0
116253,-100,4,2,12,80,0,0
119351,-100,4,2,13,80,0,0
119514,-100,4,2,12,80,0,0
120003,-100,4,2,13,80,0,0
120166,-100,4,2,12,80,0,0
120655,-100,4,2,13,80,0,0
120737,-100,4,2,12,80,0,0
124732,-100,4,2,13,80,0,0
124895,-100,4,2,12,80,0,0
125547,-100,4,2,13,80,0,0
125710,-100,4,2,12,80,0,0
126199,-100,4,2,13,80,0,0
126362,-100,4,2,12,80,0,0
131742,-100,4,2,12,70,0,0
135981,-125,4,2,12,70,0,0
136308,-125,4,2,13,60,0,0
136634,-125,4,2,12,55,0,0
136959,-125,4,2,13,50,0,0
137612,-125,4,2,13,40,0,0
137938,-125,4,2,12,20,0,0
139242,-125,4,2,13,20,0,0
139569,-125,4,2,12,40,0,0
139895,-125,4,2,12,30,0,0
140221,-125,4,2,13,30,0,0
140547,-125,4,2,12,30,0,0
140873,-125,4,2,13,30,0,0
141199,-125,4,2,12,30,0,0
141362,-125,4,2,13,30,0,0
141525,-125,4,2,12,30,0,0
141851,-125,4,2,13,30,0,0
142014,-125,4,2,12,30,0,0
142177,-125,4,2,12,40,0,0
142829,-125,4,2,12,20,0,0
142992,-125,4,2,12,25,0,0
143155,-125,4,2,12,30,0,0
143318,-125,4,2,12,35,0,0
143481,-111.111111111111,4,2,12,40,0,0
143644,-111.111111111111,4,2,12,45,0,0
143807,-111.111111111111,4,2,12,50,0,0
143970,-111.111111111111,4,2,12,55,0,0
144133,-111.111111111111,4,2,12,60,0,0
144785,-125,4,2,12,60,0,0
146416,-125,4,2,13,60,0,0
146905,-125,4,2,12,60,0,0
147069,-125,4,2,13,60,0,0
147232,-125,4,2,12,60,0,0
147312,-125,4,2,12,60,0,0
147394,-100,4,2,13,70,0,0
147476,-100,4,2,12,70,0,0
148699,-100,4,2,13,70,0,0
148862,-100,4,2,12,70,0,0
149351,-100,4,2,13,70,0,0
149433,-100,4,2,12,70,0,0
150003,-100,4,2,13,70,0,0
150166,-100,4,2,12,70,0,0
150655,-100,4,2,13,70,0,0
150737,-100,4,2,12,70,0,0
151308,-100,4,2,13,70,0,0
151471,-100,4,2,12,70,0,0
151960,-100,4,2,13,70,0,0
152041,-100,4,2,12,70,0,0
154405,-100,4,2,13,70,0,0
154569,-100,4,2,12,70,0,0
154732,-100,4,2,13,70,0,0
154895,-100,4,2,12,70,0,0
155873,-100,4,2,13,70,0,0
156199,-100,4,2,12,70,0,0
156851,-100,4,2,13,70,0,0
157014,-100,4,2,12,70,0,0
157503,-100,4,2,13,70,0,0
157666,-100,4,2,12,70,0,0
158482,-100,4,2,13,70,0,0
158645,-100,4,2,12,70,0,0
159134,-100,4,2,13,70,0,0
159297,-100,4,2,12,70,0,0
159786,-100,4,2,13,70,0,0
159867,-100,4,2,12,70,0,0
163046,-100,4,2,12,60,0,0
165819,-100,4,2,13,70,0,0
165982,-100,4,2,12,70,0,0
166471,-100,4,2,13,70,0,0
166634,-100,4,2,12,70,0,0
167938,-100,4,2,13,70,0,0
168264,-111.111111111111,4,2,12,40,0,0
173155,-111.111111111111,4,2,13,40,0,0
173399,-111.111111111111,4,2,13,40,0,0
173482,-111.111111111111,4,2,12,55,0,0
176905,-111.111111111111,4,2,13,55,0,0
177069,-111.111111111111,4,2,12,55,0,0
179025,-111.111111111111,4,2,13,55,0,0
179188,-111.111111111111,4,2,12,55,0,0
180329,-111.111111111111,4,2,13,55,0,0
180492,-111.111111111111,4,2,12,55,0,0
180982,-111.111111111111,4,2,13,55,0,0
181145,-111.111111111111,4,2,12,55,0,0
181634,-111.111111111111,4,2,13,55,0,0
181797,-111.111111111111,4,2,12,55,0,0
183916,-111.111111111111,4,2,12,25,0,0
184079,-111.111111111111,4,2,12,30,0,0
184242,-111.111111111111,4,2,12,35,0,0
184405,-111.111111111111,4,2,12,40,0,0
184568,-111.111111111111,4,2,12,45,0,0
184731,-111.111111111111,4,2,12,50,0,0
184894,-111.111111111111,4,2,12,55,0,0
185057,-111.111111111111,4,2,12,60,0,0
185220,-111.111111111111,4,2,12,70,0,0
186525,-111.111111111111,4,2,12,50,0,0
188074,-111.111111111111,4,2,13,60,0,0
188155,-111.111111111111,4,2,12,60,0,0
188807,-166.666666666666,4,2,13,60,0,0
189133,-99.9999999999999,4,2,13,80,0,0
189297,-99.9999999999999,4,2,12,80,0,0
192394,-99.9999999999999,4,2,13,80,0,0
192557,-99.9999999999999,4,2,12,80,0,0
193046,-99.9999999999999,4,2,13,80,0,0
193209,-99.9999999999999,4,2,12,80,0,0
193699,-99.9999999999999,4,2,13,80,0,0
193780,-99.9999999999999,4,2,12,80,0,0
197775,-99.9999999999999,4,2,13,80,0,0
197938,-99.9999999999999,4,2,12,80,0,0
198590,-99.9999999999999,4,2,13,80,0,0
198753,-99.9999999999999,4,2,12,80,0,0
199242,-99.9999999999999,4,2,13,80,0,0
199405,-99.9999999999999,4,2,12,80,0,0
204786,-99.9999999999999,4,2,12,60,0,0
205112,-99.9999999999999,4,2,13,60,0,0
205275,-99.9999999999999,4,2,12,60,0,0
207394,-99.9999999999999,4,2,12,65,0,0
210003,-99.9999999999999,4,2,13,70,0,0
210166,-99.9999999999999,4,2,12,70,0,0
217829,-99.9999999999999,4,2,12,60,0,0
220438,-99.9999999999999,4,2,12,55,0,0
221742,-99.9999999999999,4,2,12,50,0,0
223046,-99.9999999999999,4,2,12,40,0,0
224351,-99.9999999999999,4,2,12,30,0,0
225655,-99.9999999999999,4,2,12,20,0,0
226959,-99.9999999999999,4,2,12,5,0,0

[Colours]
Combo1 : 187,147,236
Combo2 : 121,190,80
Combo3 : 200,219,64
Combo4 : 223,122,92

[HitObjects]
75,281,5873,5,4,3:2:0:0:
75,281,6036,2,0,B|140:270|119:310|197:299,2,108,0|2|0,3:2|3:2|3:2,0:0:0:0:
19,229,6851,1,14,0:0:0:0:
19,229,7014,6,0,P|28:172|38:113,1,108,2|10,3:2|0:0,0:0:0:0:
89,69,7503,1,6,3:0:0:0:
163,110,7666,1,2,3:2:0:0:
163,110,7748,1,0,3:2:0:0:
163,110,7829,2,0,P|199:122|232:119,1,54,6|2,3:0|3:2,0:0:0:0:
265,64,8155,2,0,P|291:66|316:76,1,54,10|0,0:0|0:0,0:0:0:0:
406,72,8482,5,0,3:2:0:0:
406,72,8645,2,0,B|409:98|397:124|397:124|418:190,2,108,0|0|8,3:2|3:2|0:0,0:0:0:0:
272,1,9623,2,0,P|222:-1|195:52,1,108,4|0,3:2|3:2,0:0:0:0:
159,135,10112,2,0,B|282:148|229:83|371:84,1,216,12|8,0:0|0:3,0:0:0:0:
476,234,11090,6,0,P|449:202|359:243,1,135,6|10,3:1|0:0,0:0:0:0:
312,298,11579,2,0,P|262:314|181:283,1,135,2|2,3:2|3:2,0:0:0:0:
119,221,12069,1,10,0:0:0:0:
177,147,12232,6,0,P|209:88|173:23,1,135,2|2,3:2|3:2,0:0:0:0:
78,0,12721,2,0,P|94:48|106:87,1,67.5,10|2,0:0|3:2,0:0:0:0:
37,135,13047,1,8,3:0:0:0:
37,135,13128,1,8,0:0:0:0:
37,135,13210,1,0,3:2:0:0:
116,209,13373,2,0,P|161:184|192:190,1,67.5,8|0,0:0|0:0,0:0:0:0:
247,246,13699,6,0,P|307:255|404:270,1,135,2|8,3:2|0:0,0:0:0:0:
452,205,14188,2,0,P|484:161|457:85,1,135,2|2,3:2|3:2,0:0:0:0:
392,24,14677,1,8,0:0:0:0:
320,85,14840,6,0,B|326:128|331:144|331:144|330:154|335:170|335:170|343:205|345:237,1,135,4|2,3:2|3:2,0:0:0:0:
411,300,15329,2,0,P|364:322|325:344,1,67.5,10|2,0:0|3:2,0:0:0:0:
267,284,15655,1,10,3:0:0:0:
267,284,15737,1,8,0:0:0:0:
267,284,15819,1,0,3:2:0:0:
193,343,15982,2,0,L|150:332,3,33.75,10|8|8|8,0:0|0:0|0:0|0:0,0:0:0:0:
114,321,16308,6,0,P|81:262|113:184,1,135,6|8,3:2|0:0,0:0:0:0:
132,112,16797,2,0,B|164:124|178:144|178:144|264:117,1,135,2|0,3:2|3:2,0:0:0:0:
307,43,17286,1,10,0:0:0:0:
394,7,17449,6,0,P|408:53|433:148,1,135,2|0,3:2|3:2,0:0:0:0:
379,211,17938,2,0,P|341:197|315:193,1,67.5,10|0,0:0|3:2,0:0:0:0:
252,120,18264,1,10,3:0:0:0:
252,120,18346,1,8,0:0:0:0:
252,120,18427,1,0,3:2:0:0:
161,177,18590,2,0,P|131:192|73:179,1,67.5,10|0,0:0|0:0,0:0:0:0:
26,128,18916,6,0,P|36:93|47:56,2,67.5,6|8|8,3:2|0:0|0:0,0:0:0:0:
97,191,19405,2,0,P|126:249|91:329,1,135,6|14,3:1|0:1,0:0:0:0:
287,369,20058,6,0,P|333:320|396:335,1,135,6|10,3:2|0:0,0:0:0:0:
476,384,20547,1,10,0:3:0:0:
512,295,20710,1,6,3:1:0:0:
512,295,21036,6,0,P|503:243|490:156,1,135,6|0,3:2|3:2,0:0:0:0:
483,114,21444,1,0,3:2:0:0:
483,114,21525,1,6,3:2:0:0:
284,130,30329,5,4,3:3:0:0:
284,130,30411,1,0,3:2:0:0:
284,130,30492,2,0,P|242:118|175:99,2,108,12|2|2,0:0|0:0|0:0,0:0:0:0:
404,37,31471,1,2,0:0:0:0:
404,37,31634,2,0,P|429:73|425:123,1,81,2|0,0:3|0:0,0:0:0:0:
408,146,31960,6,0,P|427:202|435:229,1,60.7499981460572,4|0,3:2|3:2,0:0:0:0:
453,284,32286,1,8,0:0:0:0:
387,338,32449,1,2,3:2:0:0:
387,338,32612,2,0,P|339:303|266:331,1,121.499996292114,2|10,0:0|0:0,0:0:0:0:
207,357,33101,6,0,P|193:312|172:283,1,60.7499981460572,2|0,3:2|0:0,0:0:0:0:
112,258,33427,2,0,P|119:228|132:201,1,60.7499981460572,2|8,3:2|0:0,0:0:0:0:
157,120,33753,2,0,P|192:143|237:156,1,60.7499981460572,2|0,3:2|0:0,0:0:0:0:
271,208,34079,2,0,P|295:190|323:178,1,60.7499981460572,2|8,3:2|0:0,0:0:0:0:
399,215,34405,6,0,P|423:170|389:92,1,121.499996292114,2|0,0:0|3:2,0:0:0:0:
353,36,34895,1,10,0:0:0:0:
279,78,35058,2,0,P|240:96|152:87,1,121.499996292114,2|0,3:2|3:2,0:0:0:0:
83,61,35547,1,10,0:0:0:0:
22,120,35710,6,0,P|30:151|38:198,1,60.7499981460572,2|0,3:2|0:0,0:0:0:0:
20,262,36036,2,0,P|49:261|79:248,1,60.7499981460572,2|8,3:2|0:0,0:0:0:0:
140,186,36362,2,0,P|169:191|199:199,1,60.7499981460572,2|8,3:2|3:3,0:0:0:0:
222,234,36607,1,8,0:0:0:0:
222,234,36688,2,0,P|258:239|286:239,1,60.7499981460572,2|8,3:2|0:0,0:0:0:0:
366,226,37014,1,10,0:3:0:0:
366,226,37096,1,8,0:3:0:0:
366,226,37177,6,0,P|388:169|362:104,1,121.499996292114,6|8,3:2|0:0,0:0:0:0:
320,44,37666,1,0,3:2:0:0:
244,4,37829,2,0,P|224:59|208:145,1,121.499996292114,2|10,0:0|0:0,0:0:0:0:
140,186,38319,6,0,P|179:149|252:177,1,121.499996292114,2|2,3:2|3:2,0:0:0:0:
313,206,38808,1,8,0:0:0:0:
343,285,38971,2,0,P|309:292|274:308,1,60.7499981460572,2|8,3:2|3:0,0:0:0:0:
247,321,39215,1,8,0:0:0:0:
247,321,39297,2,0,P|206:312|179:310,1,60.7499981460572,2|8,3:2|0:0,0:0:0:0:
118,359,39623,1,2,0:0:0:0:
49,308,39786,5,2,3:2:0:0:
49,308,39949,2,0,P|58:261|66:225,1,60.7499981460572,2|8,3:2|0:0,0:0:0:0:
124,191,40275,2,0,P|101:157|88:135,1,60.7499981460572,2|0,3:2|0:0,0:0:0:0:
27,83,40601,2,0,P|61:60|83:47,1,60.7499981460572,2|8,3:2|0:0,0:0:0:0:
162,52,40927,6,0,B|187:64|202:83|202:83|234:72|282:62,1,121.499996292114,6|0,3:2|3:2,0:0:0:0:
359,16,41416,2,0,P|367:49|375:80,1,60.7499981460572,12|0,0:1|3:2,0:0:0:0:
464,129,41742,2,0,P|471:99|478:70,1,60.7499981460572,12|0,0:1|3:2,0:0:0:0:
364,173,42069,2,0,P|371:202|378:231,1,60.7499981460572,8|8,0:0|0:0,0:0:0:0:
391,272,42313,1,8,0:0:0:0:
391,272,42395,6,0,P|362:302|284:296,1,121.499996292114,4|10,3:2|0:0,0:0:0:0:
234,230,42884,2,0,P|195:249|102:281,1,121.499996292114,2|0,3:2|3:2,0:0:0:0:
49,230,43373,1,10,0:0:0:0:
68,139,43536,6,0,B|93:143|114:161|114:161|150:132|202:119,1,121.499996292114,2|0,3:2|3:2,0:0:0:0:
244,176,44025,1,10,0:0:0:0:
305,117,44188,2,0,P|366:80|425:75,1,121.499996292114,2|0,3:2|3:2,0:0:0:0:
484,122,44677,1,10,0:0:0:0:
512,203,44840,6,0,B|492:213|460:209|460:209|440:230|393:243,1,121.499996292114,2|0,0:0|3:2,0:0:0:0:
355,312,45329,1,10,0:0:0:0:
299,247,45492,2,0,P|280:174|264:104,1,121.499996292114,2|8,3:2|0:0,0:0:0:0:
307,52,45982,1,2,3:2:0:0:
210,9,46145,6,0,B|146:2|161:42|76:43,1,121.499996292114,6|0,3:2|3:2,0:0:0:0:
24,109,46634,2,0,P|38:135|46:165,1,60.7499981460572,10|0,0:0|3:2,0:0:0:0:
119,229,46960,2,0,P|127:199|141:172,1,60.7499981460572,2|8,3:2|3:2,0:0:0:0:
168,140,47204,1,8,3:2:0:0:
168,140,47286,2,0,L|205:155,3,30.3749990730286,10|8|8|0,0:0|0:0|0:0|0:0,0:0:0:0:
226,163,47612,6,0,P|270:189|372:103,1,188.999994232178,6|0,3:2|0:0,0:0:0:0:
466,28,48590,1,6,0:3:0:0:
466,28,48753,2,0,P|477:73|492:135,1,94.4999971160889,4|8,0:3|0:3,0:0:0:0:
437,175,49242,2,0,P|427:206|414:248,1,54,10|8,0:3|0:3,0:0:0:0:
407,262,49487,1,8,0:3:0:0:
407,262,49569,1,2,3:2:0:0:
329,320,49732,1,8,0:0:0:0:
329,320,49813,1,8,0:0:0:0:
329,320,49895,2,0,L|312:277,3,27,10|8|8|8,0:0|0:0|0:0|0:0,0:0:0:0:
305,259,50221,5,6,3:2:0:0:
228,321,50384,2,0,P|191:339|111:319,2,108,2|10|10,3:2|0:0|0:0,0:0:0:0:
281,179,51362,2,0,P|268:121|258:63,1,108,6|8,3:2|0:0,0:0:0:0:
196,18,51851,1,6,3:2:0:0:
19,160,52503,6,0,P|46:179|77:177,1,60.7499981460572,2|0,0:0|0:0,0:0:0:0:
114,146,52829,6,0,B|205:127|183:184|276:163,1,135,6|8,3:1|0:0,0:0:0:0:
293,86,53319,2,0,P|349:48|418:87,1,135,0|0,3:2|3:2,0:0:0:0:
476,134,53808,1,10,0:0:0:0:
415,206,53971,6,0,B|443:283|443:283|412:332,1,135,2|0,3:2|3:2,0:0:0:0:
313,323,54460,2,0,P|287:301|239:303,1,67.5,10|0,0:0|3:2,0:0:0:0:
173,346,54786,2,0,P|139:342|114:320,1,67.5,10|0,0:3|3:2,0:0:0:0:
84,284,55030,1,0,0:0:0:0:
84,284,55112,2,0,P|95:222|103:167,1,101.25,10|0,0:0|0:0,0:0:0:0:
80,140,55438,6,0,P|139:121|225:92,1,135,2|8,3:2|0:0,0:0:0:0:
284,154,55927,1,0,3:2:0:0:
361,99,56090,2,0,P|372:61|375:24,1,67.5,2|0,0:0|3:2,0:0:0:0:
284,154,56416,2,0,P|288:187|297:219,1,67.5,8|0,0:0|0:0,0:0:0:0:
336,305,56742,6,0,P|398:289|478:273,1,135,2|8,3:2|0:0,0:0:0:0:
511,193,57232,1,2,3:2:0:0:
431,141,57395,2,0,B|404:137|381:101|381:101|346:89|289:114,1,135,2|8,3:2|0:0,0:0:0:0:
245,170,57884,1,10,0:0:0:0:
245,170,57965,1,8,0:0:0:0:
245,170,58047,6,0,P|221:133|188:42,1,135,6|10,3:2|0:0,0:0:0:0:
105,3,58536,2,0,P|85:49|78:91,1,67.5,2|0,3:2|0:0,0:0:0:0:
10,129,58862,2,0,P|30:175|37:217,1,67.5,2|8,3:2|0:0,0:0:0:0:
5,281,59188,6,0,P|47:285|144:320,1,135,2|0,3:2|3:2,0:0:0:0:
207,374,59677,2,0,P|238:344|270:337,1,67.5,10|0,0:0|3:2,0:0:0:0:
329,272,60003,1,10,0:3:0:0:
329,272,60085,1,8,0:0:0:0:
329,272,60166,1,0,3:2:0:0:
423,275,60329,2,0,P|413:233|406:199,1,67.5,10|0,0:0|0:0,0:0:0:0:
491,144,60655,6,0,P|462:115|367:116,1,135,6|8,3:2|0:0,0:0:0:0:
288,157,61145,1,2,3:2:0:0:
217,93,61308,2,0,L|236:21,2,67.5,6|4|2,0:3|0:3|3:2,0:0:0:0:
134,138,61797,6,0,P|100:194|135:268,2,135,8|8|4,0:0|0:0|3:1,0:0:0:0:
217,93,62612,1,0,0:0:0:0:
217,93,62775,1,0,3:2:0:0:
288,157,62938,2,0,P|336:145|365:137,1,67.5,2|8,3:2|0:3,0:0:0:0:
398,126,63183,1,8,0:3:0:0:
398,126,63264,6,0,P|440:183|444:258,1,135,6|10,3:2|0:0,0:0:0:0:
406,330,63753,2,0,P|341:335|250:372,1,135,2|0,3:2|3:2,0:0:0:0:
206,293,64242,2,0,P|152:301|135:296,1,67.5,10|0,0:0|3:2,0:0:0:0:
46,310,64569,6,0,P|60:244|55:158,1,135,2|10,0:0|0:0,0:0:0:0:
16,92,65058,2,0,P|66:91|110:78,1,67.5,2|8,3:2|0:3,0:0:0:0:
128,75,65302,1,8,0:0:0:0:
128,75,65384,1,0,3:2:0:0:
197,150,65547,2,0,P|247:151|291:164,1,67.5,10|0,0:0|0:0,0:0:0:0:
343,103,65873,6,0,P|292:172|290:243,1,135,6|8,3:1|0:0,0:0:0:0:
249,305,66362,2,0,P|326:294|412:285,1,135,6|0,3:2|3:2,0:0:0:0:
422,313,66770,1,0,0:0:0:0:
422,313,66851,2,0,B|452:241|452:241|434:193|434:193|463:94,1,202.5,14|0,0:1|3:2,0:0:0:0:
388,35,67503,6,0,P|346:39|307:42,1,67.5,10|0,0:2|3:2,0:0:0:0:
281,145,67829,2,0,P|247:141|213:138,1,67.5,10|0,0:2|3:2,0:0:0:0:
146,54,68155,2,0,P|112:56|78:60,1,67.5,10|8,0:2|0:0,0:0:0:0:
31,62,68400,1,8,0:0:0:0:
31,62,68482,6,0,P|32:98|36:141,1,67.5,4|0,3:2|0:0,0:0:0:0:
117,175,68808,2,0,P|116:208|113:242,1,67.5,2|0,0:3|3:2,0:0:0:0:
39,300,69134,1,10,3:2:0:0:
39,300,69297,2,0,P|89:337|173:311,1,135,6|6,3:2|3:1,0:0:0:0:
227,261,69786,6,0,P|270:273|302:283,1,67.5,0|0,0:0|3:2,0:0:0:0:
361,343,70112,1,10,0:0:0:0:
419,268,70275,1,0,3:2:0:0:
419,268,70357,1,0,3:2:0:0:
419,268,70438,2,0,P|438:213|411:132,1,135,10|10,0:0|0:0,0:0:0:0:
347,78,70927,1,0,3:2:0:0:
347,78,71009,1,0,3:2:0:0:
347,78,71090,6,0,P|336:113|320:169,2,67.5,2|0|10,3:2|3:2|0:0,0:0:0:0:
255,101,71579,2,0,B|179:85|204:132|113:113,1,135,6|10,3:2|0:0,0:0:0:0:
78,102,71987,1,8,0:3:0:0:
78,102,72069,1,0,3:2:0:0:
3,160,72232,2,0,P|35:191|129:184,1,135,6|0,3:1|3:2,0:0:0:0:
220,124,72721,5,10,0:1:0:0:
498,226,73373,6,0,P|475:206|430:210,1,60.7499981460572,2|0,0:3|0:0,0:0:0:0:
415,243,73699,6,0,P|378:278|273:259,1,135,6|10,3:1|0:0,0:0:0:0:
258,191,74188,2,0,P|217:225|214:319,1,135,2|2,3:2|3:2,0:0:0:0:
297,277,74677,1,10,0:0:0:0:
362,344,74840,6,0,P|414:328|509:310,1,135,2|2,3:2|3:2,0:0:0:0:
506,207,75329,2,0,P|471:197|438:172,1,67.5,10|0,0:0|3:2,0:0:0:0:
376,115,75655,1,10,0:3:0:0:
376,115,75737,1,8,0:0:0:0:
376,115,75819,1,0,3:2:0:0:
309,47,75982,2,0,P|293:84|278:129,1,67.5,10|0,0:0|0:0,0:0:0:0:
240,193,76308,6,0,P|210:159|117:171,1,135,2|10,3:2|0:0,0:0:0:0:
32,153,76797,2,0,P|51:210|79:300,1,135,2|2,3:2|3:2,0:0:0:0:
114,366,77286,1,8,0:0:0:0:
189,309,77449,6,0,P|241:286|320:298,1,135,6|2,3:1|3:2,0:0:0:0:
387,358,77938,2,0,P|396:308|404:276,1,67.5,10|0,0:0|3:2,0:0:0:0:
471,230,78264,1,10,0:3:0:0:
471,230,78346,1,8,0:3:0:0:
471,230,78427,1,0,3:2:0:0:
410,157,78590,2,0,L|368:172,3,33.75,10|8|8|8,0:0|0:0|0:0|0:0,0:0:0:0:
340,197,78916,6,0,P|301:185|207:171,1,135,6|8,3:2|0:0,0:0:0:0:
153,248,79405,2,0,P|116:187|132:113,1,135,2|0,3:2|3:2,0:0:0:0:
159,38,79895,1,10,0:0:0:0:
249,64,80058,6,0,B|286:66|307:49|307:49|346:66|397:44,1,135,0|0,3:2|3:2,0:0:0:0:
472,40,80547,2,0,P|455:90|448:126,1,67.5,10|0,0:0|3:2,0:0:0:0:
383,169,80873,1,10,0:3:0:0:
383,169,80954,1,8,0:0:0:0:
383,169,81036,1,0,3:2:0:0:
456,268,81199,2,0,P|421:249|388:253,1,67.5,10|0,0:0|0:0,0:0:0:0:
330,320,81525,6,0,P|279:332|186:326,1,135,6|2,3:1|3:2,0:0:0:0:
106,302,82014,2,0,P|115:256|122:221,1,67.5,2|10,3:2|0:3,0:0:0:0:
181,164,82340,2,0,L|167:122,3,33.75,8|8|8|8,0:0|0:0|0:0|0:0,0:0:0:0:
154,87,82666,6,0,P|105:57|31:93,1,135,6|2,3:2|3:2,0:0:0:0:
6,193,83155,2,0,P|59:173|96:165,1,67.5,10|2,0:0|3:2,0:0:0:0:
164,278,83482,2,0,P|113:285|64:233,2,101.25,10|10|10,3:2|3:2|3:2,0:0:0:0:
164,278,84786,5,6,3:2:0:0:
181,164,93590,5,4,3:3:0:0:
181,164,93671,1,0,3:2:0:0:
181,164,93753,2,0,P|238:130|286:143,1,108,12|0,0:0|0:0,0:0:0:0:
345,167,94242,2,0,P|338:201|332:233,1,54,6|0,0:3|0:0,0:0:0:0:
263,246,94568,2,0,P|270:280|276:312,1,54,6|0,0:3|0:0,0:0:0:0:
321,357,94894,2,0,P|351:368|384:361,1,54,2|0,0:3|0:0,0:0:0:0:
448,328,95220,6,0,P|453:270|468:183,1,121.499996292114,4|8,3:2|0:0,0:0:0:0:
484,125,95709,2,0,B|424:104|424:143|350:130,1,121.499996292114,2|0,3:2|3:2,0:0:0:0:
317,61,96199,1,10,0:0:0:0:
257,121,96362,6,0,P|225:194|239:239,2,121.499996292114,2|2|2,3:2|3:2|3:2,0:0:0:0:
317,61,97177,1,0,3:0:0:0:
317,61,97258,1,8,0:0:0:0:
317,61,97340,1,2,3:2:0:0:
385,119,97503,2,0,P|375:157|368:204,1,60.7499981460572,8|2,0:0|0:0,0:0:0:0:
444,246,97829,6,0,B|426:253|408:281|408:281|319:262,1,121.499996292114,0|10,3:2|0:0,0:0:0:0:
262,228,98318,2,0,P|204:239|131:254,1,121.499996292114,2|0,3:2|3:2,0:0:0:0:
80,309,98807,1,10,0:0:0:0:
21,247,98970,6,0,B|32:189|32:189|29:177|29:177|40:121,2,121.499996292114,2|2|2,3:2|3:2|3:2,0:0:0:0:
80,309,99786,1,8,3:3:0:0:
80,309,99867,1,8,0:0:0:0:
80,309,99949,2,0,P|127:329|153:340,1,60.7499981460572,2|8,3:2|0:0,0:0:0:0:
226,294,100275,1,10,0:3:0:0:
226,294,100356,1,8,0:3:0:0:
226,294,100438,6,0,P|252:254|236:166,1,121.499996292114,6|8,3:2|0:0,0:0:0:0:
219,100,100927,1,0,3:2:0:0:
283,44,101090,2,0,P|352:64|423:79,1,121.499996292114,2|10,0:0|0:0,0:0:0:0:
485,70,101579,6,0,P|472:113|466:135,1,60.7499981460572,2|0,3:2|0:0,0:0:0:0:
396,174,101905,2,0,P|409:217|415:239,1,60.7499981460572,2|8,3:2|0:0,0:0:0:0:
432,315,102231,2,0,P|374:340|351:347,1,60.7499981460572,2|8,3:2|3:0,0:0:0:0:
338,319,102476,1,8,0:0:0:0:
338,319,102557,2,0,P|310:305|282:294,1,60.7499981460572,2|8,3:2|0:0,0:0:0:0:
209,338,102883,1,2,0:0:0:0:
139,288,103046,6,0,P|85:269|41:291,2,91.1249972190858,2|2|2,3:2|0:0|3:2,0:0:0:0:
209,338,103699,1,0,0:0:0:0:
260,270,103862,2,0,P|250:224|243:196,1,60.7499981460572,2|8,3:2|0:0,0:0:0:0:
175,137,104188,6,0,P|119:166|51:152,1,121.499996292114,6|0,3:2|3:2,0:0:0:0:
85,16,104677,2,0,P|98:44|105:74,1,60.7499981460572,12|0,0:1|3:2,0:0:0:0:
186,144,105003,2,0,P|193:114|205:86,1,60.7499981460572,12|0,0:1|3:2,0:0:0:0:
293,25,105329,2,0,P|305:52|312:82,1,60.7499981460572,8|8,0:0|0:0,0:0:0:0:
305,124,105574,1,8,0:0:0:0:
305,124,105655,6,0,P|296:156|288:203,2,60.7499981460572,4|0|10,3:2|3:2|0:0,0:0:0:0:
388,108,106144,2,0,B|430:93|460:88|460:88|496:120|486:148,1,121.499996292114,2|0,3:2|3:2,0:0:0:0:
487,210,106633,1,10,0:0:0:0:
421,264,106796,6,0,B|394:263|349:230|349:230|296:268,1,121.499996292114,2|0,3:2|3:2,0:0:0:0:
248,307,107286,1,10,0:0:0:0:
196,375,107449,2,0,P|165:323|183:249,1,121.499996292114,2|0,3:2|3:2,0:0:0:0:
216,191,107938,1,10,0:0:0:0:
142,147,108101,6,0,B|106:181|67:174|67:174|52:152|22:146,1,121.499996292114,2|0,0:0|3:2,0:0:0:0:
0,73,108590,1,10,0:0:0:0:
74,31,108753,2,0,P|107:39|141:48,2,60.7499981460572,2|4|8,3:2|3:0|0:0,0:0:0:0:
0,73,109242,1,2,3:2:0:0:
37,150,109405,6,0,P|51:213|45:290,1,121.499996292114,6|0,3:2|3:2,0:0:0:0:
15,371,109894,2,0,P|71:362|102:357,1,60.7499981460572,10|0,0:0|3:2,0:0:0:0:
155,291,110220,2,0,P|184:295|214:300,1,60.7499981460572,2|8,3:2|3:2,0:0:0:0:
257,304,110465,1,8,3:2:0:0:
257,304,110546,2,0,L|269:266,3,30.3749990730286,10|8|8|0,0:0|0:0|0:0|0:0,0:0:0:0:
297,262,110872,6,0,B|272:208|302:147|316:200|341:126|306:73,1,188.999994232178,6|0,3:2|0:0,0:0:0:0:
198,15,111851,1,6,0:3:0:0:
198,15,112014,2,0,P|183:62|174:129,1,94.4999971160889,4|4,3:2|3:2,0:0:0:0:
105,134,112503,2,0,P|116:166|125:197,1,54,2|0,0:0|0:0,0:0:0:0:
79,257,112829,2,0,P|112:263|143:271,1,54,2|8,0:0|0:3,0:0:0:0:
160,292,113074,1,8,0:3:0:0:
160,292,113155,2,0,P|202:283|265:277,1,81,2|0,3:2|0:0,0:0:0:0:
273,295,113481,5,14,0:0:0:0:
329,216,113644,2,0,P|345:190|323:113,2,108,2|10|10,3:2|0:0|0:0,0:0:0:0:
273,295,114459,1,0,3:2:0:0:
212,237,114622,2,0,P|186:212|108:215,1,108,6|0,3:2|3:2,0:0:0:0:
47,240,115112,1,10,0:0:0:0:
47,240,115275,1,0,3:2:0:0:
22,337,115438,2,0,P|56:327|89:319,1,54,2|8,0:0|0:3,0:0:0:0:
110,312,115682,1,8,0:3:0:0:
110,312,115764,2,0,L|157:327,3,27,10|8|8|8,0:0|0:0|0:0|0:0,0:0:0:0:
182,330,116090,6,0,P|222:280|211:186,1,135,6|8,3:1|0:0,0:0:0:0:
156,144,116579,2,0,B|178:118|203:108|203:108|251:141|297:106,1,135,0|0,3:2|3:2,0:0:0:0:
358,76,117068,1,10,0:0:0:0:
429,137,117231,6,0,P|419:184|401:282,1,135,2|0,3:2|3:2,0:0:0:0:
414,363,117720,2,0,P|384:348|343:344,1,67.5,10|0,0:0|3:2,0:0:0:0:
287,273,118046,2,0,P|257:288|216:292,1,67.5,10|0,0:3|3:2,0:0:0:0:
177,301,118291,1,0,0:0:0:0:
177,301,118372,2,0,P|166:237|145:173,1,101.25,10|0,0:0|0:0,0:0:0:0:
138,157,118699,6,0,P|91:149|34:214,1,135,2|8,3:2|0:0,0:0:0:0:
27,301,119188,1,0,3:2:0:0:
115,327,119351,2,0,P|174:301|201:294,1,67.5,2|0,0:0|3:2,0:0:0:0:
251,220,119677,2,0,P|219:208|189:193,1,67.5,8|0,0:0|0:0,0:0:0:0:
306,280,120003,6,0,P|332:244|330:202,2,67.5,2|0|8,3:2|3:2|0:0,0:0:0:0:
238,345,120492,1,2,3:2:0:0:
163,287,120655,2,0,P|163:245|129:140,1,135,2|8,3:2|0:0,0:0:0:0:
66,93,121144,1,10,0:0:0:0:
66,93,121226,1,8,0:0:0:0:
66,93,121307,6,0,B|81:121|107:125|107:125|144:85|201:95,1,135,6|10,3:2|0:0,0:0:0:0:
244,24,121796,2,0,P|269:66|273:94,1,67.5,2|0,3:2|0:0,0:0:0:0:
332,156,122122,2,0,P|341:123|360:96,1,67.5,2|8,3:2|0:0,0:0:0:0:
440,45,122449,6,0,B|465:108|465:108|464:121|464:121|488:181,1,135,2|0,3:2|3:2,0:0:0:0:
443,256,122938,2,0,P|378:269|350:281,1,67.5,10|0,0:0|3:2,0:0:0:0:
322,346,123264,1,10,0:3:0:0:
322,346,123345,1,8,0:0:0:0:
322,346,123427,1,0,3:2:0:0:
244,292,123590,2,0,P|258:249|273:206,1,67.5,10|0,0:0|0:0,0:0:0:0:
332,156,123916,6,0,P|318:100|289:7,1,135,6|8,3:2|0:0,0:0:0:0:
203,6,124405,1,2,3:2:0:0:
145,81,124568,2,0,P|189:103|226:97,2,67.5,6|4|2,0:3|0:3|3:2,0:0:0:0:
91,3,125057,6,0,P|61:38|63:129,2,135,8|8|4,0:0|0:0|3:1,0:0:0:0:
145,81,125872,1,0,0:0:0:0:
145,81,126035,1,0,3:2:0:0:
203,6,126199,2,0,P|257:23|288:36,1,67.5,2|8,3:2|0:3,0:0:0:0:
292,66,126443,1,8,0:3:0:0:
292,66,126525,6,0,P|356:57|440:52,1,135,6|10,3:2|0:0,0:0:0:0:
440,145,127014,2,0,P|373:154|305:158,1,135,2|0,3:2|3:2,0:0:0:0:
218,121,127503,2,0,P|200:83|188:40,1,67.5,10|0,0:0|3:2,0:0:0:0:
116,2,127829,6,0,P|96:60|64:157,1,135,2|10,0:0|0:0,0:0:0:0:
0,191,128318,2,0,P|12:228|25:273,1,67.5,2|8,3:2|0:3,0:0:0:0:
40,298,128563,1,8,0:0:0:0:
40,298,128644,1,0,3:2:0:0:
127,334,128807,2,0,P|172:297|221:310,1,101.25,10|0,0:0|0:0,0:0:0:0:
255,320,129133,6,0,P|316:332|402:339,1,135,6|8,3:1|0:0,0:0:0:0:
451,268,129622,2,0,P|479:209|433:134,1,135,6|8,3:2|0:3,0:0:0:0:
419,114,130030,1,8,0:3:0:0:
419,114,130112,2,0,B|415:71|363:59|316:45|344:179|248:147,1,202.5,14|0,0:1|3:2,0:0:0:0:
192,73,130764,6,0,P|161:52|127:48,1,67.5,10|0,0:2|3:2,0:0:0:0:
87,149,131090,2,0,P|53:165|32:192,1,67.5,10|0,0:2|3:2,0:0:0:0:
100,277,131416,2,0,P|97:314|110:345,1,67.5,10|8,0:2|0:0,0:0:0:0:
142,375,131661,1,8,0:0:0:0:
142,375,131742,6,0,P|226:359|278:353,1,135,4|6,3:2|0:3,0:0:0:0:
339,283,132231,1,2,3:2:0:0:
397,356,132394,1,12,0:0:0:0:
397,356,132557,2,0,P|423:327|417:233,1,135,2|6,3:2|3:1,0:0:0:0:
368,156,133046,6,0,P|322:168|275:181,1,67.5,0|2,0:0|3:2,0:0:0:0:
258,256,133372,1,10,0:0:0:0:
175,208,133536,1,0,3:2:0:0:
175,208,133617,1,0,3:2:0:0:
175,208,133699,2,0,P|147:141|183:66,1,135,10|10,0:0|0:0,0:0:0:0:
221,8,134188,1,0,3:2:0:0:
221,8,134269,1,0,3:2:0:0:
221,8,134351,6,0,P|274:12|372:30,1,135,2|10,3:2|0:0,0:0:0:0:
449,26,134840,2,0,P|445:79|427:177,1,135,2|10,3:2|0:3,0:0:0:0:
422,205,135247,1,8,0:0:0:0:
422,205,135329,1,0,3:2:0:0:
475,293,135492,2,0,P|439:249|351:261,1,135,6|0,3:2|3:2,0:0:0:0:
298,296,135981,5,10,0:0:0:0:
298,296,136144,1,0,3:2:0:0:
241,235,136307,2,0,P|209:241|180:248,1,54,8|8,0:3|0:3,0:0:0:0:
136,301,136633,2,0,P|109:294|83:290,1,54,2|0,3:2|0:0,0:0:0:0:
20,219,136959,5,4,0:1:0:0:
250,128,142177,6,0,P|215:141|186:151,3,54,4|0|0|0,3:2|0:0|3:2|0:0,0:0:0:0:
327,152,142829,2,0,P|352:142|377:133,3,54,8|8|8|8,0:0|0:0|0:0|0:0,0:0:0:0:
317,234,143481,6,0,P|327:268|344:316,1,60.7499981460572,8|8,0:0|0:0,0:0:0:0:
267,357,143807,2,0,P|258:327|248:299,1,60.7499981460572,8|8,0:0|0:0,0:0:0:0:
176,253,144133,2,0,P|141:272|109:280,1,60.7499981460572,8|8,0:0|0:0,0:0:0:0:
85,352,144459,2,0,P|51:335|28:311,1,60.7499981460572,8|8,0:0|0:0,0:0:0:0:
9,297,144704,1,8,0:0:0:0:
9,297,144785,5,4,3:1:0:0:
34,225,144949,2,0,P|46:189|47:154,1,54,0|0,0:0|3:2,0:0:0:0:
115,140,145275,2,0,P|103:104|102:69,1,54,0|0,3:2|3:2,0:0:0:0:
149,29,145601,2,0,L|194:35,3,27,8|8|8|8,0:0|0:0|0:0|0:0,0:0:0:0:
202,59,145927,6,0,B|259:54|250:97|325:99,1,108,12|8,0:1|0:3,0:0:0:0:
332,76,146334,1,8,0:0:0:0:
332,76,146416,2,0,L|338:32,3,27,2|0|8|8,3:2|0:0|0:3|0:3,0:0:0:0:
342,11,146742,1,2,3:2:0:0:
423,55,146905,1,8,0:0:0:0:
504,11,147068,2,0,P|501:62|503:108,1,81,2|0,3:2|0:0,0:0:0:0:
503,139,147394,6,0,P|456:149|377:215,1,135,6|8,3:1|0:0,0:0:0:0:
323,270,147883,1,2,3:2:0:0:
255,203,148046,2,0,P|272:154|278:131,1,67.5,0|0,0:0|3:2,0:0:0:0:
206,57,148372,2,0,P|194:88|184:121,1,67.5,10|0,0:0|3:2,0:0:0:0:
124,194,148699,6,0,P|80:233|-6:206,2,135,2|10|2,0:0|0:0|3:2,0:0:0:0:
184,121,149514,1,0,3:2:0:0:
273,89,149677,2,0,P|323:101|361:110,1,67.5,10|0,0:0|0:0,0:0:0:0:
406,39,150003,6,0,P|433:97|403:177,1,135,2|8,3:2|0:0,0:0:0:0:
338,104,150492,1,2,3:2:0:0:
270,169,150655,2,0,P|287:232|310:328,1,135,2|10,0:0|0:0,0:0:0:0:
332,384,151144,1,0,0:0:0:0:
403,322,151307,6,0,P|438:304|472:291,1,67.5,2|2,0:0|3:2,0:0:0:0:
472,186,151633,2,0,P|437:204|403:217,1,67.5,10|0,0:0|3:2,0:0:0:0:
330,164,151959,1,2,3:2:0:0:
330,164,152041,1,8,0:0:0:0:
330,164,152122,1,2,3:2:0:0:
269,236,152285,2,0,P|221:224|186:218,1,67.5,10|10,0:0|0:0,0:0:0:0:
162,245,152530,1,8,0:0:0:0:
162,245,152612,6,0,P|135:173|106:109,1,135,6|8,3:1|0:0,0:0:0:0:
20,94,153101,2,0,B|71:112|71:112|102:53|133:44,1,135,6|10,3:1|3:2,0:0:0:0:
165,35,153508,1,10,3:2:0:0:
165,35,153590,2,0,L|226:49,2,33.75,10|10|6,0:0|0:0|3:2,0:0:0:0:
52,32,153916,6,0,P|73:75|91:117,1,67.5,0|2,0:0|3:2,0:0:0:0:
125,176,154242,1,10,0:0:0:0:
66,250,154405,1,8,0:3:0:0:
66,250,154487,1,8,0:3:0:0:
66,250,154568,1,2,3:2:0:0:
127,321,154731,1,6,3:2:0:0:
207,271,154894,2,0,P|250:259|284:272,1,67.5,6|10,3:1|0:0,0:0:0:0:
303,299,155139,1,10,0:0:0:0:
303,299,155220,6,0,P|361:354|422:337,1,135,6|10,3:2|0:0,0:0:0:0:
488,293,155709,2,0,B|493:209|446:255|454:152,1,135,2|2,3:2|0:3,0:0:0:0:
353,5,156362,6,0,P|292:19|256:28,1,67.5,14|0,0:0|0:0,0:0:0:0:
278,132,156688,2,0,P|217:118|181:109,1,67.5,12|2,0:0|3:2,0:0:0:0:
141,34,157014,2,0,P|111:71|116:163,1,135,14|0,0:1|3:2,0:0:0:0:
132,197,157421,1,0,3:2:0:0:
132,197,157503,1,8,0:3:0:0:
63,271,157666,1,8,0:0:0:0:
63,271,157747,1,8,0:0:0:0:
63,271,157829,6,0,P|136:299|206:266,1,135,6|8,3:2|0:0,0:0:0:0:
269,235,158318,1,2,3:2:0:0:
353,283,158481,2,0,P|342:322|331:359,1,67.5,2|2,0:0|3:2,0:0:0:0:
269,235,158807,2,0,P|259:202|250:170,1,67.5,10|0,0:0|3:2,0:0:0:0:
170,120,159133,6,0,B|256:108|214:158|318:133,1,135,2|10,0:0|0:0,0:0:0:0:
359,62,159622,2,0,P|409:44|446:49,1,67.5,2|2,3:2|3:2,0:0:0:0:
465,64,159867,1,8,0:0:0:0:
465,64,159949,1,0,3:2:0:0:
505,150,160112,2,0,P|483:188|473:235,1,67.5,10|2,0:0|0:0,0:0:0:0:
488,255,160356,1,0,0:0:0:0:
488,255,160438,6,0,P|458:292|370:303,1,135,6|8,3:1|0:0,0:0:0:0:
307,238,160927,2,0,B|230:257|261:298|169:311,1,135,6|10,3:1|0:0,0:0:0:0:
147,317,161334,1,10,0:0:0:0:
147,317,161416,1,6,3:2:0:0:
76,277,161579,2,0,P|89:219|100:126,1,135,0|2,0:0|3:2,0:0:0:0:
75,102,161987,1,10,0:3:0:0:
75,102,162068,6,0,P|125:88|159:63,1,67.5,10|0,0:0|3:2,0:0:0:0:
198,173,162394,2,0,P|248:187|282:212,1,67.5,10|0,0:0|3:2,0:0:0:0:
321,102,162720,2,0,P|371:88|405:63,1,67.5,10|10,0:0|0:0,0:0:0:0:
425,57,162965,1,10,0:0:0:0:
425,57,163046,6,0,P|452:106|462:141,1,67.5,6|2,3:2|0:0,0:0:0:0:
512,181,163372,2,0,P|485:230|475:265,1,67.5,6|2,0:3|3:2,0:0:0:0:
422,315,163699,2,0,P|393:272|291:288,1,135,10|6,0:0|0:3,0:0:0:0:
231,311,164188,1,4,3:2:0:0:
164,243,164351,6,0,P|174:205|181:168,2,67.5,2|2|10,0:0|3:2|0:0,0:0:0:0:
231,311,164840,1,0,3:2:0:0:
231,311,164921,1,0,3:2:0:0:
231,311,165003,2,0,P|272:299|300:300,1,67.5,10|0,0:0|3:2,0:0:0:0:
343,203,165329,2,0,P|384:215|412:214,1,67.5,10|0,0:0|3:2,0:0:0:0:
454,203,165574,1,0,3:2:0:0:
454,203,165655,5,6,3:1:0:0:
405,121,165818,2,0,P|417:78|417:77,2,33.75,8|8|2,0:3|0:3|3:2,0:0:0:0:
343,203,166144,2,0,P|303:209|259:221,1,67.5,6|0,3:2|3:2,0:0:0:0:
230,226,166389,1,0,3:2:0:0:
230,226,166470,1,10,0:3:0:0:
164,293,166633,1,8,0:0:0:0:
83,221,166796,6,0,P|62:177|92:86,1,135,6|2,3:2|3:2,0:0:0:0:
114,61,167204,1,0,3:2:0:0:
114,61,167285,1,2,3:2:0:0:
184,125,167449,1,10,3:2:0:0:
263,73,167612,2,0,P|303:64|410:74,1,135,6|2,3:1|0:3,0:0:0:0:
511,194,168264,6,0,P|461:180|436:172,2,60.7499981460572,14|8|8,0:0|0:0|0:0,0:0:0:0:
452,177,169405,2,0,P|393:181|325:209,1,121.499996292114,10|0,0:0|3:2,0:0:0:0:
263,248,169894,1,10,0:0:0:0:
114,61,170872,6,0,P|123:89|133:118,2,60.7499981460572,14|8|8,0:0|0:0|0:0,0:0:0:0:
134,118,172014,2,0,P|151:185|148:255,1,121.499996292114,8|0,0:0|3:2,0:0:0:0:
141,321,172503,1,8,0:0:0:0:
330,104,173155,6,0,L|378:91,3,30.3749990730286,8|8|0|0,0:3|0:3|3:2|0:0,0:0:0:0:
396,90,173481,6,0,P|429:138|431:216,1,121.499996292114,6|6,3:1|0:3,0:0:0:0:
425,284,173970,2,0,P|390:301|362:318,1,60.7499981460572,2|8,3:2|0:0,0:0:0:0:
323,382,174296,2,0,P|288:365|260:348,1,60.7499981460572,2|4,3:2|0:3,0:0:0:0:
227,279,174622,6,0,B|155:274|194:318|98:336,1,121.499996292114,6|0,3:1|0:0,0:0:0:0:
49,284,175112,1,2,3:2:0:0:
49,284,175275,1,8,0:0:0:0:
103,219,175438,2,0,P|114:180|123:144,1,60.7499981460572,2|0,3:2|3:2,0:0:0:0:
41,126,175764,2,0,P|30:87|21:51,1,60.7499981460572,10|0,0:0|0:0,0:0:0:0:
85,7,176090,6,0,P|126:13|170:17,2,60.7499981460572,6|0|8,3:2|3:2|0:0,0:0:0:0:
24,67,176579,1,2,3:2:0:0:
24,67,176660,1,0,0:0:0:0:
24,67,176742,1,6,0:3:0:0:
76,133,176905,2,0,P|138:121|160:122,1,60.7499981460572,4|0,0:3|3:2,0:0:0:0:
236,111,177231,6,0,P|272:157|257:230,2,121.499996292114,12|10|12,0:0|0:0|0:1,0:0:0:0:
155,85,178046,2,0,P|145:118|134:155,1,60.7499981460572
65,187,178372,2,0,P|75:220|86:257,1,60.7499981460572,10|0,0:0|3:2,0:0:0:0:
66,284,178617,1,0,3:2:0:0:
66,284,178699,6,0,B|137:284|112:325|202:329,1,121.499996292114,6|4,3:2|0:3,0:0:0:0:
236,266,179188,1,2,3:2:0:0:
295,339,179351,2,0,P|321:304|311:211,1,121.499996292114,8|6,0:0|0:3,0:0:0:0:
236,266,179840,1,0,3:2:0:0:
177,204,180003,6,0,B|191:152|191:152|185:129|185:129|202:67,1,121.499996292114,6|4,3:2|0:3,0:0:0:0:
267,40,180492,1,2,3:2:0:0:
337,87,180655,2,0,P|372:92|415:91,1,60.7499981460572,8|0,0:0|3:2,0:0:0:0:
413,175,180981,2,0,P|378:170|335:171,1,60.7499981460572,4|0,0:3|3:2,0:0:0:0:
255,163,181307,6,0,B|265:211|265:211|259:231|259:231|279:306,1,121.499996292114,6|4,3:1|0:3,0:0:0:0:
248,362,181796,1,2,3:2:0:0:
176,316,181959,2,0,P|130:300|105:306,2,60.7499981460572,8|0|6,0:0|3:2|0:3,0:0:0:0:
248,362,182449,2,0,P|314:348|376:334,1,121.499996292114,4|0,3:1|3:2,0:0:0:0:
456,298,182938,6,0,P|457:263|470:232,1,60.7499981460572,10|0,0:0|3:2,0:0:0:0:
370,212,183264,2,0,P|369:177|356:146,1,60.7499981460572,10|0,0:0|3:2,0:0:0:0:
456,126,183590,2,0,P|457:91|470:60,1,60.7499981460572,10|8,0:0|0:0,0:0:0:0:
486,30,183834,1,8,0:0:0:0:
486,30,183916,6,0,P|449:20|406:10,1,60.7499981460572,8|8,0:0|0:0,0:0:0:0:
347,44,184242,2,0,P|319:71|289:103,1,60.7499981460572,8|8,0:0|0:0,0:0:0:0:
290,171,184568,2,0,P|299:208|312:250,1,60.7499981460572,8|8,0:0|0:0,0:0:0:0:
371,283,184894,2,0,P|408:293|451:303,1,60.7499981460572,8|8,0:0|0:0,0:0:0:0:
507,202,185220,6,0,P|476:216|439:221,1,60.7499981460572,10|10,0:0|0:0,0:0:0:0:
383,150,185546,2,0,P|352:136|315:131,1,60.7499981460572,10|10,0:0|0:0,0:0:0:0:
259,202,185872,2,0,P|228:216|191:221,1,60.7499981460572,10|10,0:0|0:0,0:0:0:0:
135,150,186199,2,0,P|104:136|67:131,1,60.7499981460572,10|8,0:0|0:0,0:0:0:0:
37,144,186443,1,8,0:0:0:0:
37,144,186525,5,6,3:1:0:0:
0,222,186688,2,0,P|18:257|31:298,1,60.7499981460572,2|8,3:2|0:0,0:0:0:0:
74,346,187014,2,0,P|101:315|197:315,1,121.499996292114,6|10,3:2|0:0,0:0:0:0:
218,315,187421,1,8,0:0:0:0:
218,315,187503,1,4,3:0:0:0:
293,245,187666,2,0,B|274:191|274:191|276:172|276:172|256:122,1,121.499996292114,6|0,3:1|3:2,0:0:0:0:
229,50,188155,5,0,3:2:0:0:
449,220,188807,6,0,P|417:217|390:190,1,60.7499981460572,2|0,0:1|0:0,0:0:0:0:
364,162,189133,6,0,B|295:167|311:220|222:222,1,135,6|8,3:1|0:0,0:0:0:0:
175,155,189622,2,0,P|128:141|70:215,1,135,0|0,3:2|3:2,0:0:0:0:
39,284,190112,1,10,0:0:0:0:
73,371,190275,6,0,B|99:358|118:335|118:335|154:360|204:362,1,135,2|0,3:2|3:2,0:0:0:0:
257,294,190764,2,0,P|294:271|327:275,1,67.5,10|0,0:0|3:2,0:0:0:0:
381,340,191090,2,0,P|414:337|440:317,1,67.5,10|0,0:3|3:2,0:0:0:0:
472,282,191334,1,0,0:0:0:0:
472,282,191416,2,0,P|446:208|442:161,1,101.25,10|0,0:0|0:0,0:0:0:0:
463,143,191742,6,0,P|415:149|324:106,1,135,2|8,3:2|0:0,0:0:0:0:
263,57,192231,1,0,3:2:0:0:
192,119,192394,2,0,P|175:160|169:196,1,67.5,2|0,0:0|3:2,0:0:0:0:
88,229,192720,2,0,P|80:196|66:165,1,67.5,8|0,0:0|0:0,0:0:0:0:
12,285,193046,6,0,P|40:313|136:312,1,135,2|8,3:2|0:0,0:0:0:0:
208,261,193535,1,2,3:2:0:0:
265,337,193699,2,0,P|295:296|289:212,1,135,2|8,3:2|0:0,0:0:0:0:
225,146,194188,1,10,0:0:0:0:
225,146,194269,1,8,0:0:0:0:
225,146,194351,6,0,P|290:132|383:112,1,135,6|10,3:2|0:0,0:0:0:0:
449,101,194840,2,0,P|431:133|423:164,1,67.5,2|0,3:2|0:0,0:0:0:0:
486,233,195166,2,0,P|504:265|512:296,1,67.5,2|8,3:2|0:0,0:0:0:0:
443,360,195492,6,0,B|391:344|391:344|369:350|369:350|306:336,1,135,2|0,3:2|3:2,0:0:0:0:
252,264,195981,2,0,P|212:278|163:296,1,67.5,10|0,0:0|3:2,0:0:0:0:
122,353,196307,1,10,0:3:0:0:
122,353,196389,1,8,0:0:0:0:
122,353,196470,1,0,3:2:0:0:
53,288,196633,2,0,P|64:213|64:207,1,67.5,10|0,0:0|0:0,0:0:0:0:
11,142,196959,6,0,B|64:119|64:119|90:131|90:131|160:102,1,135,6|8,3:2|0:0,0:0:0:0:
189,34,197449,1,2,3:2:0:0:
241,112,197612,2,0,L|216:183,2,67.5,6|4|2,0:3|0:3|3:2,0:0:0:0:
312,50,198101,6,0,B|395:30|363:72|453:52,2,135,8|8|4,0:0|0:0|3:1,0:0:0:0:
241,112,198916,1,0,0:0:0:0:
241,112,199079,1,0,3:2:0:0:
164,56,199242,2,0,P|133:45|83:63,1,67.5,2|8,3:2|0:3,0:0:0:0:
54,65,199487,1,8,0:3:0:0:
54,65,199568,6,0,P|53:99|72:199,1,135,6|10,3:2|0:0,0:0:0:0:
31,283,200057,2,0,P|77:229|151:240,1,135,2|0,3:2|3:2,0:0:0:0:
197,303,200546,2,0,P|238:302|279:298,1,67.5,10|0,0:0|3:2,0:0:0:0:
354,270,200872,6,0,P|368:204|349:140,1,135,2|10,0:0|0:0,0:0:0:0:
288,67,201362,2,0,P|247:74|202:87,1,67.5,2|8,3:2|0:3,0:0:0:0:
176,92,201606,1,8,0:0:0:0:
176,92,201688,1,0,3:2:0:0:
114,19,201851,2,0,P|84:53|81:117,1,101.25,10|0,0:0|0:0,0:0:0:0:
91,152,202177,6,0,P|114:207|103:290,1,135,6|8,3:1|0:0,0:0:0:0:
31,336,202666,2,0,P|89:372|173:348,1,135,6|0,3:2|3:2,0:0:0:0:
216,293,203155,2,0,B|258:300|298:286|298:286|336:312|336:312|379:293|422:303,1,202.5,14|0,0:1|3:2,0:0:0:0:
488,229,203807,6,0,P|466:196|418:175,1,67.5,10|0,0:2|3:2,0:0:0:0:
450,73,204133,2,0,P|410:75|368:106,1,67.5,10|0,0:2|3:2,0:0:0:0:
295,28,204459,2,0,P|277:63|283:115,1,67.5,10|8,0:2|0:0,0:0:0:0:
289,136,204704,1,8,0:0:0:0:
289,136,204785,6,0,P|299:202|312:278,1,135,4|2,3:2|0:3,0:0:0:0:
260,350,205275,1,0,3:2:0:0:
188,287,205438,1,10,3:2:0:0:
188,287,205601,2,0,P|139:330|49:309,1,135,6|6,3:2|3:1,0:0:0:0:
1,263,206090,6,0,P|16:210|26:174,1,67.5,0|0,0:0|3:2,0:0:0:0:
95,142,206416,1,10,0:0:0:0:
42,63,206579,1,0,3:2:0:0:
42,63,206660,1,0,0:0:0:0:
42,63,206742,2,0,P|90:48|174:84,1,135,10|10,0:0|0:0,0:0:0:0:
238,138,207231,1,0,3:2:0:0:
238,138,207313,1,0,3:2:0:0:
238,138,207394,6,0,L|379:110,1,135,2|10,3:2|0:0,0:0:0:0:
421,32,207883,2,0,P|463:93|449:164,1,135,6|10,3:2|0:0,0:0:0:0:
370,111,208372,1,0,3:2:0:0:
301,189,208535,6,0,B|223:168|240:205|160:188,1,135,6|0,3:1|3:2,0:0:0:0:
88,136,209025,2,0,P|70:178|58:217,1,67.5,10|0,0:1|3:2,0:0:0:0:
46,242,209269,1,0,3:2:0:0:
46,242,209351,1,10,0:0:0:0:
99,320,209514,1,0,3:2:0:0:
172,260,209677,2,0,L|224:252,3,33.75,10|8|8|8,3:2|0:0|0:0|0:0,0:0:0:0:
240,222,210003,6,0,P|322:245|396:264,1,135,6|10,3:1|0:0,0:0:0:0:
457,222,210492,2,0,P|481:158|447:82,1,135,2|2,3:2|3:2,0:0:0:0:
403,22,210981,1,10,0:0:0:0:
339,91,211144,6,0,B|246:82|300:86|176:77,1,135,2|2,3:2|3:2,0:0:0:0:
107,34,211633,2,0,B|127:83|127:77|134:105,1,67.5,10|0,0:0|3:2,0:0:0:0:
71,169,211959,1,10,0:3:0:0:
71,169,212041,1,8,0:0:0:0:
71,169,212122,1,0,3:2:0:0:
117,251,212285,2,0,P|177:242|215:235,1,67.5,10|0,0:0|0:0,0:0:0:0:
244,167,212612,6,0,P|305:134|368:158,1,135,2|10,3:2|0:0,0:0:0:0:
439,209,213101,2,0,B|464:290|464:290|413:352,1,135,2|2,3:2|3:2,0:0:0:0:
361,265,213590,1,8,0:0:0:0:
290,339,213753,6,0,P|259:370|163:357,1,135,6|2,3:1|3:2,0:0:0:0:
90,300,214242,2,0,P|99:260|108:231,1,67.5,10|0,0:0|3:2,0:0:0:0:
185,181,214568,1,10,0:3:0:0:
185,181,214650,1,8,0:3:0:0:
185,181,214731,1,0,3:2:0:0:
111,121,214894,2,0,L|95:81,3,33.75,10|8|8|8,0:0|0:0|0:0|0:0,0:0:0:0:
81,45,215220,6,0,P|134:2|224:20,1,135,6|8,3:2|0:0,0:0:0:0:
249,83,215709,2,0,B|325:69|310:113|395:96,1,135,2|0,3:2|3:2,0:0:0:0:
462,50,216199,1,10,0:0:0:0:
502,135,216362,6,0,P|490:177|470:279,1,135,0|0,3:2|3:2,0:0:0:0:
406,344,216851,2,0,P|377:316|344:314,1,67.5,10|0,0:0|3:2,0:0:0:0:
269,360,217177,1,10,0:3:0:0:
269,360,217258,1,8,0:0:0:0:
269,360,217340,1,0,3:2:0:0:
212,284,217503,2,0,P|223:229|231:203,1,67.5,10|0,0:0|0:0,0:0:0:0:
250,126,217829,6,0,P|289:117|328:128,2,67.5,6|0|8,3:2|3:2|0:0,0:0:0:0:
193,201,218318,2,0,P|145:237|55:222,1,135,6|12,3:2|3:1,0:0:0:0:
29,212,218726,1,0,0:0:0:0:
29,212,218807,1,2,0:0:0:0:
45,118,218970,6,0,B|17:35|17:35|73:-17,1,135,4|10,3:2|0:3,0:0:0:0:
135,47,219459,1,2,3:2:0:0:
219,5,219622,1,6,3:2:0:0:
219,5,219949,6,0,P|271:19|368:29,1,135,14|0,3:1|3:2,0:0:0:0:
398,27,220356,1,0,3:2:0:0:
398,27,220438,1,6,3:2:0:0:
256,192,220519,12,0,226959,0:0:0:0:
