osu file format v14

[General]
AudioFilename: audio.mp3
AudioLeadIn: 0
PreviewTime: 112422
Countdown: 0
SampleSet: Soft
StackLeniency: 0.7
Mode: 0
LetterboxInBreaks: 0
WidescreenStoryboard: 1

[Editor]
Bookmarks: 33590
DistanceSpacing: 1.4
BeatDivisor: 4
GridSize: 32
TimelineZoom: 3.249999

[Metadata]
Title:Crossroads
TitleUnicode:Crossroads
Artist:Suzuki Konomi
ArtistUnicode:鈴木このみ
Creator:Erisu
Version:PikA's Extra
Source:Re:ゼロから始める異世界生活 禁書と謎の精霊
Tags:Re:Zero Kara Hajimeru Isekai Seikatsu Kinsho to Nazo no Seirei Re:Life in a different world from zero web video game op opening full ver version j-rock jrock rock japanese anime mayuzumi fuyuko sanairrt pikaqours tycani fuiba fuyu keywee -magic-
BeatmapID:3026137
BeatmapSetID:1462930

[Difficulty]
HPDrainRate:5.5
CircleSize:3.8
OverallDifficulty:9
ApproachRate:9.2
SliderMultiplier:1.81
SliderTickRate:1

[Events]
//Background and Video events
0,0,"bg.png",0,0
//Break Periods
2,137159,141577
//Storyboard Layer 0 (Background)
//Storyboard Layer 1 (Fail)
//Storyboard Layer 2 (Pass)
//Storyboard Layer 3 (Foreground)
//Storyboard Layer 4 (Overlay)
//Storyboard Sound Samples

[TimingPoints]
656,326.086956521739,4,2,12,40,1,0
656,-140.845070422535,4,2,12,40,0,0
5547,-140.845070422535,4,2,13,50,0,0
5873,-109.89010989011,4,2,12,60,0,0
8155,-109.89010989011,4,2,12,50,0,0
8482,-109.89010989011,4,2,12,40,0,0
9623,-109.89010989011,4,2,12,50,0,0
10764,-243.90243902439,4,2,13,50,0,0
11090,-99.0099009900991,4,2,13,70,0,0
11253,-99.0099009900991,4,2,12,70,0,0
21525,-243.90243902439,4,2,12,50,0,0
26416,-243.90243902439,4,2,13,50,0,0
26742,-243.90243902439,4,2,12,50,0,0
30003,-243.90243902439,4,2,13,50,0,0
30166,-243.90243902439,4,2,12,50,0,0
30492,-163.934426229508,4,2,12,55,0,0
30982,-163.934426229508,4,2,12,50,0,0
31634,-163.934426229508,4,2,13,50,0,0
31960,-109.89010989011,4,2,12,60,0,0
42395,-109.89010989011,4,2,12,65,0,0
47530,-109.89010989011,4,2,12,65,0,0
47612,-196.078431372549,4,2,12,40,0,0
48753,-196.078431372549,4,2,13,40,0,0
48835,-196.078431372549,4,2,12,40,0,0
49405,-109.89010989011,4,2,13,40,0,0
49569,-109.89010989011,4,2,12,40,0,0
49895,-109.89010989011,4,2,12,50,0,0
52340,-196.078431372549,4,2,12,40,0,0
52829,-99.009900990099,4,2,13,80,0,1
53155,-99.009900990099,4,2,12,80,0,1
56090,-99.009900990099,4,2,13,80,0,1
56253,-99.009900990099,4,2,12,80,0,1
56742,-99.009900990099,4,2,13,80,0,1
56905,-99.009900990099,4,2,12,80,0,1
57395,-99.009900990099,4,2,13,80,0,1
57476,-99.009900990099,4,2,12,80,0,1
61471,-99.009900990099,4,2,13,80,0,1
61634,-99.009900990099,4,2,12,80,0,1
62286,-99.009900990099,4,2,13,80,0,1
62449,-99.009900990099,4,2,12,80,0,1
62938,-99.009900990099,4,2,13,80,0,1
63101,-99.009900990099,4,2,12,80,0,1
68482,-99.009900990099,4,2,12,60,0,1
68808,-99.009900990099,4,2,13,60,0,1
68971,-99.009900990099,4,2,12,60,0,1
73210,-99.009900990099,4,2,12,40,0,1
73291,-99.009900990099,4,2,13,40,0,1
73373,-243.90243902439,4,2,13,40,0,1
73699,-99.0099009900991,4,2,13,70,0,0
73862,-99.0099009900991,4,2,12,65,0,0
81525,-99.0099009900991,4,2,12,60,0,0
84134,-109.89010989011,4,2,12,60,0,0
84786,326.086956521739,4,2,12,50,1,0
84786,-140.845070422535,4,2,12,50,0,0
85438,-140.845070422535,4,2,13,50,0,0
85601,-140.845070422535,4,2,12,50,0,0
88047,-140.845070422535,4,2,13,50,0,0
88210,-140.845070422535,4,2,12,50,0,0
89025,-140.845070422535,4,2,12,30,0,0
89188,-140.845070422535,4,2,12,50,0,0
89351,-140.845070422535,4,2,12,30,0,0
89514,-140.845070422535,4,2,12,50,0,0
89677,-140.845070422535,4,2,13,50,0,0
89840,-140.845070422535,4,2,12,50,0,0
90655,-140.845070422535,4,2,13,50,0,0
90819,-140.845070422535,4,2,12,50,0,0
91633,-140.845070422535,4,2,12,30,0,0
91796,-140.845070422535,4,2,12,50,0,0
91959,-140.845070422535,4,2,12,30,0,0
92122,-140.845070422535,4,2,12,40,0,0
93264,-140.845070422535,4,2,13,40,0,0
93427,-140.845070422535,4,2,12,40,0,0
93590,-140.845070422535,4,2,12,40,0,0
93753,-109.89010989011,4,2,12,45,0,0
94079,-109.89010989011,4,2,12,45,0,0
94242,-109.89010989011,4,2,12,45,0,0
94895,-109.89010989011,4,2,13,55,0,0
95220,-109.89010989011,4,2,12,60,0,0
105655,-109.89010989011,4,2,12,65,0,0
110790,-109.89010989011,4,2,12,65,0,0
110872,-196.078431372549,4,2,12,50,0,0
112014,-196.078431372549,4,2,13,50,0,0
112503,-196.078431372549,4,2,12,50,0,0
112992,-196.078431372549,4,2,13,50,0,0
113074,-196.078431372549,4,2,12,50,0,0
113481,-196.078431372549,4,2,12,60,0,0
113645,-109.89010989011,4,2,12,60,0,0
116090,-99.009900990099,4,2,13,80,0,1
116253,-99.009900990099,4,2,12,80,0,1
119351,-99.009900990099,4,2,13,80,0,1
119514,-99.009900990099,4,2,12,80,0,1
120003,-99.009900990099,4,2,13,80,0,1
120166,-99.009900990099,4,2,12,80,0,1
120655,-99.009900990099,4,2,13,80,0,1
120737,-99.009900990099,4,2,12,80,0,1
124732,-99.009900990099,4,2,13,80,0,1
124895,-99.009900990099,4,2,12,80,0,1
125547,-99.009900990099,4,2,13,80,0,1
125710,-99.009900990099,4,2,12,80,0,1
126199,-99.009900990099,4,2,13,80,0,1
126362,-99.009900990099,4,2,12,80,0,1
131742,-99.009900990099,4,2,12,70,0,1
136308,-99.009900990099,4,2,13,60,0,1
136633,-99.009900990099,4,2,12,55,0,1
136796,-99.009900990099,4,2,12,55,0,1
136959,-123.456790123457,4,2,13,50,0,0
137612,-123.456790123457,4,2,13,40,0,0
137938,-123.456790123457,4,2,12,20,0,0
139242,-123.456790123457,4,2,13,20,0,0
139569,-123.456790123457,4,2,12,40,0,0
139895,-123.456790123457,4,2,12,30,0,0
140221,-123.456790123457,4,2,13,30,0,0
140547,-123.456790123457,4,2,12,30,0,0
140873,-123.456790123457,4,2,13,30,0,0
141199,-123.456790123457,4,2,12,30,0,0
141362,-123.456790123457,4,2,13,30,0,0
141525,-123.456790123457,4,2,12,30,0,0
141851,-123.456790123457,4,2,13,30,0,0
142014,-123.456790123457,4,2,12,30,0,0
142177,-196.078431372549,4,2,12,40,0,0
142829,-163.934426229508,4,2,12,20,0,0
142992,-163.934426229508,4,2,12,25,0,0
143155,-163.934426229508,4,2,12,30,0,0
143318,-163.934426229508,4,2,12,35,0,0
143481,-163.934426229508,4,2,12,40,0,0
143644,-163.934426229508,4,2,12,45,0,0
143807,-163.934426229508,4,2,12,50,0,0
143970,-163.934426229508,4,2,12,55,0,0
144133,-163.934426229508,4,2,12,60,0,0
144785,-109.89010989011,4,2,12,60,0,0
146416,-109.89010989011,4,2,13,60,0,0
146905,-109.89010989011,4,2,12,60,0,0
147068,-243.90243902439,4,2,13,60,0,0
147232,-243.90243902439,4,2,12,60,0,0
147312,-243.90243902439,4,2,13,60,0,0
147394,-99.009900990099,4,2,13,70,0,1
147476,-99.009900990099,4,2,12,70,0,1
148699,-99.009900990099,4,2,13,70,0,1
148862,-99.009900990099,4,2,12,70,0,1
149351,-99.009900990099,4,2,13,70,0,1
149433,-99.009900990099,4,2,12,70,0,1
150003,-99.009900990099,4,2,13,70,0,1
150166,-99.009900990099,4,2,12,70,0,1
150655,-99.009900990099,4,2,13,70,0,1
150737,-99.009900990099,4,2,12,70,0,1
151308,-99.009900990099,4,2,13,70,0,1
151471,-99.009900990099,4,2,12,70,0,1
151960,-99.009900990099,4,2,13,70,0,1
152041,-99.009900990099,4,2,12,70,0,1
154405,-99.009900990099,4,2,13,70,0,1
154569,-99.009900990099,4,2,12,70,0,1
154732,-99.009900990099,4,2,13,70,0,1
154895,-99.009900990099,4,2,12,70,0,1
155873,-99.009900990099,4,2,13,70,0,1
156199,-99.009900990099,4,2,12,70,0,1
156851,-99.009900990099,4,2,13,70,0,1
157014,-99.009900990099,4,2,12,70,0,1
157503,-99.009900990099,4,2,13,70,0,1
157666,-99.009900990099,4,2,12,70,0,1
158482,-99.009900990099,4,2,13,70,0,1
158645,-99.009900990099,4,2,12,70,0,1
159134,-99.009900990099,4,2,13,70,0,1
159297,-99.009900990099,4,2,12,70,0,1
159786,-99.009900990099,4,2,13,70,0,1
159867,-99.009900990099,4,2,12,70,0,1
163046,-99.009900990099,4,2,12,60,0,1
165819,-99.009900990099,4,2,13,70,0,1
165982,-99.009900990099,4,2,12,70,0,1
166471,-99.009900990099,4,2,13,70,0,1
166634,-99.009900990099,4,2,12,70,0,1
167938,-99.009900990099,4,2,13,70,0,1
168264,-109.89010989011,4,2,12,40,0,0
173155,-109.89010989011,4,2,13,40,0,0
173399,-109.89010989011,4,2,13,40,0,0
173481,-123.456790123457,4,2,12,55,0,0
176090,-109.89010989011,4,2,12,55,0,0
176905,-109.89010989011,4,2,13,55,0,0
177069,-109.89010989011,4,2,12,55,0,0
178699,-140.845070422535,4,2,12,55,0,0
179025,-140.845070422535,4,2,13,55,0,0
179188,-140.845070422535,4,2,12,55,0,0
180329,-140.845070422535,4,2,13,55,0,0
180492,-140.845070422535,4,2,12,55,0,0
180982,-140.845070422535,4,2,13,55,0,0
181145,-140.845070422535,4,2,12,55,0,0
181634,-140.845070422535,4,2,13,55,0,0
181797,-140.845070422535,4,2,12,55,0,0
183916,-99.009900990099,4,2,12,25,0,1
184079,-99.009900990099,4,2,12,30,0,1
184242,-99.009900990099,4,2,12,35,0,1
184405,-99.009900990099,4,2,12,40,0,1
184568,-99.009900990099,4,2,12,45,0,1
184731,-99.009900990099,4,2,12,50,0,1
184894,-99.009900990099,4,2,12,55,0,1
185057,-99.009900990099,4,2,12,60,0,1
185220,-99.009900990099,4,2,12,70,0,1
186525,-99.009900990099,4,2,12,50,0,0
187177,-99.009900990099,4,2,12,50,0,0
187340,-99.009900990099,4,2,12,50,0,0
188074,-99.009900990099,4,2,13,60,0,0
188155,-99.009900990099,4,2,12,60,0,0
188807,-243.90243902439,4,2,13,60,0,0
189133,-99.009900990099,4,2,13,80,0,1
189297,-99.009900990099,4,2,12,80,0,1
192394,-99.009900990099,4,2,13,80,0,1
192557,-99.009900990099,4,2,12,80,0,1
193046,-99.009900990099,4,2,13,80,0,1
193209,-99.009900990099,4,2,12,80,0,1
193699,-99.009900990099,4,2,13,80,0,1
193780,-99.009900990099,4,2,12,80,0,1
197775,-99.009900990099,4,2,13,80,0,1
197938,-99.009900990099,4,2,12,80,0,1
198590,-99.009900990099,4,2,13,80,0,1
198753,-99.009900990099,4,2,12,80,0,1
199242,-99.009900990099,4,2,13,80,0,1
199405,-99.009900990099,4,2,12,80,0,1
204786,-99.009900990099,4,2,12,60,0,1
205112,-99.009900990099,4,2,13,60,0,1
205275,-99.009900990099,4,2,12,60,0,1
207394,-99.009900990099,4,2,12,65,0,1
210003,-99.0099009900991,4,2,13,70,0,0
210166,-99.0099009900991,4,2,12,70,0,0
217829,-99.0099009900991,4,2,12,60,0,0
220438,-555.555555555556,4,2,12,55,0,0
221742,-555.555555555556,4,2,12,50,0,0
223046,-555.555555555556,4,2,12,40,0,0
224351,-555.555555555556,4,2,12,30,0,0
225655,-555.555555555556,4,2,12,20,0,0
226308,-109.89010989011,4,2,12,20,0,0
226959,-109.89010989011,4,2,12,5,0,0

[Colours]
Combo1 : 187,147,236
Combo2 : 121,190,80
Combo3 : 200,219,64
Combo4 : 223,122,92

[HitObjects]
35,251,656,6,0,P|97:265|160:279,1,128.509993529007,2|2,0:0|0:0,0:0:0:0:
218,339,1145,2,0,P|280:324|343:310,1,128.509993529007,2|0,0:0|0:0,0:0:0:0:
404,253,1634,1,2,0:0:0:0:
404,253,1797,2,0,P|429:297|411:386,2,128.509993529007,2|2|2,0:0|0:0|0:0,0:0:0:0:
359,182,2612,1,2,0:0:0:0:
262,318,2938,1,2,0:0:0:0:
262,318,3264,6,0,P|248:232|241:190,1,128.509993529007,2|2,0:0|0:0,0:0:0:0:
169,113,3753,2,0,P|158:176|148:239,1,128.509993529007,2|0,0:0|0:0,0:0:0:0:
74,295,4242,2,0,P|63:231|53:168,1,128.509993529007,2|0,0:0|0:0,0:0:0:0:
37,83,4732,1,2,0:0:0:0:
37,83,5058,1,2,0:0:0:0:
37,83,5221,2,0,P|85:72|109:67,1,64.2549967645036,2|2,0:0|0:0,0:0:0:0:
221,168,5547,2,0,P|263:177|283:181,1,64.2549967645036,10|0,3:0|0:0,0:0:0:0:
412,31,5873,5,4,3:2:0:0:
490,237,6036,2,0,P|435:248|409:253,1,82.3550027646028,0|6,3:2|3:0,0:0:0:0:
275,84,6362,2,0,P|315:92|355:100,1,82.3550027646028,2|6,3:2|3:3,0:0:0:0:
278,278,6688,1,0,3:2:0:0:
278,278,6770,1,0,3:2:0:0:
278,278,6851,1,14,0:0:0:0:
124,92,7014,6,0,P|115:146|109:173,1,82.3550027646028,2|4,3:2|3:0,0:0:0:0:
203,351,7340,1,10,0:0:0:0:
5,195,7503,2,0,P|14:249|19:276,1,82.3550027646028,6|2,3:0|3:2,0:0:0:0:
31,315,7748,1,0,3:2:0:0:
31,315,7829,1,6,3:0:0:0:
200,208,7992,1,2,3:2:0:0:
74,34,8155,2,0,P|67:74|59:115,1,82.3550027646028,10|0,0:0|0:0,0:0:0:0:
142,298,8482,5,0,3:2:0:0:
212,98,8645,1,0,3:2:0:0:
333,301,8971,1,0,3:2:0:0:
242,14,9297,1,8,0:0:0:0:
142,298,9623,6,0,B|121:279|92:253|92:253|125:199|145:158,1,164.710005529206,4|0,3:2|3:2,0:0:0:0:
333,301,10112,1,12,0:0:0:0:
221,118,10275,2,0,B|180:96|137:121|156:132|105:169|61:141,1,164.710005529206
142,298,10764,6,0,P|176:291|209:285,1,55.6575008492661,8|0,0:3|0:0,0:0:0:0:
247,204,11090,6,0,P|232:286|213:399,1,182.809996373703,6|10,3:1|0:0,0:0:0:0:
379,252,11579,2,0,P|368:192|358:133,1,91.4049981868515,2|0,3:2|0:0,0:0:0:0:
233,9,11905,1,2,3:2:0:0:
437,78,12069,1,10,0:0:0:0:
247,204,12232,6,0,P|258:144|268:85,1,91.4049981868515,2|0,3:2|0:0,0:0:0:0:
379,252,12558,1,2,3:2:0:0:
149,139,12721,2,0,P|102:148|56:158,1,91.4049981868515,10|2,0:0|3:2,0:0:0:0:
136,346,13047,1,8,3:0:0:0:
136,346,13128,1,8,0:0:0:0:
136,346,13210,1,0,3:2:0:0:
247,204,13373,2,0,P|293:213|339:223,1,91.4049981868515,8|0,0:0|0:0,0:0:0:0:
498,315,13699,5,2,3:2:0:0:
400,140,13862,1,0,3:2:0:0:
337,336,14025,1,8,0:0:0:0:
512,197,14188,2,0,P|501:137|491:78,1,91.4049981868515,2|0,3:2|0:0,0:0:0:0:
318,21,14514,2,0,P|310:66|301:110,1,91.4049981868515,2|8,3:2|0:0,0:0:0:0:
111,257,14840,6,0,B|160:237|214:214|214:214|249:253|277:283,1,182.809996373703,4|2,3:2|3:2,0:0:0:0:
110,136,15329,2,0,P|65:126|20:117,1,91.4049981868515,10|2,0:0|3:2,0:0:0:0:
169,9,15655,1,10,3:0:0:0:
169,9,15737,1,8,0:0:0:0:
169,9,15819,1,0,3:2:0:0:
249,142,15982,1,10,0:0:0:0:
249,142,16064,1,8,0:0:0:0:
249,142,16145,2,0,P|241:178|234:212,1,45.7024990934258,8|8,0:0|0:0,0:0:0:0:
92,248,16308,6,0,B|141:222|187:255|165:268|222:311|285:265,1,182.809996373703,6|8,3:2|0:0,0:0:0:0:
450,197,16797,2,0,P|406:106|310:108,1,182.809996373703,2|0,3:2|3:2,0:0:0:0:
261,278,17286,1,10,0:0:0:0:
89,128,17449,2,0,P|120:46|206:28,1,182.809996373703,2|0,3:2|3:2,0:0:0:0:
268,189,17938,2,0,P|223:179|178:170,1,91.4049981868515,10|0,0:0|3:2,0:0:0:0:
322,24,18264,1,10,3:0:0:0:
322,24,18346,1,8,0:0:0:0:
322,24,18427,1,0,3:2:0:0:
384,267,18590,2,0,P|339:276|294:285,1,91.4049981868515,10|0,0:0|0:0,0:0:0:0:
232,77,18916,5,6,3:2:0:0:
466,183,19079,1,8,0:0:0:0:
187,305,19242,1,8,0:0:0:0:
322,24,19405,1,6,3:1:0:0:
437,370,19732,5,14,0:1:0:0:
189,160,19895,1,2,0:0:0:0:
189,160,19976,1,0,0:0:0:0:
189,160,20058,6,0,B|163:183|134:209|134:209|167:263|197:328,1,182.809996373703,6|10,3:2|0:0,0:0:0:0:
223,323,20465,1,8,0:3:0:0:
223,323,20547,2,0,P|254:314|276:309,1,45.7024990934258,10|8,0:3|0:3,0:0:0:0:
361,223,20710,2,0,P|383:228|405:235,1,45.7024990934258,6|0,3:1|0:0,0:0:0:0:
477,60,21036,6,0,B|428:34|382:67|404:80|347:123|284:77,1,182.809996373703,6|0,3:2|3:2,0:0:0:0:
289,73,21444,1,0,3:2:0:0:
289,73,21525,6,0,B|252:107|222:136|222:136|252:184|287:301,1,259.735003963242,6|2,3:2|3:2,0:0:0:0:
362,337,22829,1,0,3:2:0:0:
362,337,22992,2,0,B|306:376|246:320|268:308|218:258|158:297,1,222.630003397064,2|0,3:2|0:0,0:0:0:0:
70,326,24134,2,0,P|144:271|113:122,1,259.735003963242,2|2,3:2|3:2,0:0:0:0:
31,67,25438,1,0,3:2:0:0:
31,67,25601,2,0,B|86:84|145:101|145:101|172:75|196:52,1,185.525002830887,2|2,3:2|0:3,0:0:0:0:
193,55,26579,1,0,0:0:0:0:
310,34,26742,6,0,B|269:91|305:146|305:146|379:182|342:264,1,259.735003963242,6|2,3:2|0:0,0:0:0:0:
364,355,28047,2,0,P|306:276|154:301,1,259.735003963242,0|2,3:2|0:0,0:0:0:0:
132,384,29351,2,0,B|170:327|114:267|102:289|53:239|91:179,1,222.630003397064,0|4,3:2|3:3,0:0:0:0:
114,176,30411,1,0,3:2:0:0:
114,176,30492,2,0,P|157:185|189:193,1,55.2049977256242,12|0,0:0|0:0,0:0:0:0:
125,43,30819,2,0,P|95:75|72:99,1,55.2049977256242,2|4,0:0|0:3,0:0:0:0:
234,119,31145,2,0,P|220:77|211:45,1,55.2049977256242,2|4,0:0|0:3,0:0:0:0:
283,0,31471,1,2,0:0:0:0:
337,159,31634,1,2,0:3:0:0:
337,159,31960,6,0,B|403:145|444:134|444:134|467:160|491:194,1,164.710005529206,4|8,3:2|0:0,0:0:0:0:
398,328,32449,1,2,3:2:0:0:
398,328,32612,2,0,P|405:287|412:246,1,82.3550027646028,2|0,0:0|3:2,0:0:0:0:
259,302,32938,1,10,0:0:0:0:
259,302,33101,6,0,P|266:342|273:383,1,82.3550027646028,2|0,3:2|0:0,0:0:0:0:
316,206,33427,2,0,P|271:196|226:187,1,82.3550027646028,2|8,3:2|0:0,0:0:0:0:
123,292,33753,2,0,P|82:300|42:309,1,82.3550027646028,2|0,3:2|0:0,0:0:0:0:
9,160,34079,2,0,P|49:151|89:142,1,82.3550027646028,2|8,3:2|0:0,0:0:0:0:
213,15,34405,1,2,0:0:0:0:
213,15,34569,6,0,P|206:56|198:97,1,82.3550027646028,0|0,3:2|3:2,0:0:0:0:
310,178,34895,1,10,0:0:0:0:
310,178,35058,2,0,P|327:78|344:-24,1,164.710005529206,2|0,3:2|3:2,0:0:0:0:
496,134,35547,1,10,0:0:0:0:
496,134,35710,6,0,P|455:142|415:150,1,82.3550027646028,2|0,3:2|0:0,0:0:0:0:
445,325,36036,2,0,P|458:285|470:246,1,82.3550027646028,2|8,3:2|0:0,0:0:0:0:
305,185,36362,2,0,P|332:215|359:246,1,82.3550027646028,2|8,3:2|3:3,0:0:0:0:
363,275,36607,1,8,0:0:0:0:
363,275,36688,1,2,3:2:0:0:
328,91,36851,1,8,0:0:0:0:
214,238,37014,1,10,0:3:0:0:
214,238,37096,1,8,0:3:0:0:
214,238,37177,6,0,P|131:219|42:200,1,164.710005529206,6|8,3:2|0:0,0:0:0:0:
60,64,37666,1,0,3:2:0:0:
60,64,37829,2,0,P|100:72|140:80,1,82.3550027646028,2|0,0:0|3:2,0:0:0:0:
285,173,38155,1,10,0:0:0:0:
285,173,38319,6,0,P|291:132|299:91,1,82.3550027646028,2|0,3:2|0:0,0:0:0:0:
430,20,38645,2,0,P|437:60|444:101,1,82.3550027646028,2|8,3:2|0:0,0:0:0:0:
474,263,38971,2,0,P|433:254|393:246,1,82.3550027646028,2|8,3:2|3:0,0:0:0:0:
366,274,39215,1,8,0:0:0:0:
366,274,39297,1,2,3:2:0:0:
204,189,39460,2,0,P|244:180|284:172,1,82.3550027646028,8|2,0:0|0:0,0:0:0:0:
136,287,39786,5,2,3:2:0:0:
136,287,39949,2,0,P|95:278|55:270,1,82.3550027646028,2|8,3:2|0:0,0:0:0:0:
178,110,40275,2,0,P|190:149|203:188,1,82.3550027646028,2|0,3:2|0:0,0:0:0:0:
4,163,40601,2,0,P|31:132|58:101,1,82.3550027646028,2|8,3:2|0:0,0:0:0:0:
302,44,40927,6,0,B|259:61|220:34|239:23|191:-13|137:25,1,164.710005529206,6|0,3:2|3:2,0:0:0:0:
248,272,41416,1,12,0:1:0:0:
322,30,41579,1,0,3:2:0:0:
181,320,41742,1,12,0:1:0:0:
107,78,41905,1,0,3:2:0:0:
253,355,42069,1,8,0:0:0:0:
355,119,42232,5,8,0:0:0:0:
355,119,42313,1,8,0:0:0:0:
355,119,42395,2,0,P|362:159|369:200,1,82.3550027646028,4|0,3:2|3:2,0:0:0:0:
483,312,42721,1,10,0:0:0:0:
483,312,42884,2,0,P|497:222|514:132,1,164.710005529206,2|0,3:2|3:2,0:0:0:0:
375,23,43373,1,10,0:0:0:0:
375,23,43536,2,0,P|307:24|251:113,1,164.710005529206,2|0,3:2|3:2,0:0:0:0:
279,272,44025,5,10,0:0:0:0:
356,119,44188,2,0,P|275:135|194:152,1,164.710005529206,2|0,3:2|3:2,0:0:0:0:
18,201,44677,1,10,0:0:0:0:
168,303,44840,1,2,0:0:0:0:
88,110,45003,6,0,P|47:101|7:93,1,82.3550027646028,0|0,3:2|3:2,0:0:0:0:
168,303,45329,1,10,0:0:0:0:
235,63,45492,2,0,P|275:54|315:46,1,82.3550027646028,2|4,3:2|3:0,0:0:0:0:
429,225,45819,1,8,0:0:0:0:
194,156,45982,1,2,3:2:0:0:
408,57,46145,6,0,B|427:76|457:103|457:103|438:137|407:208,1,164.710005529206,6|0,3:2|3:2,0:0:0:0:
288,324,46634,2,0,P|281:283|273:242,1,82.3550027646028,10|0,0:0|3:2,0:0:0:0:
206,65,46960,1,2,3:2:0:0:
92,212,47123,1,8,3:2:0:0:
92,212,47204,1,8,3:2:0:0:
92,212,47286,2,0,L|37:195,3,41.1775013823014,10|8|8|0,0:0|0:0|0:0|0:0,0:0:0:0:
0,102,47612,6,0,B|81:56|144:113|118:131|176:193|254:142,1,276.930001690247,6|6,3:2|0:3,0:0:0:0:
309,67,48753,2,0,P|296:135|285:204,1,138.465000845123,4|10,0:3|0:3,0:0:0:0:
171,308,49405,2,0,L|179:348,2,41.1775013823014,8|8|2,0:3|0:3|3:2,0:0:0:0:
83,147,49732,1,8,0:0:0:0:
83,147,49813,1,8,0:0:0:0:
83,147,49895,2,0,L|144:159,3,41.1775013823014,10|8|8|8,0:0|0:0|0:0|0:0,0:0:0:0:
266,248,50222,5,6,3:2:0:0:
319,70,50384,2,0,P|278:78|238:86,1,82.3550027646028,2|0,3:2|3:2,0:0:0:0:
369,241,50710,2,0,P|409:249|449:257,1,82.3550027646028,10|0,0:0|0:0,0:0:0:0:
436,55,51036,2,0,P|428:95|421:136,1,82.3550027646028,10|0,0:0|3:2,0:0:0:0:
266,248,51362,6,0,P|251:164|237:80,1,164.710005529206,6|8,3:2|0:0,0:0:0:0:
108,264,51851,1,6,3:2:0:0:
108,264,52340,5,4,0:3:0:0:
108,264,52422,1,4,0:3:0:0:
108,264,52503,2,0,P|129:287|131:263,1,69.2325004225616,2|0,0:0|0:0,0:0:0:0:
218,311,52829,6,0,B|164:282|124:317|139:326|99:368|45:333,2,182.809996373703,6|8|0,3:1|0:0|0:0,0:0:0:0:
337,179,53645,1,0,3:2:0:0:
377,372,53808,1,10,0:0:0:0:
219,201,53971,2,0,P|231:108|326:64,1,182.809996373703,2|0,3:2|3:2,0:0:0:0:
421,201,54460,2,0,P|375:201|336:178,1,91.4049981868515,10|0,0:0|3:2,0:0:0:0:
476,32,54786,2,0,P|498:70|498:116,1,91.4049981868515,10|0,0:3|3:2,0:0:0:0:
303,69,55112,2,0,P|325:29|364:7,1,91.4049981868515,10|0,0:0|0:0,0:0:0:0:
501,286,55438,6,0,P|456:297|384:314,1,91.4049981868515,2|0,3:2|3:2,0:0:0:0:
247,157,55764,2,0,P|292:168|364:185,1,91.4049981868515,8|0,0:0|3:2,0:0:0:0:
145,256,56090,1,2,0:0:0:0:
247,56,56253,1,0,3:2:0:0:
318,289,56416,2,0,P|362:278|406:267,1,91.4049981868515,8|0,0:0|0:0,0:0:0:0:
154,108,56742,6,0,B|130:126|101:152|101:152|125:193|153:280,1,182.809996373703,2|8,3:2|0:0,0:0:0:0:
301,371,57232,1,2,3:2:0:0:
239,178,57395,2,0,P|244:155|248:133,2,45.7024990934258,2|8|0,3:2|0:0|3:2,0:0:0:0:
125,338,57721,1,8,0:0:0:0:
65,129,57884,1,10,0:0:0:0:
65,129,57965,1,8,0:0:0:0:
65,129,58047,6,0,P|109:118|153:107,1,91.4049981868515,6|0,3:2|3:2,0:0:0:0:
290,292,58373,1,10,0:0:0:0:
290,292,58536,2,0,P|245:281|201:270,1,91.4049981868515,2|0,3:2|0:0,0:0:0:0:
279,68,58862,2,0,P|287:113|296:157,1,91.4049981868515,2|8,3:2|0:0,0:0:0:0:
437,300,59188,6,0,P|454:210|471:120,1,182.809996373703,2|0,3:2|3:2,0:0:0:0:
260,23,59677,2,0,P|251:68|242:112,1,91.4049981868515,10|0,0:0|3:2,0:0:0:0:
322,277,60003,1,10,0:3:0:0:
322,277,60085,1,8,0:0:0:0:
322,277,60166,1,0,3:2:0:0:
130,110,60329,2,0,P|138:155|147:199,1,91.4049981868515,10|0,0:0|0:0,0:0:0:0:
314,367,60655,5,6,3:2:0:0:
242,112,60819,1,0,3:2:0:0:
88,324,60982,1,8,0:0:0:0:
228,79,61145,1,2,3:2:0:0:
322,277,61308,2,0,P|366:266|410:255,1,91.4049981868515,6|4,0:3|0:3,0:0:0:0:
333,20,61634,1,2,3:2:0:0:
207,219,61797,2,0,P|162:208|118:197,1,91.4049981868515,8|0,0:0|0:0,0:0:0:0:
333,20,62123,1,8,0:0:0:0:
230,309,62286,1,2,3:2:0:0:
81,61,62449,6,0,B|131:33|178:64|155:77|218:122|269:81,1,182.809996373703,4|0,3:1|3:2,0:0:0:0:
281,110,62857,1,0,3:2:0:0:
281,110,62938,1,2,3:2:0:0:
116,252,63101,1,8,0:3:0:0:
116,252,63183,1,8,0:3:0:0:
116,252,63264,6,0,P|109:206|101:161,1,91.4049981868515,6|0,3:2|3:2,0:0:0:0:
230,309,63590,1,10,0:0:0:0:
0,200,63753,2,0,P|15:110|29:19,1,182.809996373703,2|0,3:2|3:2,0:0:0:0:
211,153,64242,1,10,0:0:0:0:
35,288,64405,1,0,3:2:0:0:
138,62,64569,6,0,P|182:51|226:40,1,91.4049981868515,2|0,0:0|3:2,0:0:0:0:
181,251,64895,1,10,0:0:0:0:
313,103,65058,2,0,P|410:126|508:150,1,182.809996373703,2|0,3:2|3:2,0:0:0:0:
372,336,65547,1,10,0:0:0:0:
372,336,65628,1,0,0:0:0:0:
372,336,65710,1,0,0:0:0:0:
231,164,65873,6,0,P|146:157|81:231,1,182.809996373703,6|8,3:1|0:0,0:0:0:0:
336,168,66362,2,0,P|384:97|352:4,1,182.809996373703,6|0,3:2|3:2,0:0:0:0:
280,256,66851,2,0,P|316:333|413:352,1,182.809996373703,14|0,0:1|0:0,0:0:0:0:
336,168,67340,1,0,3:2:0:0:
177,368,67503,5,10,0:2:0:0:
440,210,67666,1,0,3:2:0:0:
118,121,67829,1,10,0:2:0:0:
381,279,67992,1,0,3:2:0:0:
84,355,68155,1,10,0:2:0:0:
84,355,68237,1,8,0:0:0:0:
84,355,68319,2,0,L|75:292,1,45.7024990934258,8|8,0:0|0:0,0:0:0:0:
263,193,68482,6,0,B|220:167|168:203|185:212|138:244|87:220,1,182.809996373703,4|2,3:2|0:3,0:0:0:0:
203,76,68971,1,0,3:2:0:0:
244,293,69134,1,10,3:2:0:0:
118,121,69297,1,6,3:2:0:0:
118,121,69623,6,0,P|196:108|298:90,1,182.809996373703,6|0,3:1|3:2,0:0:0:0:
398,242,70112,1,10,0:0:0:0:
467,52,70275,2,0,P|489:56|511:61,2,45.7024990934258,0|0|10,3:2|3:2|0:0,0:0:0:0:
299,190,70601,2,0,P|276:194|254:199,2,45.7024990934258,0|0|10,3:2|3:2|0:0,0:0:0:0:
503,318,70927,1,0,3:2:0:0:
503,318,71009,1,0,3:2:0:0:
503,318,71090,5,2,3:2:0:0:
385,100,71253,1,0,3:2:0:0:
328,347,71416,1,10,0:0:0:0:
467,52,71579,2,0,P|423:14|363:10,1,91.4049981868515,6|0,3:2|0:0,0:0:0:0:
196,66,71905,1,10,0:0:0:0:
196,66,71987,1,8,0:3:0:0:
196,66,72069,1,0,3:2:0:0:
344,246,72232,2,0,P|398:203|369:86,1,182.809996373703,6|0,3:1|3:2,0:0:0:0:
223,222,72721,1,10,0:1:0:0:
223,222,73373,6,0,P|190:229|154:237,1,55.6575008492661,2|0,0:3|0:0,0:0:0:0:
74,276,73699,6,0,B|128:246|169:282|154:291|194:333|252:302,1,182.809996373703,6|10,3:1|0:0,0:0:0:0:
239,132,74188,2,0,P|228:192|218:251,1,91.4049981868515,2|0,3:2|0:0,0:0:0:0:
408,343,74514,1,2,3:2:0:0:
342,152,74678,1,10,0:0:0:0:
245,348,74840,6,0,B|188:328|139:312|139:312|109:340|82:363,1,182.809996373703,2|2,3:2|3:2,0:0:0:0:
59,190,75330,2,0,P|109:180|152:171,1,91.4049981868515,10|0,0:0|3:2,0:0:0:0:
245,348,75656,1,10,0:3:0:0:
245,348,75737,1,8,0:0:0:0:
245,348,75819,1,0,3:2:0:0:
342,152,75982,2,0,P|297:143|252:133,1,91.4049981868515,10|0,0:0|0:0,0:0:0:0:
473,255,76308,5,2,3:2:0:0:
389,63,76471,1,0,3:2:0:0:
299,269,76634,1,10,0:0:0:0:
497,104,76797,2,0,P|489:58|480:14,1,91.4049981868515,2|0,3:2|0:0,0:0:0:0:
252,133,77123,2,0,P|296:142|341:151,1,91.4049981868515,2|8,3:2|0:0,0:0:0:0:
449,338,77449,6,0,B|395:308|354:344|369:353|329:395|271:364,1,182.809996373703,6|2,3:1|3:2,0:0:0:0:
144,230,77938,2,0,P|135:274|127:319,1,91.4049981868515,10|0,0:0|3:2,0:0:0:0:
299,269,78264,1,10,0:3:0:0:
299,269,78346,1,8,0:3:0:0:
299,269,78428,1,0,3:2:0:0:
139,139,78591,1,10,0:0:0:0:
139,139,78673,1,8,0:0:0:0:
139,139,78754,2,0,P|103:147|69:154,1,45.7024990934258,8|8,0:0|0:0,0:0:0:0:
240,20,78916,6,0,B|264:38|293:64|293:64|269:105|241:192,1,182.809996373703,6|8,3:2|0:0,0:0:0:0:
119,302,79405,2,0,P|220:283|299:268,1,182.809996373703,2|0,3:2|3:2,0:0:0:0:
390,56,79895,1,10,0:0:0:0:
184,180,80058,2,0,P|94:163|4:146,1,182.809996373703,0|0,3:2|3:2,0:0:0:0:
144,12,80547,1,10,0:0:0:0:
296,183,80710,2,0,P|287:138|279:93,1,91.4049981868515,0|10,3:2|0:3,0:0:0:0:
276,65,80955,1,8,0:0:0:0:
276,65,81036,1,0,3:2:0:0:
475,197,81199,2,0,P|466:241|458:286,1,91.4049981868515,10|0,0:0|0:0,0:0:0:0:
221,305,81525,6,0,P|256:232|371:258,1,182.809996373703,6|2,3:1|3:2,0:0:0:0:
198,147,82014,1,2,3:2:0:0:
331,326,82177,1,10,0:3:0:0:
331,326,82259,1,8,0:3:0:0:
331,326,82340,2,0,P|361:332|386:337,1,45.7024990934258,8|8,0:0|0:0,0:0:0:0:
317,225,82503,2,0,P|302:227|272:233,1,45.7024990934258,8|8,0:0|0:0,0:0:0:0:
198,147,82666,6,0,B|306:120|272:207|383:176,1,182.809996373703,6|2,3:2|3:2,0:0:0:0:
247,28,83155,1,10,0:0:0:0:
178,256,83319,1,2,3:2:0:0:
346,82,83482,6,0,P|402:95|465:110,1,91.4049981868515,10|0,3:2|0:0,0:0:0:0:
512,130,83726,2,0,P|467:139|422:148,1,91.4049981868515,10|0,3:2|0:0,0:0:0:0:
346,240,83971,1,10,3:2:0:0:
346,240,84786,6,0,P|283:200|224:215,1,128.509993529007,6|2,3:2|0:0,0:0:0:0:
173,276,85275,2,0,P|110:282|60:245,1,128.509993529007,2|0,0:0|0:0,0:0:0:0:
22,163,85764,1,2,0:0:0:0:
22,163,85927,2,0,P|34:93|46:30,1,128.509993529007,2|2,3:2|3:2,0:0:0:0:
44,36,87068,2,0,P|90:70|136:63,1,96.3824951467555,2|0,0:0|0:0,0:0:0:0:
157,54,87394,6,0,P|145:124|133:187,1,128.509993529007,2|2,3:2|0:0,0:0:0:0:
218,250,87883,2,0,P|229:186|240:123,1,128.509993529007,2|0,0:0|0:0,0:0:0:0:
317,75,88372,1,2,0:0:0:0:
317,75,88536,2,0,P|351:82|384:89,1,64.2549967645036,2|0,3:2|3:2,0:0:0:0:
240,123,88862,2,0,P|229:90|218:57,1,64.2549967645036,2|4,0:0|0:3,0:0:0:0:
321,165,89188,2,0,P|297:190|275:216,1,64.2549967645036,2|4,3:2|3:0,0:0:0:0:
201,284,89514,2,0,P|257:250|326:275,1,128.509993529007,2|0,3:2|3:2,0:0:0:0:
403,375,90003,6,0,P|345:364|277:349,1,128.509993529007,6|2,3:2|0:0,0:0:0:0:
201,284,90492,2,0,P|138:297|75:309,1,128.509993529007,2|0,0:0|0:0,0:0:0:0:
5,245,90981,1,2,0:0:0:0:
5,245,91144,2,0,P|12:205|17:180,1,64.2549967645036,2|0,3:2|3:2,0:0:0:0:
93,135,91470,2,0,P|87:103|81:71,1,64.2549967645036,2|4,0:0|0:3,0:0:0:0:
179,17,91796,2,0,P|186:57|191:82,1,64.2549967645036,2|4,3:2|0:3,0:0:0:0:
267,127,92122,2,0,P|261:158|255:190,1,64.2549967645036,2|0,0:0|3:2,0:0:0:0:
191,258,92449,1,2,3:2:0:0:
191,258,92612,6,0,P|124:243|53:228,2,128.509993529007,2|4|2,3:2|0:3|0:3,0:0:0:0:
338,327,93590,1,4,3:3:0:0:
338,327,93671,1,0,3:2:0:0:
338,327,93753,6,0,B|301:296|249:336|269:348|227:378|181:354,1,164.710005529206,12|0,0:0|0:0,0:0:0:0:
181,175,94242,2,0,P|190:213|199:258,1,82.3550027646028,6|0,0:3|0:0,0:0:0:0:
334,126,94568,2,0,P|325:164|316:209,1,82.3550027646028,6|0,0:3|0:0,0:0:0:0:
72,77,94894,2,0,P|81:115|90:160,1,82.3550027646028,2|0,0:3|0:0,0:0:0:0:
280,38,95220,6,0,P|364:27|423:80,1,164.710005529206,4|8,3:2|0:0,0:0:0:0:
512,155,95709,2,0,B|469:137|412:118|412:118|384:141|365:161,1,164.710005529206,2|0,3:2|3:2,0:0:0:0:
417,311,96199,1,10,0:0:0:0:
417,311,96362,2,0,P|425:269|433:230,1,82.3550027646028,2|0,3:2|0:0,0:0:0:0:
249,304,96688,2,0,P|280:331|310:358,1,82.3550027646028,2|8,3:2|0:0,0:0:0:0:
339,162,97014,2,0,P|299:175|261:188,1,82.3550027646028,2|0,3:2|3:0,0:0:0:0:
238,209,97258,1,8,0:0:0:0:
238,209,97339,1,2,3:2:0:0:
134,332,97503,2,0,P|126:291|117:251,1,82.3550027646028,8|2,0:0|0:0,0:0:0:0:
32,117,97829,6,0,P|15:199|-1:282,1,164.710005529206,0|10,3:2|0:0,0:0:0:0:
169,60,98318,2,0,B|134:83|89:52|103:35|58:7|8:31,1,164.710005529206,2|0,3:2|3:2,0:0:0:0:
143,181,98807,1,10,0:0:0:0:
143,181,98970,2,0,P|187:170|231:159,1,82.3550027646028,2|0,3:2|0:0,0:0:0:0:
332,26,99296,2,0,P|287:15|243:4,1,82.3550027646028,2|8,3:2|0:0,0:0:0:0:
342,157,99622,2,0,P|386:146|430:135,1,82.3550027646028,2|8,3:2|3:3,0:0:0:0:
445,117,99867,1,8,0:0:0:0:
445,117,99949,1,2,3:2:0:0:
371,269,100112,1,8,0:0:0:0:
249,140,100275,1,10,0:3:0:0:
249,140,100356,1,8,0:3:0:0:
249,140,100438,6,0,P|204:129|160:118,1,82.3550027646028,6|0,3:2|3:2,0:0:0:0:
136,264,100764,2,0,P|176:273|216:283,1,82.3550027646028,8|0,0:0|3:2,0:0:0:0:
387,349,101090,2,0,P|379:308|370:268,1,82.3550027646028,2|0,0:0|3:2,0:0:0:0:
502,133,101416,1,10,0:0:0:0:
502,133,101579,6,0,P|493:173|485:213,1,82.3550027646028,2|0,3:2|0:0,0:0:0:0:
310,91,101905,2,0,P|350:81|390:71,1,82.3550027646028,2|8,3:2|0:0,0:0:0:0:
327,224,102231,2,0,P|286:214|246:204,1,82.3550027646028,2|8,3:2|3:0,0:0:0:0:
222,177,102476,1,8,0:0:0:0:
222,177,102557,1,2,3:2:0:0:
149,321,102720,1,8,0:0:0:0:
70,145,102883,1,2,0:0:0:0:
6,311,103046,6,0,P|46:301|137:283,2,123.532504146904,2|2|2,3:2|0:0|3:2,0:0:0:0:
70,145,103699,1,0,0:0:0:0:
70,145,103862,2,0,P|116:154|163:165,1,82.3550027646028,2|8,3:2|0:0,0:0:0:0:
283,322,104188,6,0,P|367:333|426:280,1,164.710005529206,6|0,3:2|3:2,0:0:0:0:
271,93,104677,1,12,0:1:0:0:
196,355,104840,1,0,3:2:0:0:
109,65,105003,1,12,0:1:0:0:
186,333,105166,1,0,3:2:0:0:
101,42,105329,1,8,0:0:0:0:
18,302,105492,1,8,0:0:0:0:
18,302,105574,1,8,0:0:0:0:
18,302,105655,6,0,P|58:292|98:284,1,82.3550027646028,4|0,3:2|3:2,0:0:0:0:
214,198,105981,1,10,0:0:0:0:
214,198,106144,2,0,P|131:179|36:160,1,164.710005529206,2|0,3:2|3:2,0:0:0:0:
284,128,106633,1,10,0:0:0:0:
284,128,106796,2,0,B|312:160|331:178|331:178|310:216|291:273,1,164.710005529206,2|0,3:2|3:2,0:0:0:0:
89,157,107285,5,10,0:0:0:0:
229,42,107448,2,0,P|308:31|375:95,1,164.710005529206,2|0,3:2|3:2,0:0:0:0:
284,241,107938,1,10,0:0:0:0:
449,186,108101,1,2,0:0:0:0:
284,128,108263,6,0,P|275:169|267:209,1,82.3550027646028,0|0,3:2|3:2,0:0:0:0:
358,348,108589,1,10,0:0:0:0:
148,195,108752,2,0,P|156:235|165:275,1,82.3550027646028,2|4,3:2|3:0,0:0:0:0:
284,128,109079,1,8,0:0:0:0:
89,59,109242,1,2,3:2:0:0:
284,241,109405,6,0,B|338:223|388:208|388:208|404:233|430:264,1,164.710005529206,6|0,3:2|3:2,0:0:0:0:
250,361,109894,2,0,P|209:353|168:346,1,82.3550027646028,10|0,0:0|3:2,0:0:0:0:
254,136,110220,1,2,3:2:0:0:
355,323,110383,1,8,3:2:0:0:
355,323,110464,1,8,3:2:0:0:
355,323,110546,2,0,P|389:316|423:310,1,41.1775013823014,10|8,0:0|0:0,0:0:0:0:
431,185,110709,2,0,P|396:178|362:172,1,41.1775013823014,8|0,0:0|0:0,0:0:0:0:
302,47,110872,6,0,B|220:1|167:57|194:69|125:138|46:91,1,276.930001690247,6|6,3:2|0:3,0:0:0:0:
0,17,112014,2,0,P|10:72|19:128,1,92.3100005634155,4|4,3:2|3:2,0:0:0:0:
129,313,112992,1,8,0:3:0:0:
129,313,113074,1,8,0:3:0:0:
129,313,113155,2,0,P|134:281|140:250,1,46.1550002817078,2|0,3:2|0:0,0:0:0:0:
269,68,113481,5,14,0:0:0:0:
51,192,113644,1,2,3:2:0:0:
273,287,113807,1,0,3:2:0:0:
159,60,113970,2,0,P|148:115|139:171,1,82.3550027646028,10|0,0:0|0:0,0:0:0:0:
332,365,114296,1,10,0:0:0:0:
269,68,114459,1,0,3:2:0:0:
123,318,114622,6,0,B|171:346|207:309|188:302|235:264|282:291,1,164.710005529206,6|0,3:2|3:2,0:0:0:0:
457,117,115112,1,10,0:0:0:0:
332,365,115275,1,0,3:2:0:0:
215,151,115438,2,0,P|268:161|326:174,1,82.3550027646028,2|8,0:0|0:3,0:0:0:0:
464,250,115764,1,10,0:0:0:0:
441,275,115845,1,8,0:0:0:0:
411,290,115927,1,8,0:0:0:0:
376,292,116008,1,8,0:0:0:0:
344,280,116090,6,0,B|291:262|238:243|238:243|210:275|187:306,2,182.809996373703,6|8|0,3:1|0:0|0:0,0:0:0:0:
512,173,116905,1,0,3:2:0:0:
317,80,117068,1,10,0:0:0:0:
464,250,117231,2,0,P|478:173|497:70,1,182.809996373703,2|0,3:2|3:2,0:0:0:0:
325,190,117720,2,0,P|336:252|348:314,1,91.4049981868515,10|0,0:0|3:2,0:0:0:0:
128,207,118046,2,0,P|176:165|224:124,1,91.4049981868515,10|0,0:3|3:2,0:0:0:0:
242,370,118372,2,0,P|182:349|122:327,1,91.4049981868515,10|0,0:0|0:0,0:0:0:0:
0,119,118699,6,0,P|62:106|124:93,1,91.4049981868515,2|0,3:2|3:2,0:0:0:0:
231,260,119025,2,0,P|186:250|141:241,1,91.4049981868515,8|0,0:0|3:2,0:0:0:0:
281,108,119350,1,2,0:0:0:0:
340,308,119513,1,0,3:2:0:0:
163,114,119677,2,0,P|171:69|179:24,1,91.4049981868515,8|0,0:0|0:0,0:0:0:0:
400,192,120003,6,0,P|382:99|365:7,1,182.809996373703,2|8,3:2|0:0,0:0:0:0:
270,225,120492,1,2,3:2:0:0:
502,101,120655,2,0,P|497:123|493:145,2,45.7024990934258,2|8|0,3:2|0:0|3:2,0:0:0:0:
358,291,120981,1,8,0:0:0:0:
242,99,121144,1,10,0:0:0:0:
242,99,121225,1,8,0:0:0:0:
242,99,121307,6,0,P|286:88|330:77,1,91.4049981868515,6|0,3:2|3:2,0:0:0:0:
227,297,121633,1,10,0:0:0:0:
227,297,121796,2,0,P|182:286|138:275,1,91.4049981868515,2|0,3:2|0:0,0:0:0:0:
346,203,122122,2,0,P|361:242|356:294,1,91.4049981868515,2|8,3:2|0:0,0:0:0:0:
148,151,122449,6,0,P|138:70|221:-5,1,182.809996373703,2|0,3:2|3:2,0:0:0:0:
331,117,122937,2,0,P|286:108|242:99,1,91.4049981868515,10|0,0:0|3:2,0:0:0:0:
210,290,123263,1,10,0:3:0:0:
210,290,123345,1,8,0:0:0:0:
210,290,123426,1,0,3:2:0:0:
58,169,123590,2,0,P|103:160|147:151,1,91.4049981868515,10|0,0:0|0:0,0:0:0:0:
309,361,123915,5,6,3:2:0:0:
83,272,124079,1,0,3:2:0:0:
284,151,124242,1,8,0:0:0:0:
137,364,124405,1,2,3:2:0:0:
268,57,124568,2,0,P|322:61|360:88,1,91.4049981868515,6|4,0:3|0:3,0:0:0:0:
221,303,124894,1,2,3:2:0:0:
113,89,125057,2,0,P|58:93|21:120,1,91.4049981868515,8|0,0:0|0:0,0:0:0:0:
137,364,125383,1,8,0:0:0:0:
206,134,125546,1,2,3:2:0:0:
38,312,125709,6,0,B|88:284|135:315|112:328|175:373|226:332,1,182.809996373703,4|0,3:1|3:2,0:0:0:0:
244,335,126117,1,0,3:2:0:0:
244,335,126198,1,2,3:2:0:0:
394,224,126361,1,8,0:3:0:0:
394,224,126443,1,8,0:3:0:0:
394,224,126524,6,0,P|387:270|379:315,1,91.4049981868515,6|0,3:2|3:2,0:0:0:0:
262,184,126850,1,10,0:0:0:0:
473,99,127014,2,0,P|490:198|506:299,1,182.809996373703,2|0,3:2|3:2,0:0:0:0:
324,102,127502,1,10,0:0:0:0:
512,6,127665,1,0,3:2:0:0:
350,206,127829,6,0,P|306:195|262:184,1,91.4049981868515,2|0,0:0|3:2,0:0:0:0:
414,21,128155,1,10,0:0:0:0:
468,290,128318,2,0,P|379:311|290:333,1,182.809996373703,2|0,3:2|3:2,0:0:0:0:
93,231,128807,1,10,0:0:0:0:
93,231,128888,1,0,0:0:0:0:
93,231,128970,1,0,0:0:0:0:
247,59,129133,6,0,P|235:135|217:244,1,182.809996373703,6|8,3:1|0:0,0:0:0:0:
438,109,129622,2,0,P|450:185|468:294,1,182.809996373703,6|8,3:2|0:3,0:0:0:0:
231,43,130112,2,0,P|219:119|201:228,1,182.809996373703,14|0,0:1|0:0,0:0:0:0:
404,376,130600,1,0,3:2:0:0:
338,87,130763,5,10,0:2:0:0:
195,346,130926,1,0,3:2:0:0:
231,43,131090,1,10,0:2:0:0:
374,302,131253,1,0,3:2:0:0:
306,5,131415,1,10,0:2:0:0:
306,5,131497,1,8,0:0:0:0:
306,5,131579,2,0,P|332:-2|366:2,1,45.7024990934258,8|8,0:0|0:0,0:0:0:0:
487,154,131742,6,0,B|444:128|392:164|409:173|362:205|311:181,1,182.809996373703,4|6,3:2|0:3,0:0:0:0:
117,245,132231,1,2,3:2:0:0:
304,346,132394,1,12,0:0:0:0:
177,154,132557,1,2,3:2:0:0:
177,154,132883,6,0,P|79:140|10:203,1,182.809996373703,6|2,3:1|3:2,0:0:0:0:
125,364,133372,1,10,0:0:0:0:
256,222,133535,2,0,P|278:226|300:231,2,45.7024990934258,0|0|10,3:2|3:2|0:0,0:0:0:0:
101,102,133861,2,0,P|78:106|56:111,2,45.7024990934258,0|0|10,3:2|0:0|0:0,0:0:0:0:
300,20,134187,1,0,3:2:0:0:
300,20,134269,1,0,3:2:0:0:
300,20,134350,5,2,3:2:0:0:
157,196,134513,1,4,0:3:0:0:
379,129,134676,1,10,0:0:0:0:
187,13,134839,2,0,P|197:58|207:114,1,91.4049981868515,2|0,3:2|3:2,0:0:0:0:
328,276,135165,1,10,0:3:0:0:
328,276,135247,1,8,0:0:0:0:
328,276,135329,1,0,3:2:0:0:
460,64,135492,6,0,B|480:92|501:114|501:114|469:174|449:221,1,182.809996373703,6|0,3:2|3:2,0:0:0:0:
298,21,135981,1,10,0:0:0:0:
221,194,136144,1,0,3:2:0:0:
306,47,136307,1,8,0:3:0:0:
341,161,136470,1,8,0:3:0:0:
198,83,136633,2,0,P|153:93|102:105,1,91.4049981868515,2|0,3:2|0:0,0:0:0:0:
227,323,136959,1,4,0:1:0:0:
227,323,142177,6,0,P|257:330|286:337,1,46.1550002817078,4|0,3:2|0:0,0:0:0:0:
325,227,142503,2,0,P|302:232|280:237,1,46.1550002817078,0|0,3:2|0:0,0:0:0:0:
114,298,142829,2,0,P|84:305|55:312,1,55.2049977256242,8|8,0:0|0:0,0:0:0:0:
6,182,143155,2,0,P|34:188|62:195,1,55.2049977256242,8|8,0:0|0:0,0:0:0:0:
227,323,143481,5,8,0:0:0:0:
183,151,143644,1,8,0:0:0:0:
289,368,143807,1,8,0:0:0:0:
362,161,143970,1,8,0:0:0:0:
495,351,144133,1,8,0:0:0:0:
408,95,144296,1,8,0:0:0:0:
227,323,144459,1,8,0:0:0:0:
365,22,144622,1,8,0:0:0:0:
365,22,144704,1,8,0:0:0:0:
365,22,144785,6,0,P|456:24|491:110,1,164.710005529206,4|0,3:1|3:2,0:0:0:0:
370,201,145275,2,0,L|358:141,1,41.1775013823014,0|0,3:2|3:2,0:0:0:0:
278,181,145438,2,0,L|286:221,3,41.1775013823014,0|8|8|8,3:2|0:3|0:0|0:0,0:0:0:0:
104,136,145764,2,0,L|113:96,1,41.1775013823014,8|8,0:0|0:0,0:0:0:0:
211,51,145927,6,0,P|195:132|179:213,1,164.710005529206,12|8,0:1|0:3,0:0:0:0:
167,243,146334,1,8,0:0:0:0:
167,243,146416,2,0,L|127:251,3,41.1775013823014,2|0|8|8,3:2|0:0|0:3|0:3,0:0:0:0:
307,316,146742,1,2,3:2:0:0:
52,181,146905,1,8,0:0:0:0:
303,79,147068,6,0,P|296:112|289:145,1,55.6575008492661,2|0,3:2|0:0,0:0:0:0:
234,14,147394,6,0,P|255:120|275:227,1,182.809996373703,6|8,3:1|0:0,0:0:0:0:
496,119,147883,2,0,P|474:225|454:332,1,182.809996373703,2|0,3:2|3:2,0:0:0:0:
269,193,148372,1,10,0:0:0:0:
416,63,148535,1,0,3:2:0:0:
336,289,148699,6,0,P|276:302|216:317,1,91.4049981868515,2|0,0:0|3:2,0:0:0:0:
307,93,149025,2,0,P|348:137|391:182,1,91.4049981868515,10|0,0:0|3:2,0:0:0:0:
152,217,149351,2,0,P|169:158|187:99,1,91.4049981868515,2|0,3:2|3:2,0:0:0:0:
336,289,149677,1,10,0:0:0:0:
125,363,149840,1,0,0:0:0:0:
275,196,150003,5,2,3:2:0:0:
275,196,150166,2,0,P|319:185|364:175,1,91.4049981868515,0|8,3:2|0:0,0:0:0:0:
161,51,150492,1,2,3:2:0:0:
161,51,150655,2,0,P|116:40|71:30,1,91.4049981868515,2|2,0:0|3:2,0:0:0:0:
173,241,150981,1,10,0:0:0:0:
313,111,151144,6,0,B|263:83|216:114|239:127|176:172|125:131,1,182.809996373703,0|2,0:0|3:2,0:0:0:0:
341,232,151633,1,10,0:0:0:0:
264,13,151796,1,0,3:2:0:0:
173,241,151959,1,2,3:2:0:0:
173,241,152041,1,8,0:0:0:0:
173,241,152122,1,2,3:2:0:0:
287,31,152285,1,10,0:0:0:0:
386,318,152449,1,10,0:0:0:0:
386,318,152530,1,8,0:0:0:0:
386,318,152612,6,0,P|300:321|255:280,1,137.107497280277,6|0,3:1|0:0,0:0:0:0:
262,291,152938,1,8,0:0:0:0:
69,199,153101,2,0,P|153:135|246:172,1,182.809996373703,6|10,3:1|3:2,0:0:0:0:
403,219,153590,1,10,0:0:0:0:
403,219,153671,1,10,0:0:0:0:
403,219,153753,6,0,B|427:201|456:175|456:175|432:134|404:47,1,182.809996373703,6|2,3:2|3:2,0:0:0:0:
252,210,154242,1,10,0:0:0:0:
501,304,154405,1,8,0:3:0:0:
501,304,154487,1,8,0:3:0:0:
501,304,154568,1,2,3:2:0:0:
290,41,154731,1,6,3:2:0:0:
346,330,154894,1,6,3:1:0:0:
480,133,155057,1,10,0:0:0:0:
480,133,155139,1,10,0:0:0:0:
480,133,155220,6,0,B|361:104|361:104|339:131|288:144,1,182.809996373703,6|10,3:2|0:0,0:0:0:0:
151,263,155709,2,0,P|195:271|240:281,1,91.4049981868515,2|4,3:2|3:3,0:0:0:0:
156,73,156035,2,0,P|111:81|66:91,1,91.4049981868515,2|0,0:3|3:2,0:0:0:0:
182,365,156362,5,14,0:0:0:0:
182,365,156688,1,12,0:0:0:0:
435,204,156851,1,2,3:2:0:0:
156,73,157014,1,14,0:1:0:0:
156,73,157177,2,0,P|139:162|120:252,1,182.809996373703,0|8,0:0|0:3,0:0:0:0:
310,347,157666,1,8,0:0:0:0:
310,347,157747,1,8,0:0:0:0:
310,347,157829,6,0,P|299:294|291:257,1,91.4049981868515,6|0,3:2|3:2,0:0:0:0:
156,73,158155,1,8,0:0:0:0:
357,132,158318,1,2,3:2:0:0:
178,282,158481,2,0,P|189:229|196:192,1,91.4049981868515,2|2,0:0|3:2,0:0:0:0:
306,27,158807,1,10,0:0:0:0:
346,237,158970,1,0,3:2:0:0:
156,73,159133,6,0,P|103:84|66:91,1,91.4049981868515,2|0,0:0|3:2,0:0:0:0:
178,282,159459,1,10,0:0:0:0:
325,128,159622,2,0,P|369:137|414:146,1,91.4049981868515,2|2,3:2|3:2,0:0:0:0:
281,359,159949,1,0,3:2:0:0:
225,102,160112,1,10,0:0:0:0:
356,292,160275,1,2,0:0:0:0:
414,42,160438,6,0,P|324:24|234:8,1,182.809996373703,6|8,3:1|0:0,0:0:0:0:
146,231,160927,2,0,P|199:220|253:211,1,91.4049981868515,6|0,3:1|0:0,0:0:0:0:
111,69,161253,1,10,0:0:0:0:
111,69,161334,1,10,0:0:0:0:
111,69,161416,1,6,3:2:0:0:
3,297,161579,2,0,P|49:304|93:314,1,91.4049981868515
353,208,161905,5,2,3:2:0:0:
353,208,161987,1,10,0:3:0:0:
353,208,162068,1,10,0:0:0:0:
111,69,162231,1,0,3:2:0:0:
218,321,162394,1,10,0:0:0:0:
334,54,162557,1,0,3:2:0:0:
171,258,162720,1,10,0:0:0:0:
356,37,162883,1,10,0:0:0:0:
356,37,162965,1,10,0:0:0:0:
356,37,163046,6,0,P|409:34|460:67,1,91.4049981868515,6|2,3:2|0:0,0:0:0:0:
316,203,163372,2,0,P|286:158|289:97,1,91.4049981868515,6|2,0:3|3:2,0:0:0:0:
480,155,163699,2,0,P|456:202|402:230,1,91.4049981868515,10|2,0:0|3:2,0:0:0:0:
246,294,164025,1,6,0:3:0:0:
381,134,164188,5,4,3:2:0:0:
432,343,164351,1,2,0:0:0:0:
386,107,164514,1,2,3:2:0:0:
246,294,164677,1,10,0:0:0:0:
492,155,164840,1,0,3:2:0:0:
492,155,164921,1,0,3:2:0:0:
492,155,165003,2,0,P|482:102|472:48,1,91.4049981868515,10|0,0:0|3:2,0:0:0:0:
280,195,165329,1,10,0:0:0:0:
500,274,165492,1,0,3:2:0:0:
300,87,165655,6,0,P|247:97|193:107,1,91.4049981868515,6|8,3:1|0:3,0:0:0:0:
186,131,165900,1,8,0:3:0:0:
186,131,165981,1,2,3:2:0:0:
80,300,166144,2,0,P|133:310|187:320,1,91.4049981868515,6|0,3:2|3:2,0:0:0:0:
201,297,166389,1,0,3:2:0:0:
201,297,166470,1,10,0:3:0:0:
300,87,166633,1,8,0:0:0:0:
390,296,166796,6,0,B|340:268|293:299|316:312|253:357|202:316,1,182.809996373703,6|2,3:2|3:2,0:0:0:0:
201,297,167204,1,0,3:2:0:0:
201,297,167285,1,2,3:2:0:0:
401,168,167449,1,10,3:2:0:0:
165,30,167612,2,0,P|148:119|129:209,1,182.809996373703,6|2,3:1|0:3,0:0:0:0:
128,209,168264,5,14,0:0:0:0:
247,93,168427,1,8,0:0:0:0:
278,248,168590,1,8,0:0:0:0:
278,248,169405,2,0,P|373:231|456:218,1,164.710005529206,10|0,0:0|3:2,0:0:0:0:
330,69,169894,1,10,0:0:0:0:
330,69,170872,5,14,0:0:0:0:
211,185,171035,1,8,0:0:0:0:
180,30,171198,1,8,0:0:0:0:
180,30,172014,2,0,P|98:43|17:57,1,164.710005529206,8|0,0:0|3:2,0:0:0:0:
128,189,172503,1,8,0:0:0:0:
133,192,173155,5,8,0:3:0:0:
133,192,173237,1,8,0:3:0:0:
132,192,173318,2,0,L|203:207,1,41.1775013823014,0|0,3:2|0:0,0:0:0:0:
296,270,173481,6,0,B|251:250|219:275|235:284|192:314|146:283,1,146.610003579346,6|6,3:1|0:3,0:0:0:0:
34,176,173970,1,2,3:2:0:0:
34,176,174133,2,0,P|98:160|194:138,1,146.610003579346,8|4,0:0|0:3,0:0:0:0:
356,9,174622,2,0,P|394:70|386:141,1,146.610003579346,6|0,3:1|0:0,0:0:0:0:
224,241,175112,1,2,3:2:0:0:
419,293,175275,1,8,0:0:0:0:
296,96,175438,2,0,P|269:139|274:189,1,73.3050017896729,2|0,3:2|3:2,0:0:0:0:
443,144,175764,2,0,P|419:99|372:78,1,73.3050017896729,10|0,0:0|0:0,0:0:0:0:
192,208,176090,6,0,P|251:194|374:171,1,164.710005529206,6|8,3:2|0:0,0:0:0:0:
378,204,176498,1,0,0:0:0:0:
378,204,176579,1,2,3:2:0:0:
234,18,176742,1,6,0:3:0:0:
234,18,176905,2,0,P|226:63|218:108,1,82.3550027646028,4|0,0:3|3:2,0:0:0:0:
315,294,177231,1,12,0:0:0:0:
20,170,177557,5,10,0:0:0:0:
220,100,177720,1,0,0:0:0:0:
137,303,177883,2,0,P|122:220|107:137,1,164.710005529206,12|0,0:1|0:0,0:0:0:0:
288,39,178372,1,10,0:0:0:0:
309,66,178453,1,8,0:0:0:0:
316,100,178535,1,0,3:2:0:0:
308,135,178616,1,0,3:2:0:0:
286,162,178699,6,0,P|265:209|292:293,1,128.509993529007,6|4,3:2|0:3,0:0:0:0:
282,281,179188,1,2,3:2:0:0:
491,246,179351,2,0,P|435:234|352:220,1,128.509993529007,8|6,0:0|0:3,0:0:0:0:
364,221,179840,1,0,3:2:0:0:
206,70,180003,6,0,P|262:58|345:44,1,128.509993529007,6|4,3:2|0:3,0:0:0:0:
332,45,180492,1,2,3:2:0:0:
203,187,180655,2,0,P|147:175|119:169,1,64.2549967645036,8|0,0:0|3:2,0:0:0:0:
52,28,180981,2,0,P|108:16|136:10,1,64.2549967645036,4|0,0:3|3:2,0:0:0:0:
288,136,181307,6,0,P|360:146|405:114,1,128.509993529007,6|4,3:1|0:3,0:0:0:0:
203,187,181796,2,0,P|149:154|87:167,1,128.509993529007,2|0,3:2|3:2,0:0:0:0:
145,354,182285,1,6,0:3:0:0:
275,246,182449,2,0,P|328:213|390:226,1,128.509993529007,4|0,3:1|3:2,0:0:0:0:
271,98,182938,5,10,0:0:0:0:
347,320,183101,1,0,3:2:0:0:
318,29,183264,1,10,0:0:0:0:
183,329,183427,1,0,3:2:0:0:
212,38,183590,1,10,0:0:0:0:
402,226,183753,1,8,0:0:0:0:
402,226,183834,1,8,0:0:0:0:
402,226,183916,5,8,0:0:0:0:
263,189,184079,1,8,0:0:0:0:
373,133,184242,1,8,0:0:0:0:
308,279,184405,1,8,0:0:0:0:
231,95,184568,1,8,0:0:0:0:
402,226,184731,1,8,0:0:0:0:
164,301,184894,1,8,0:0:0:0:
319,51,185057,1,8,0:0:0:0:
388,353,185220,5,10,0:0:0:0:
231,95,185383,1,10,0:0:0:0:
96,361,185546,1,10,0:0:0:0:
192,30,185709,1,10,0:0:0:0:
303,338,185872,1,10,0:0:0:0:
39,161,186035,1,10,0:0:0:0:
375,92,186199,1,10,0:0:0:0:
111,243,186362,1,8,0:0:0:0:
111,243,186443,1,8,0:0:0:0:
111,243,186525,5,6,3:1:0:0:
409,309,186688,1,2,3:2:0:0:
245,53,186851,1,8,0:0:0:0:
129,350,187014,2,0,P|84:339|25:326,1,91.4049981868515,6|0,3:2|0:0,0:0:0:0:
173,89,187340,1,10,0:0:0:0:
173,89,187421,1,8,0:0:0:0:
173,89,187503,1,4,3:0:0:0:
260,368,187666,2,0,P|341:348|448:324,1,182.809996373703,6|0,3:1|3:2,0:0:0:0:
464,322,188074,1,8,0:3:0:0:
464,322,188155,1,0,3:2:0:0:
37,101,188807,6,0,P|34:73|31:45,1,55.6575008492661,2|0,0:1|0:0,0:0:0:0:
167,100,189133,6,0,B|113:71|73:106|88:115|48:157|-6:122,2,182.809996373703,6|8|0,3:1|0:0|0:0,0:0:0:0:
329,146,189949,1,0,3:2:0:0:
133,199,190112,1,10,0:0:0:0:
269,18,190275,2,0,P|285:107|301:197,1,182.809996373703,2|0,3:2|3:2,0:0:0:0:
484,247,190764,2,0,P|494:190|504:133,1,91.4049981868515,10|0,0:0|3:2,0:0:0:0:
367,290,191090,2,0,P|411:327|455:364,1,91.4049981868515,10|0,0:3|3:2,0:0:0:0:
388,167,191416,2,0,P|333:186|278:205,1,91.4049981868515,10|0,0:0|0:0,0:0:0:0:
183,339,191742,6,0,P|154:333|93:320,1,91.4049981868515,2|0,3:2|3:2,0:0:0:0:
2,164,192068,2,0,P|31:158|91:145,1,91.4049981868515,8|0,0:0|3:2,0:0:0:0:
251,227,192394,1,2,0:0:0:0:
169,47,192557,1,0,3:2:0:0:
68,247,192720,2,0,P|112:256|157:265,1,91.4049981868515,8|0,0:0|0:0,0:0:0:0:
353,195,193046,6,0,P|296:120|191:135,1,182.809996373703,2|8,3:2|0:0,0:0:0:0:
389,61,193536,1,2,3:2:0:0:
251,227,193699,2,0,P|256:250|260:272,2,45.7024990934258,2|8|0,3:2|0:0|3:2,0:0:0:0:
330,0,194025,1,8,0:0:0:0:
441,217,194188,1,10,0:0:0:0:
441,217,194269,1,8,0:0:0:0:
441,217,194351,6,0,P|397:206|353:195,1,91.4049981868515,6|0,3:2|3:2,0:0:0:0:
169,63,194677,1,10,0:0:0:0:
169,63,194840,2,0,P|213:53|258:44,1,91.4049981868515,2|0,3:2|0:0,0:0:0:0:
251,227,195166,2,0,P|206:236|161:245,1,91.4049981868515,2|8,3:2|0:0,0:0:0:0:
35,85,195492,6,0,P|18:175|1:265,1,182.809996373703,2|0,3:2|3:2,0:0:0:0:
179,335,195981,2,0,P|170:290|161:246,1,91.4049981868515,10|0,0:0|3:2,0:0:0:0:
258,82,196307,1,10,0:3:0:0:
258,82,196389,1,8,0:0:0:0:
258,82,196470,1,0,3:2:0:0:
374,264,196633,2,0,P|383:219|392:175,1,91.4049981868515,10|0,0:0|0:0,0:0:0:0:
171,15,196959,5,6,3:2:0:0:
255,238,197123,1,0,3:2:0:0:
358,27,197286,1,8,0:0:0:0:
148,138,197449,1,2,3:2:0:0:
374,264,197612,2,0,P|365:219|356:175,1,91.4049981868515,6|4,0:3|0:3,0:0:0:0:
230,361,197938,1,2,3:2:0:0:
148,138,198101,6,0,P|103:147|58:156,1,91.4049981868515,8|0,0:0|0:0,0:0:0:0:
269,20,198427,1,8,0:0:0:0:
157,243,198590,1,2,3:2:0:0:
74,19,198753,2,0,B|124:-4|168:25|153:34|193:76|248:45,1,182.809996373703,4|0,3:1|3:2,0:0:0:0:
269,20,199161,1,0,3:2:0:0:
269,20,199242,1,2,3:2:0:0:
374,191,199405,1,8,0:3:0:0:
374,191,199487,1,8,0:3:0:0:
374,191,199568,6,0,P|421:207|465:196,1,91.4049981868515,6|0,3:2|3:2,0:0:0:0:
392,51,199894,1,10,0:0:0:0:
275,228,200057,2,0,P|187:284|111:234,1,182.809996373703,2|0,3:2|3:2,0:0:0:0:
26,101,200546,1,10,0:0:0:0:
191,167,200709,1,0,3:2:0:0:
11,297,200873,6,0,P|18:251|25:207,1,91.4049981868515,2|0,0:0|3:2,0:0:0:0:
141,60,201199,1,10,0:0:0:0:
297,223,201362,2,0,P|280:117|263:13,1,182.809996373703,2|0,3:2|3:2,0:0:0:0:
156,205,201851,1,10,0:0:0:0:
156,205,201932,1,0,0:0:0:0:
156,205,202014,1,0,0:0:0:0:
429,150,202177,6,0,P|414:240|400:330,1,182.809996373703,6|8,3:1|0:0,0:0:0:0:
156,205,202666,2,0,P|141:114|127:24,1,182.809996373703,6|0,3:2|3:2,0:0:0:0:
447,166,203155,2,0,P|432:256|418:346,1,182.809996373703,14|0,0:1|0:0,0:0:0:0:
197,186,203644,1,0,3:2:0:0:
425,78,203807,5,10,0:2:0:0:
129,150,203970,1,0,3:2:0:0:
423,297,204133,1,10,0:2:0:0:
127,225,204296,1,0,3:2:0:0:
425,78,204459,1,10,0:2:0:0:
425,78,204541,1,8,0:0:0:0:
425,78,204623,2,0,L|414:132,1,45.7024990934258,8|8,0:0|0:0,0:0:0:0:
282,176,204786,6,0,B|322:151|370:185|354:193|400:228|456:199,1,182.809996373703,4|2,3:2|0:3,0:0:0:0:
296,279,205275,1,0,3:2:0:0:
263,61,205438,1,10,3:2:0:0:
301,314,205601,1,6,3:2:0:0:
301,314,205927,6,0,P|208:333|119:352,1,182.809996373703,6|0,3:1|3:2,0:0:0:0:
209,211,206416,1,10,0:0:0:0:
64,128,206579,2,0,P|60:150|55:172,2,45.7024990934258,0|0|10,3:2|0:0|0:0,0:0:0:0:
245,71,206905,2,0,P|239:48|235:26,2,45.7024990934258,0|0|10,3:2|3:2|0:0,0:0:0:0:
115,266,207231,1,0,3:2:0:0:
115,266,207313,1,0,3:2:0:0:
115,266,207394,5,2,3:2:0:0:
344,200,207557,1,0,3:2:0:0:
134,53,207720,1,10,0:0:0:0:
312,305,207883,2,0,P|356:295|401:286,1,91.4049981868515,6|0,3:2|0:0,0:0:0:0:
295,107,208209,1,10,0:0:0:0:
295,107,208291,1,8,0:3:0:0:
295,107,208373,1,0,3:2:0:0:
201,357,208535,6,0,P|103:336|6:316,1,182.809996373703,6|0,3:1|3:2,0:0:0:0:
162,142,209025,1,10,0:1:0:0:
312,305,209188,2,0,P|309:325|304:349,3,45.7024990934258,0|0|10|0,3:2|3:2|0:0|0:0,0:0:0:0:
231,239,209514,1,0,3:2:0:0:
339,89,209677,1,10,3:2:0:0:
370,78,209758,1,8,0:0:0:0:
403,82,209840,1,8,0:0:0:0:
431,101,209921,1,8,0:0:0:0:
447,130,210003,6,0,P|459:194|482:318,1,182.809996373703,6|10,3:1|0:0,0:0:0:0:
305,379,210492,2,0,P|316:319|326:260,1,91.4049981868515,2|0,3:2|0:0,0:0:0:0:
246,127,210818,1,2,3:2:0:0:
407,218,210982,1,10,0:0:0:0:
208,307,211144,6,0,P|197:247|187:188,1,91.4049981868515,2|0,3:2|0:0,0:0:0:0:
253,37,211471,1,2,3:2:0:0:
83,198,211633,2,0,P|94:138|104:79,1,91.4049981868515,10|0,0:0|3:2,0:0:0:0:
280,208,211960,1,10,0:3:0:0:
280,208,212041,1,8,0:0:0:0:
280,208,212123,1,0,3:2:0:0:
106,304,212285,2,0,P|60:296|16:287,1,91.4049981868515,10|0,0:0|0:0,0:0:0:0:
159,142,212612,5,2,3:2:0:0:
216,331,212775,1,0,3:2:0:0:
149,116,212938,1,10,0:0:0:0:
314,283,213101,2,0,P|369:294|404:300,1,91.4049981868515,2|0,3:2|0:0,0:0:0:0:
478,141,213427,2,0,P|423:151|388:158,1,91.4049981868515,2|8,3:2|0:0,0:0:0:0:
198,214,213753,6,0,B|144:201|81:179|81:179|61:204|41:228,1,182.809996373703,6|2,3:1|3:2,0:0:0:0:
182,342,214242,2,0,P|226:333|271:324,1,91.4049981868515,10|0,0:0|3:2,0:0:0:0:
203,122,214568,1,10,0:3:0:0:
203,122,214650,1,8,0:3:0:0:
203,122,214732,1,0,3:2:0:0:
353,257,214895,1,10,0:0:0:0:
353,257,214977,1,8,0:0:0:0:
353,257,215057,2,0,P|390:264|427:271,1,45.7024990934258,8|8,0:0|0:0,0:0:0:0:
438,163,215221,6,0,P|384:222|271:200,1,182.809996373703,6|8,3:2|0:0,0:0:0:0:
52,72,215709,2,0,P|106:131|219:109,1,182.809996373703,2|0,3:2|3:2,0:0:0:0:
353,257,216199,1,10,0:0:0:0:
259,34,216362,2,0,P|245:106|224:218,1,182.809996373703,0|0,3:2|3:2,0:0:0:0:
66,312,216851,2,0,P|56:263|47:214,1,91.4049981868515,10|0,0:0|3:2,0:0:0:0:
207,353,217177,1,10,0:3:0:0:
207,353,217259,1,8,0:0:0:0:
207,353,217340,1,0,3:2:0:0:
134,156,217503,2,0,P|143:107|152:58,1,91.4049981868515,10|0,0:0|0:0,0:0:0:0:
307,209,217829,5,6,3:2:0:0:
66,312,217992,1,0,3:2:0:0:
335,202,218155,1,8,0:0:0:0:
36,74,218318,1,6,3:2:0:0:
36,74,218645,1,12,3:1:0:0:
202,289,218808,1,2,0:0:0:0:
202,289,218889,1,0,0:0:0:0:
202,289,218971,6,0,P|281:304|386:327,1,182.809996373703,4|10,3:2|0:3,0:0:0:0:
409,305,219378,1,8,0:0:0:0:
409,305,219460,2,0,P|440:296|462:291,1,45.7024990934258,2|0,3:2|0:0,0:0:0:0:
423,175,219623,2,0,P|401:180|379:187,1,45.7024990934258,6|0,3:2|0:0,0:0:0:0:
205,377,219949,2,0,P|115:357|25:340,1,182.809996373703,14|0,3:1|3:2,0:0:0:0:
19,307,220357,1,0,3:2:0:0:
19,307,220438,6,0,B|167:400|309:244|206:166|361:21|495:116,1,586.440014317383,6|0,3:2|0:0,0:0:0:0:
