osu file format v14

[General]
AudioFilename: audio.mp3
AudioLeadIn: 0
PreviewTime: 112422
Countdown: 0
SampleSet: Soft
StackLeniency: 0.7
Mode: 0
LetterboxInBreaks: 0
WidescreenStoryboard: 1

[Editor]
Bookmarks: 5873,73699,142177,168264,226307
DistanceSpacing: 0.9
BeatDivisor: 4
GridSize: 32
TimelineZoom: 2.5

[Metadata]
Title:Crossroads
TitleUnicode:Crossroads
Artist:Suzuki Konomi
ArtistUnicode:鈴木このみ
Creator:Erisu
Version:Keycani's Insane
Source:Re:ゼロから始める異世界生活 禁書と謎の精霊
Tags:Re:Zero Kara Hajimeru Isekai Seikatsu Kinsho to Nazo no Seirei Re:Life in a different world from zero web video game op opening full ver version j-rock jrock rock japanese anime mayuzumi fuyuko sanairrt pikaqours tycani fuiba fuyu keywee -magic-
BeatmapID:3026136
BeatmapSetID:1462930

[Difficulty]
HPDrainRate:5
CircleSize:4
OverallDifficulty:8
ApproachRate:9
SliderMultiplier:1.9
SliderTickRate:1

[Events]
//Background and Video events
0,0,"bg.png",0,0
//Break Periods
2,139767,141577
//Storyboard Layer 0 (Background)
//Storyboard Layer 1 (Fail)
//Storyboard Layer 2 (Pass)
//Storyboard Layer 3 (Foreground)
//Storyboard Layer 4 (Overlay)
//Storyboard Sound Samples

[TimingPoints]
656,326.086956521739,4,2,12,40,1,0
656,-131.578947368421,4,2,12,40,0,0
5547,-131.578947368421,4,2,13,50,0,0
5873,-116.279069767442,4,2,12,60,0,0
8155,-116.279069767442,4,2,12,50,0,0
8482,-116.279069767442,4,2,12,40,0,0
9623,-116.279069767442,4,2,12,50,0,0
10764,-116.279069767442,4,2,13,50,0,0
11090,-104.166666666667,4,2,13,70,0,0
11253,-104.166666666667,4,2,12,70,0,0
21525,-131.578947368421,4,2,12,50,0,0
26416,-131.578947368421,4,2,13,50,0,0
26742,-131.578947368421,4,2,12,50,0,0
30003,-131.578947368421,4,2,13,50,0,0
30166,-131.578947368421,4,2,12,50,0,0
30492,-104.166666666667,4,2,12,55,0,0
30574,-104.166666666667,4,2,12,55,0,0
30982,-104.166666666667,4,2,12,50,0,0
31634,-104.166666666667,4,2,13,50,0,0
31960,-94.3396226415094,4,2,12,60,0,0
42395,-104.166666666667,4,2,12,65,0,0
45736,-104.166666666667,4,2,12,65,0,0
45819,-104.166666666667,4,2,12,65,0,0
47612,-178.571428571429,4,2,12,40,0,0
48753,-178.571428571429,4,2,13,40,0,0
48835,-178.571428571429,4,2,12,40,0,0
49405,-104.166666666667,4,2,13,40,0,0
49569,-104.166666666667,4,2,12,40,0,0
49895,-104.166666666667,4,2,12,50,0,0
52340,-178.571428571429,4,2,12,40,0,0
52829,-86.2068965517241,4,2,13,80,0,1
53155,-86.2068965517241,4,2,12,80,0,1
56090,-86.2068965517241,4,2,13,80,0,1
56253,-86.2068965517241,4,2,12,80,0,1
56334,-86.2068965517241,4,2,13,80,0,1
56416,-86.2068965517241,4,2,12,80,0,1
56742,-86.2068965517241,4,2,13,80,0,1
56905,-86.2068965517241,4,2,12,80,0,1
56986,-86.2068965517241,4,2,13,80,0,1
57069,-86.2068965517241,4,2,12,80,0,1
57395,-86.2068965517241,4,2,13,80,0,1
57476,-86.2068965517241,4,2,12,80,0,1
61471,-86.2068965517241,4,2,13,80,0,1
61634,-86.2068965517241,4,2,12,80,0,1
62286,-86.2068965517241,4,2,13,80,0,1
62449,-86.2068965517241,4,2,12,80,0,1
62938,-86.2068965517241,4,2,13,80,0,1
63101,-86.2068965517241,4,2,12,80,0,1
68482,-86.2068965517241,4,2,12,60,0,1
68808,-86.2068965517241,4,2,13,60,0,1
68971,-86.2068965517241,4,2,12,60,0,1
72232,-86.2068965517241,4,2,12,60,0,1
72558,-86.2068965517241,4,2,12,60,0,1
73210,-86.2068965517241,4,2,12,40,0,1
73291,-86.2068965517241,4,2,13,40,0,1
73373,-151.515151515152,4,2,13,40,0,1
73617,-151.515151515152,4,2,13,40,0,1
73699,-104.166666666667,4,2,13,70,0,0
73862,-104.166666666667,4,2,12,65,0,0
74025,-104.166666666667,4,2,12,65,0,0
81525,-104.166666666667,4,2,12,60,0,0
83482,-125,4,2,12,60,0,0
83563,-125,4,2,12,5,0,0
83726,-125,4,2,12,60,0,0
83808,-125,4,2,12,5,0,0
83971,-125,4,2,12,60,0,0
84052,-125,4,2,12,5,0,0
84134,-125,4,2,12,60,0,0
84786,326.086956521739,4,2,12,50,1,0
84786,-131.578947368421,4,2,12,50,0,0
85438,-131.578947368421,4,2,13,50,0,0
85601,-131.578947368421,4,2,12,50,0,0
88047,-131.578947368421,4,2,13,50,0,0
88210,-131.578947368421,4,2,12,50,0,0
89025,-131.578947368421,4,2,12,30,0,0
89188,-131.578947368421,4,2,12,50,0,0
89350,-131.578947368421,4,2,12,30,0,0
89514,-131.578947368421,4,2,12,50,0,0
89677,-131.578947368421,4,2,13,50,0,0
89840,-131.578947368421,4,2,12,50,0,0
90655,-131.578947368421,4,2,13,50,0,0
90819,-131.578947368421,4,2,12,50,0,0
91633,-131.578947368421,4,2,12,30,0,0
91796,-131.578947368421,4,2,12,50,0,0
91959,-131.578947368421,4,2,12,30,0,0
92122,-131.578947368421,4,2,12,40,0,0
92612,-131.578947368421,4,2,12,40,0,0
93264,-131.578947368421,4,2,13,40,0,0
93427,-131.578947368421,4,2,12,40,0,0
93753,-104.166666666667,4,2,12,45,0,0
94079,-104.166666666667,4,2,12,45,0,0
94242,-104.166666666667,4,2,12,45,0,0
94895,-104.166666666667,4,2,13,55,0,0
95220,-94.3396226415094,4,2,12,60,0,0
105655,-104.166666666667,4,2,12,65,0,0
110791,-104.166666666667,4,2,12,65,0,0
110872,-104.166666666667,4,2,12,50,0,0
111524,-104.166666666667,4,2,12,50,0,0
111851,-104.166666666667,4,2,12,50,0,0
112014,-178.571428571429,4,2,13,50,0,0
112503,-178.571428571429,4,2,12,50,0,0
112992,-178.571428571429,4,2,13,50,0,0
113074,-178.571428571429,4,2,12,50,0,0
113481,-178.571428571429,4,2,12,60,0,0
113645,-104.166666666667,4,2,12,60,0,0
116090,-86.2068965517241,4,2,13,80,0,1
116253,-86.2068965517241,4,2,12,80,0,1
119351,-86.2068965517241,4,2,13,80,0,1
119514,-86.2068965517241,4,2,12,80,0,1
120003,-86.2068965517241,4,2,13,80,0,1
120166,-86.2068965517241,4,2,12,80,0,1
120655,-86.2068965517241,4,2,13,80,0,1
120737,-86.2068965517241,4,2,12,80,0,1
124732,-86.2068965517241,4,2,13,80,0,1
124895,-86.2068965517241,4,2,12,80,0,1
125547,-86.2068965517241,4,2,13,80,0,1
125710,-86.2068965517241,4,2,12,80,0,1
126199,-86.2068965517241,4,2,13,80,0,1
126362,-86.2068965517241,4,2,12,80,0,1
131742,-86.2068965517241,4,2,12,70,0,1
136308,-86.2068965517241,4,2,13,60,0,1
136634,-178.571428571429,4,2,12,55,0,1
136959,-312.5,4,2,13,50,0,0
137612,-312.5,4,2,13,40,0,0
137938,-312.5,4,2,12,20,0,0
139242,-312.5,4,2,13,20,0,0
139569,-312.5,4,2,12,40,0,0
139895,-312.5,4,2,12,30,0,0
140221,-312.5,4,2,13,30,0,0
140547,-312.5,4,2,12,30,0,0
140873,-312.5,4,2,13,30,0,0
140954,-116.279069767442,4,2,13,30,0,0
141199,-116.279069767442,4,2,12,30,0,0
141362,-116.279069767442,4,2,13,30,0,0
141525,-116.279069767442,4,2,12,30,0,0
141851,-116.279069767442,4,2,13,30,0,0
142014,-116.279069767442,4,2,12,30,0,0
142177,-116.279069767442,4,2,12,40,0,0
142829,-116.279069767442,4,2,12,20,0,0
142992,-116.279069767442,4,2,12,25,0,0
143155,-116.279069767442,4,2,12,30,0,0
143318,-116.279069767442,4,2,12,35,0,0
143481,-116.279069767442,4,2,12,40,0,0
143644,-116.279069767442,4,2,12,45,0,0
143807,-116.279069767442,4,2,12,50,0,0
143970,-116.279069767442,4,2,12,55,0,0
144133,-116.279069767442,4,2,12,60,0,0
146416,-116.279069767442,4,2,13,60,0,0
146905,-116.279069767442,4,2,12,60,0,0
147068,-178.571428571429,4,2,13,60,0,0
147232,-178.571428571429,4,2,12,60,0,0
147394,-86.2068965517241,4,2,13,70,0,1
147476,-86.2068965517241,4,2,12,70,0,1
148699,-86.2068965517241,4,2,13,70,0,1
148862,-86.2068965517241,4,2,12,70,0,1
149351,-86.2068965517241,4,2,13,70,0,1
149433,-86.2068965517241,4,2,12,70,0,1
150003,-86.2068965517241,4,2,13,70,0,1
150166,-86.2068965517241,4,2,12,70,0,1
150655,-86.2068965517241,4,2,13,70,0,1
150737,-86.2068965517241,4,2,12,70,0,1
151308,-86.2068965517241,4,2,13,70,0,1
151471,-86.2068965517241,4,2,12,70,0,1
151960,-86.2068965517241,4,2,13,70,0,1
152041,-86.2068965517241,4,2,12,70,0,1
154405,-86.2068965517241,4,2,13,70,0,1
154569,-86.2068965517241,4,2,12,70,0,1
154732,-86.2068965517241,4,2,13,70,0,1
154813,-86.2068965517241,4,2,13,70,0,1
154895,-86.2068965517241,4,2,12,70,0,1
154976,-86.2068965517241,4,2,12,70,0,1
155058,-86.2068965517241,4,2,12,70,0,1
155873,-86.2068965517241,4,2,13,70,0,1
156199,-86.2068965517241,4,2,12,70,0,1
156851,-86.2068965517241,4,2,13,70,0,1
157014,-86.2068965517241,4,2,12,70,0,1
157503,-86.2068965517241,4,2,13,70,0,1
157666,-86.2068965517241,4,2,12,70,0,1
158482,-86.2068965517241,4,2,13,70,0,1
158645,-86.2068965517241,4,2,12,70,0,1
159134,-86.2068965517241,4,2,13,70,0,1
159297,-86.2068965517241,4,2,12,70,0,1
159786,-86.2068965517241,4,2,13,70,0,1
159867,-86.2068965517241,4,2,12,70,0,1
163046,-86.2068965517241,4,2,12,60,0,1
164188,-86.2068965517241,4,2,12,60,0,1
165819,-86.2068965517241,4,2,13,70,0,1
165982,-86.2068965517241,4,2,12,70,0,1
166471,-86.2068965517241,4,2,13,70,0,1
166634,-86.2068965517241,4,2,12,70,0,1
167612,-217.391304347826,4,2,12,70,0,1
167938,-217.391304347826,4,2,13,70,0,1
168264,-104.166666666667,4,2,12,40,0,0
169649,-104.166666666667,4,2,12,40,0,0
169731,-104.166666666667,4,2,12,40,0,0
172258,-104.166666666667,4,2,12,40,0,0
172340,-104.166666666667,4,2,12,40,0,0
173155,-104.166666666667,4,2,13,40,0,0
173400,-104.166666666667,4,2,13,40,0,0
173481,-116.279069767442,4,2,12,55,0,0
176905,-116.279069767442,4,2,13,55,0,0
177069,-116.279069767442,4,2,12,55,0,0
178699,-131.578947368421,4,2,12,55,0,0
179025,-131.578947368421,4,2,13,55,0,0
179188,-131.578947368421,4,2,12,55,0,0
180329,-131.578947368421,4,2,13,55,0,0
180492,-131.578947368421,4,2,12,55,0,0
180982,-131.578947368421,4,2,13,55,0,0
181145,-131.578947368421,4,2,12,55,0,0
181307,-104.166666666667,4,2,12,55,0,0
181634,-104.166666666667,4,2,13,55,0,0
181797,-104.166666666667,4,2,12,55,0,0
183916,-86.2068965517241,4,2,12,25,0,1
184079,-86.2068965517241,4,2,12,30,0,1
184242,-86.2068965517241,4,2,12,35,0,1
184405,-86.2068965517241,4,2,12,40,0,1
184568,-86.2068965517241,4,2,12,45,0,1
184731,-86.2068965517241,4,2,12,50,0,1
184894,-86.2068965517241,4,2,12,55,0,1
185057,-86.2068965517241,4,2,12,60,0,1
185220,-86.2068965517241,4,2,12,70,0,1
186525,-104.166666666667,4,2,12,50,0,0
188074,-104.166666666667,4,2,13,60,0,0
188155,-104.166666666667,4,2,12,60,0,0
188807,-151.515151515152,4,2,13,60,0,0
189133,-86.2068965517241,4,2,13,80,0,1
189297,-86.2068965517241,4,2,12,80,0,1
192394,-86.2068965517241,4,2,13,80,0,1
192557,-86.2068965517241,4,2,12,80,0,1
193046,-86.2068965517241,4,2,13,80,0,1
193209,-86.2068965517241,4,2,12,80,0,1
193699,-86.2068965517241,4,2,13,80,0,1
193780,-86.2068965517241,4,2,12,80,0,1
197775,-86.2068965517241,4,2,13,80,0,1
197938,-86.2068965517241,4,2,12,80,0,1
198590,-86.2068965517241,4,2,13,80,0,1
198753,-86.2068965517241,4,2,12,80,0,1
199242,-86.2068965517241,4,2,12,80,0,1
204786,-86.2068965517241,4,2,12,60,0,1
205112,-86.2068965517241,4,2,13,60,0,1
205275,-86.2068965517241,4,2,12,60,0,1
207394,-86.2068965517241,4,2,12,65,0,1
210003,-104.166666666667,4,2,13,70,0,0
210166,-104.166666666667,4,2,12,70,0,0
217829,-104.166666666667,4,2,12,60,0,0
220438,-104.166666666667,4,2,12,55,0,0
221742,-104.166666666667,4,2,12,50,0,0
223046,-104.166666666667,4,2,12,40,0,0
224351,-104.166666666667,4,2,12,30,0,0
225655,-104.166666666667,4,2,12,20,0,0
226307,-104.166666666667,4,2,12,20,0,0
226959,-104.166666666667,4,2,12,5,0,0

[Colours]
Combo1 : 187,147,236
Combo2 : 121,190,80
Combo3 : 200,219,64
Combo4 : 223,122,92

[HitObjects]
73,76,5873,6,0,P|111:58|154:53,2,81.7000012466431,4|0|6,3:2|3:2|3:0,0:0:0:0:
16,161,6362,2,0,P|7:222|7:245,1,81.7000012466431,2|6,3:2|3:3,0:0:0:0:
82,300,6688,1,0,3:2:0:0:
93,296,6770,1,0,3:2:0:0:
104,292,6851,6,0,B|173:311|173:311|184:335|184:335|256:359,1,163.400002493286,14|4,0:0|3:0,0:0:0:0:
333,307,7340,2,0,P|343:265|335:225,1,81.7000012466431,10|6,0:0|3:0,0:0:0:0:
267,159,7666,2,0,P|262:138|266:118,2,40.8500006233215,2|0|6,3:2|3:2|3:0,0:0:0:0:
336,227,7992,1,2,3:2:0:0:
426,140,8155,1,10,0:0:0:0:
426,140,8482,5,0,3:2:0:0:
288,24,8645,2,0,B|237:64|237:64|268:163,2,163.400002493286,0|0|8,3:2|3:2|0:0,0:0:0:0:
288,24,9623,6,0,B|191:41|236:73|131:92,1,163.400002493286,4|0,3:2|3:2,0:0:0:0:
143,235,10112,2,0,B|179:163|179:163|141:89,2,163.400002493286,12|0|8,0:0|0:0|0:3,0:0:0:0:
143,235,11090,6,0,B|253:221|253:221|286:252|266:289,1,182.400004453125,6|10,3:1|0:0,0:0:0:0:
368,355,11579,2,0,P|384:295|385:261,1,91.2000022265626,2|0,3:2|0:0,0:0:0:0:
326,179,11905,1,2,3:2:0:0:
482,228,12069,1,10,0:0:0:0:
326,179,12232,6,0,L|294:-2,1,182.400004453125,2|2,3:2|3:2,0:0:0:0:
415,111,12721,2,0,P|476:87|518:83,1,91.2000022265626,10|2,0:0|3:2,0:0:0:0:
326,179,13047,2,0,P|265:155|223:151,1,91.2000022265626,8|0,3:0|3:2,0:0:0:0:
399,260,13373,1,8,0:0:0:0:
399,260,13699,6,0,P|361:319|243:299,1,182.400004453125,2|8,3:2|0:0,0:0:0:0:
128,222,14188,1,2,3:2:0:0:
128,222,14514,2,0,P|105:292|103:313,1,91.2000022265626,2|8,3:2|0:0,0:0:0:0:
35,132,14840,6,0,B|59:97|55:8|55:8|28:35|4:44,1,182.400004453125,4|2,3:2|3:2,0:0:0:0:
130,137,15329,2,0,P|184:119|217:117,1,91.2000022265626,10|2,0:0|3:2,0:0:0:0:
307,20,15655,2,0,P|261:15|219:0,1,91.2000022265626,10|0,3:0|3:2,0:0:0:0:
321,137,15982,1,10,0:0:0:0:
365,143,16063,1,8,0:0:0:0:
406,124,16145,1,8,0:0:0:0:
430,86,16226,1,8,0:0:0:0:
429,41,16308,6,0,B|382:102|382:102|419:207,1,182.400004453125,6|8,3:2|0:0,0:0:0:0:
306,245,16797,2,0,B|404:207|399:268|489:244,1,182.400004453125,2|0,3:2|3:2,0:0:0:0:
434,373,17286,1,10,0:0:0:0:
434,373,17449,6,0,B|393:340|347:338|347:338|320:380|274:384,1,182.400004453125,2|0,3:2|3:2,0:0:0:0:
157,288,17938,2,0,P|134:227|133:195,1,91.2000022265626,10|0,0:0|3:2,0:0:0:0:
330,158,18264,2,0,P|324:203|305:244,1,91.2000022265626,10|0,3:0|3:2,0:0:0:0:
151,110,18590,1,10,0:0:0:0:
151,110,18916,6,0,B|36:144|36:144|21:183|53:207,1,182.400004453125,6|8,3:2|0:0,0:0:0:0:
157,288,19405,1,6,3:1:0:0:
157,288,19732,2,0,P|141:341|132:387,1,91.2000022265626,14|2,0:1|0:0,0:0:0:0:
342,309,20058,6,0,B|347:271|333:242|333:242|297:226|297:226|280:193|285:146,1,182.400004453125,6|10,3:2|0:0,0:0:0:0:
376,40,20547,1,10,0:3:0:0:
291,160,20710,1,6,3:1:0:0:
291,160,21036,2,0,B|386:142|375:204|466:193,1,182.400004453125,6|0,3:2|3:2,0:0:0:0:
492,163,21444,1,0,3:2:0:0:
492,163,21525,5,6,3:2:0:0:
492,163,22666,5,2,3:2:0:0:
423,114,22829,1,0,3:2:0:0:
353,161,22992,1,2,3:2:0:0:
353,161,24134,6,0,B|337:239|338:347|437:328|438:271|438:271|436:219|356:212|302:242|318:263|261:294|201:269,1,505.399993830566,2|2,3:2|3:2,0:0:0:0:
138,215,25438,1,0,3:2:0:0:
181,143,25601,1,2,3:2:0:0:
181,143,26416,2,0,P|131:142|107:147,1,72.1999991186524,2|0,0:3|0:0,0:0:0:0:
268,52,26742,5,6,3:2:0:0:
268,52,28047,1,0,3:2:0:0:
268,52,29351,6,0,P|276:78|282:127,1,72.1999991186524,0|0,3:2|0:0,0:0:0:0:
171,24,29677,2,0,P|163:50|157:99,1,72.1999991186524,4|4,0:3|0:3,0:0:0:0:
297,148,30003,2,0,B|389:126|339:104|431:87,1,144.399998237305,2|4,0:3|3:3,0:0:0:0:
464,100,30411,1,0,3:2:0:0:
464,100,30492,6,0,B|473:128|473:128|465:152,1,45.6000011132813,12|0,0:0|0:0,0:0:0:0:
464,100,31960,6,0,P|442:160|435:211,1,100.700000153656,4|0,3:2|3:2,0:0:0:0:
487,289,32286,1,8,0:0:0:0:
487,289,32449,1,2,3:2:0:0:
371,367,32612,2,0,B|346:341|311:335|311:335|278:301|283:246|338:218,1,201.400000307312,2|10,0:0|0:0,0:0:0:0:
207,308,33101,6,0,B|66:333|66:333|51:303|34:279,1,201.400000307312,2|2,3:2|3:2,0:0:0:0:
83,183,33590,1,8,0:0:0:0:
17,89,33753,2,0,P|60:152|180:148,1,201.400000307312,2|2,3:2|3:2,0:0:0:0:
243,31,34242,1,8,0:0:0:0:
186,131,34405,1,2,0:0:0:0:
292,213,34569,6,0,L|497:168,1,201.400000307312,0|10,3:2|0:0,0:0:0:0:
512,316,35058,2,0,L|307:361,1,201.400000307312,2|0,3:2|3:2,0:0:0:0:
292,213,35547,1,10,0:0:0:0:
197,325,35710,6,0,B|165:211|233:241|204:128,1,201.400000307312,2|2,3:2|3:2,0:0:0:0:
94,33,36199,1,8,0:0:0:0:
94,33,36362,2,0,P|74:109|58:183,1,151.050000230484,2|8,3:2|0:0,0:0:0:0:
76,216,36688,2,0,P|89:281|94:317,1,100.700000153656,2|8,3:2|0:0,0:0:0:0:
192,221,37014,1,10,0:3:0:0:
192,221,37096,1,8,0:3:0:0:
192,221,37177,6,0,B|273:197|273:197|308:211|308:211|391:192,2,201.400000307312,6|8|2,3:2|0:0|0:0,0:0:0:0:
102,140,37992,1,0,3:2:0:0:
206,234,38155,1,10,0:0:0:0:
314,120,38319,6,0,P|302:60|178:52,1,201.400000307312,2|2,3:2|3:2,0:0:0:0:
205,216,38808,1,8,0:0:0:0:
314,120,38971,2,0,B|366:176|366:176|323:301,1,201.400000307312,2|2,3:2|3:2,0:0:0:0:
226,366,39460,2,0,P|160:352|106:348,1,100.700000153656,8|2,0:0|0:0,0:0:0:0:
205,216,39786,5,2,3:2:0:0:
102,131,39949,2,0,P|93:91|80:19,1,100.700000153656,2|8,3:2|0:0,0:0:0:0:
205,216,40275,2,0,P|272:213|361:108,1,201.400000307312,2|2,3:2|3:2,0:0:0:0:
241,24,40764,1,8,0:0:0:0:
464,157,40927,6,0,B|483:116|482:27|482:27|466:56|426:80,1,201.400000307312,6|0,3:2|3:2,0:0:0:0:
324,192,41416,2,0,P|256:172|215:169,1,100.700000153656,12|0,0:1|3:2,0:0:0:0:
384,314,41742,2,0,P|452:294|493:291,1,100.700000153656,12|0,0:1|3:2,0:0:0:0:
282,374,42069,1,8,0:0:0:0:
332,200,42232,1,8,0:0:0:0:
332,200,42313,1,8,0:0:0:0:
332,200,42395,6,0,B|315:126|315:126|325:99|325:99|307:15,1,182.400004453125,4|10,3:2|0:0,0:0:0:0:
199,137,42884,2,0,B|92:104|158:89|27:54,1,182.400004453125,2|0,3:2|3:2,0:0:0:0:
221,32,43373,1,10,0:0:0:0:
133,200,43536,1,2,3:2:0:0:
133,200,43862,6,0,P|149:252|154:294,1,91.2000022265626,0|10,3:2|0:0,0:0:0:0:
274,116,44188,2,0,P|305:219|315:303,1,182.400004453125,2|0,3:2|3:2,0:0:0:0:
196,380,44677,1,10,0:0:0:0:
315,292,44840,6,0,B|437:330|437:330|450:308|484:283,1,182.400004453125,2|0,0:0|3:2,0:0:0:0:
407,203,45329,1,10,0:0:0:0:
501,58,45492,2,0,L|353:29,1,136.800003339844,2|0,3:2|0:0,0:0:0:0:
327,20,45819,1,8,0:0:0:0:
299,116,45982,1,2,3:2:0:0:
141,30,46145,6,0,P|68:57|75:170,1,182.400004453125,6|0,3:2|3:2,0:0:0:0:
222,231,46634,2,0,B|241:220|267:210|267:210|186:199|127:221,1,182.400004453125,10|2,0:0|3:2,0:0:0:0:
55,333,47123,1,8,3:2:0:0:
55,333,47204,1,8,3:2:0:0:
55,333,47286,2,0,P|41:283|22:225,1,91.2000022265626,10|8,0:0|0:0,0:0:0:0:
222,231,47612,6,0,B|322:229|336:97|292:2|106:47|175:167|241:155,1,372.400004545898,6|4,3:2|0:3,0:0:0:0:
237,156,49242,1,10,0:3:0:0:
303,221,49405,2,0,P|309:244|314:274,2,45.6000011132813,8|8|2,0:3|0:3|3:2,0:0:0:0:
343,100,49732,1,8,0:0:0:0:
365,61,49813,1,8,0:0:0:0:
403,36,49895,1,10,0:0:0:0:
448,32,49976,1,8,0:0:0:0:
490,48,50058,2,0,P|504:98|504:104,1,45.6000011132813,8|8,0:0|0:0,0:0:0:0:
419,264,50221,5,6,3:2:0:0:
343,100,50384,2,0,P|285:91|246:90,1,91.2000022265626,2|0,3:2|3:2,0:0:0:0:
419,264,50710,6,0,P|472:216|429:117,1,182.400004453125,10|10,0:0|0:0,0:0:0:0:
438,122,51199,1,0,3:2:0:0:
290,255,51362,6,0,B|215:238|215:238|192:209|192:209|155:210|114:193,1,182.400004453125,6|8,3:2|0:0,0:0:0:0:
305,22,51851,1,6,3:2:0:0:
305,22,52340,6,0,P|326:13|332:13,1,26.600000324707,4|4,0:3|0:3,0:0:0:0:
248,94,52503,6,0,P|211:81|160:77,1,79.8000009741211,2|0,0:0|0:0,0:0:0:0:
93,68,52829,6,0,P|162:36|320:24,1,220.400006726074,6|8,3:1|0:0,0:0:0:0:
335,179,53319,2,0,P|225:184|123:225,1,220.400006726074,0|0,3:2|3:2,0:0:0:0:
163,350,53808,1,10,0:0:0:0:
28,263,53971,6,0,B|4:201|54:149|54:149|19:112|24:44,1,220.400006726074,2|0,3:2|3:2,0:0:0:0:
123,225,54460,2,0,P|149:167|143:108,1,110.200003363037,10|0,0:0|3:2,0:0:0:0:
212,273,54786,2,0,P|257:242|284:195,1,110.200003363037,10|0,0:3|3:2,0:0:0:0:
276,359,55112,1,10,0:0:0:0:
276,359,55438,6,0,P|336:342|446:330,1,165.300005044556,2|0,3:2|0:0,0:0:0:0:
474,351,55764,2,0,B|450:299|450:299|477:251,1,110.200003363037,8|0,0:0|3:2,0:0:0:0:
411,135,56090,6,0,B|316:150|316:150|294:186|321:218,1,165.300005044556,2|0,0:0|0:0,0:0:0:0:
347,185,56416,2,0,L|327:73,1,110.200003363037,8|0,0:0|0:0,0:0:0:0:
164,160,56742,6,0,B|111:92|111:92|39:138,1,165.300005044556,2|0,3:2|0:0,0:0:0:0:
23,156,57069,1,8,0:0:0:0:
93,249,57232,1,2,3:2:0:0:
259,134,57395,1,2,3:2:0:0:
259,134,57476,1,8,0:0:0:0:
259,134,57558,1,0,3:2:0:0:
93,249,57721,1,8,0:0:0:0:
175,356,57884,1,10,0:0:0:0:
222,342,57965,1,8,0:0:0:0:
269,328,58047,6,0,B|145:306|180:370|55:363,1,220.400006726074,6|10,3:2|0:0,0:0:0:0:
187,244,58536,2,0,P|167:190|18:196,1,220.400006726074,2|2,3:2|3:2,0:0:0:0:
118,318,59025,1,8,0:0:0:0:
272,199,59188,6,0,B|419:232|419:232|430:272|444:302,1,220.400006726074,2|0,3:2|3:2,0:0:0:0:
280,384,59677,2,0,P|262:326|276:276,1,110.200003363037,10|0,0:0|3:2,0:0:0:0:
347,128,60003,1,10,0:3:0:0:
341,106,60085,1,8,0:0:0:0:
335,84,60166,1,0,3:2:0:0:
380,227,60329,1,10,0:0:0:0:
380,227,60655,6,0,B|412:193|451:168|451:168|457:93|415:40,1,220.400006726074,6|8,3:2|0:0,0:0:0:0:
262,151,61145,1,2,3:2:0:0:
139,47,61308,1,6,0:3:0:0:
262,151,61471,1,4,0:3:0:0:
262,151,61797,6,0,L|228:373,1,220.400006726074,8|8,0:0|0:0,0:0:0:0:
151,333,62286,1,2,3:2:0:0:
328,251,62449,2,0,P|406:237|441:234,2,110.200003363037,4|0|0,3:1|0:0|3:2,0:0:0:0:
170,321,62938,1,2,3:2:0:0:
76,273,63101,1,8,0:3:0:0:
71,251,63183,1,8,0:3:0:0:
66,229,63264,6,0,B|83:142|83:142|110:110|110:110|124:18,1,220.400006726074,6|10,3:2|0:0,0:0:0:0:
229,126,63753,2,0,B|274:102|281:47|281:47|329:12|399:52,1,220.400006726074,2|0,3:2|3:2,0:0:0:0:
254,224,64242,2,0,P|187:208|142:173,1,110.200003363037,10|0,0:0|3:2,0:0:0:0:
391,319,64569,6,0,P|470:274|455:156,1,220.400006726074,2|10,0:0|0:0,0:0:0:0:
295,310,65058,2,0,P|284:244|261:138,1,165.300005044556,2|8,3:2|0:0,0:0:0:0:
229,126,65384,1,0,3:2:0:0:
329,53,65547,2,0,P|417:68|445:78,1,110.200003363037,10|0,0:0|0:0,0:0:0:0:
267,215,65873,6,0,B|117:180|117:180|107:154|87:120,1,220.400006726074,6|8,3:1|0:0,0:0:0:0:
267,215,66362,6,0,B|226:288|166:294|166:294|137:268|77:259,1,220.400006726074,6|0,3:2|3:2,0:0:0:0:
267,215,66851,6,0,B|373:215|457:179|457:179|391:177|316:140,1,330.600010089112,14|0,0:1|3:2,0:0:0:0:
393,340,67503,6,0,P|468:300|439:165,2,220.400006726074,10|10|10,0:2|0:2|0:2,0:0:0:0:
259,277,68319,1,8,0:0:0:0:
259,277,68400,1,8,0:0:0:0:
259,277,68482,6,0,P|231:211|224:170,1,110.200003363037,4|0,3:2|0:0,0:0:0:0:
168,362,68808,1,2,0:3:0:0:
168,362,68971,2,0,P|112:230|98:148,1,220.400006726074,0|6,3:2|3:2,0:0:0:0:
173,36,69460,1,0,0:0:0:0:
286,117,69623,6,0,B|339:96|344:38|344:38|384:88|452:77,1,220.400006726074,6|0,3:1|3:2,0:0:0:0:
399,262,70112,2,0,P|384:190|378:151,1,110.200003363037,10|0,0:0|3:2,0:0:0:0:
512,368,70438,2,0,P|482:224|470:146,1,220.400006726074,10|10,0:0|0:0,0:0:0:0:
399,262,70927,1,0,3:2:0:0:
390,282,71009,1,0,3:2:0:0:
382,302,71090,6,0,P|326:316|268:299,1,110.200003363037,2|0,3:2|3:2,0:0:0:0:
197,164,71416,1,10,0:0:0:0:
93,313,71579,2,0,P|132:233|71:121,1,220.400006726074,6|10,3:2|0:0,0:0:0:0:
36,132,71987,1,8,0:3:0:0:
36,132,72069,1,0,3:2:0:0:
183,51,72232,6,0,B|286:8|286:8|370:79,1,220.400006726074,6|0,3:1|3:2,0:0:0:0:
256,224,72721,1,10,0:1:0:0:
256,224,73210,6,0,P|269:180|271:164,1,55.1000016815186,4|4,0:3|0:3,0:0:0:0:
164,265,73373,6,0,P|197:317|217:360,1,94.0499997129822,2|0,0:3|0:0,0:0:0:0:
217,368,73699,6,0,P|277:336|390:386,1,182.400004453125,6|10,3:1|0:0,0:0:0:0:
512,214,74188,2,0,P|452:246|339:196,1,182.400004453125,2|2,3:2|3:2,0:0:0:0:
274,81,74677,1,10,0:0:0:0:
274,81,74840,6,0,B|257:125|278:162|278:162|269:181|269:181|285:211|271:261,1,182.400004453125,2|2,3:2|3:2,0:0:0:0:
56,151,75329,2,0,P|112:125|154:146,1,91.2000022265626,10|0,0:0|3:2,0:0:0:0:
139,269,75655,5,10,0:3:0:0:
146,300,75737,1,8,0:0:0:0:
151,331,75819,1,0,3:2:0:0:
26,265,75982,1,10,0:0:0:0:
202,163,76145,1,0,0:0:0:0:
9,81,76308,6,0,P|77:42|193:75,1,182.400004453125,2|10,3:2|0:0,0:0:0:0:
324,0,76797,2,0,P|283:29|275:92,1,91.2000022265626,2|0,3:2|0:0,0:0:0:0:
452,71,77123,2,0,P|402:62|352:101,1,91.2000022265626,2|8,3:2|0:0,0:0:0:0:
490,201,77449,6,0,B|470:152|423:150|423:150|415:207|348:211,1,182.400004453125,6|2,3:1|3:2,0:0:0:0:
246,118,77938,2,0,L|261:236,1,91.2000022265626,10|0,0:0|3:2,0:0:0:0:
216,327,78264,5,10,0:3:0:0:
216,327,78346,1,8,0:3:0:0:
216,327,78427,1,0,3:2:0:0:
4,296,78590,1,10,0:0:0:0:
39,322,78671,1,8,0:0:0:0:
83,318,78753,1,8,0:0:0:0:
113,284,78834,1,8,0:0:0:0:
113,239,78916,6,0,B|109:155|109:155|115:140|115:140|110:49,1,182.400004453125,6|8,3:2|0:0,0:0:0:0:
287,94,79405,2,0,P|231:112|194:91,1,91.2000022265626,2|0,3:2|0:0,0:0:0:0:
244,17,79732,1,0,3:2:0:0:
329,169,79895,1,10,0:0:0:0:
412,32,80058,6,0,B|412:107|412:107|419:124|419:124|419:226,1,182.400004453125,0|0,3:2|3:2,0:0:0:0:
512,133,80547,1,10,0:0:0:0:
408,228,80710,2,0,L|409:353,1,91.2000022265626,0|10,3:2|0:3,0:0:0:0:
512,240,81036,1,0,3:2:0:0:
409,320,81199,2,0,P|357:334|306:299,1,91.2000022265626,10|0,0:0|0:0,0:0:0:0:
218,218,81525,6,0,P|254:283|182:382,1,182.400004453125,6|2,3:1|3:2,0:0:0:0:
90,260,82014,2,0,B|143:248|169:295,1,91.2000022265626,2|10,3:2|0:3,0:0:0:0:
37,337,82340,1,8,0:0:0:0:
8,302,82421,1,8,0:0:0:0:
0,257,82503,1,8,0:0:0:0:
15,215,82584,1,8,0:0:0:0:
49,186,82666,6,0,P|80:130|37:184,1,182.400004453125,6|2,3:2|3:2,0:0:0:0:
90,260,83155,1,10,0:0:0:0:
175,105,83319,1,2,3:2:0:0:
299,252,83482,6,0,L|238:254,1,38,10|0,3:2|0:0,0:0:0:0:
321,278,83726,6,0,L|260:280,1,38,10|0,3:2|0:0,0:0:0:0:
337,302,83971,6,0,L|276:304,1,38,10|0,3:2|0:0,0:0:0:0:
449,119,84786,6,0,B|386:77|312:126|312:126|313:121|313:121|237:167|174:110,1,288.799996474609,6|8,3:2|0:0,0:0:0:0:
47,42,85764,2,0,B|13:22|13:22|155:24|155:24|120:47,2,216.599997355957,2|2|2,0:0|3:2|3:2,0:0:0:0:
24,220,87394,6,0,P|134:212|29:157,1,288.799996474609,2|8,3:2|0:0,0:0:0:0:
13,307,88372,2,0,P|106:321|201:231,2,216.599997355957,2|2|4,0:0|0:0|3:0,0:0:0:0:
288,118,90003,6,0,B|331:107|349:32|349:32|348:111|412:143,2,216.599997355957,6|2|2,3:2|0:0|0:0,0:0:0:0:
277,221,91470,2,0,P|290:273|314:192,1,216.599997355957,2|4,0:0|0:3,0:0:0:0:
458,349,92612,6,0,B|429:304|456:256|456:256|446:237|446:237|477:179|430:121,1,216.599997355957,2|4,3:2|0:3,0:0:0:0:
304,177,93264,2,0,P|356:195|395:178,1,72.1999991186524,2|4,0:3|0:3,0:0:0:0:
344,59,93590,2,0,L|307:61,1,36.0999995593262,4|0,3:3|3:2,0:0:0:0:
361,72,93753,6,0,B|277:77|277:77|260:69|260:69|168:75,1,182.400004453125,12|0,0:0|0:0,0:0:0:0:
100,192,94242,2,0,P|108:140|94:93,1,91.2000022265626,6|0,0:3|0:0,0:0:0:0:
191,263,94568,2,0,P|183:211|197:164,1,91.2000022265626,6|0,0:3|0:0,0:0:0:0:
116,319,94894,2,0,P|59:304|104:333,1,136.800003339844,2|0,0:3|0:0,0:0:0:0:
103,347,95220,6,0,B|182:351|182:351|204:358|204:358|312:364,1,201.400000307312,4|8,3:2|0:0,0:0:0:0:
398,242,95709,2,0,L|273:235,1,100.700000153656,2|2,3:2|0:0,0:0:0:0:
417,373,96036,1,0,3:2:0:0:
504,252,96199,1,10,0:0:0:0:
504,252,96362,6,0,B|477:204|502:158|502:158|493:138|493:138|516:92|488:30,1,201.400000307312,2|2,3:2|3:2,0:0:0:0:
368,156,96851,1,8,0:0:0:0:
291,103,97014,1,2,3:2:0:0:
188,213,97177,1,0,3:0:0:0:
188,213,97258,1,8,0:0:0:0:
188,213,97340,2,0,L|61:217,1,100.700000153656,2|8,3:2|0:0,0:0:0:0:
167,115,97666,1,2,0:0:0:0:
317,275,97829,6,0,B|225:278|225:278|215:285|215:285|117:288,1,201.400000307312,0|10,3:2|0:0,0:0:0:0:
31,139,98318,2,0,P|12:194|35:243,1,100.700000153656,2|0,3:2|0:0,0:0:0:0:
142,135,98644,1,0,3:2:0:0:
24,43,98807,1,10,0:0:0:0:
24,43,98970,6,0,L|139:33,1,100.700000153656,2|0,3:2|0:0,0:0:0:0:
242,143,99296,2,0,L|127:133,1,100.700000153656,2|8,3:2|0:0,0:0:0:0:
270,27,99622,2,0,B|355:18|355:18|374:7|374:7|467:0,1,201.400000307312,2|2,3:2|3:2,0:0:0:0:
369,98,100112,1,8,0:0:0:0:
351,123,100193,1,0,0:0:0:0:
346,153,100275,1,10,0:3:0:0:
355,183,100356,1,8,0:3:0:0:
381,208,100438,6,0,P|441:194|484:227,1,100.700000153656,6|0,3:2|3:2,0:0:0:0:
415,345,100764,1,8,0:0:0:0:
306,247,100927,1,0,3:2:0:0:
197,375,101090,2,0,L|338:360,1,100.700000153656,2|0,0:0|3:2,0:0:0:0:
122,269,101416,1,10,0:0:0:0:
25,371,101579,6,0,B|55:319|28:280|28:280|32:270|32:270|4:218|47:163,1,201.400000307312,2|2,3:2|3:2,0:0:0:0:
122,269,102068,1,8,0:0:0:0:
211,150,102231,2,0,L|317:157,1,100.700000153656,2|8,3:2|3:0,0:0:0:0:
335,175,102476,1,8,0:0:0:0:
358,194,102557,2,0,L|464:201,1,100.700000153656,2|8,3:2|0:0,0:0:0:0:
393,86,102883,1,2,0:0:0:0:
281,260,103046,6,0,L|107:246,2,151.050000230484,2|2|2,3:2|0:0|3:2,0:0:0:0:
356,366,103699,1,0,0:0:0:0:
469,222,103862,2,0,P|491:274|460:330,1,100.700000153656,2|8,3:2|0:0,0:0:0:0:
281,260,104188,6,0,B|252:215|278:166|278:166|273:156|273:156|302:105|266:53,1,201.400000307312,6|0,3:2|3:2,0:0:0:0:
96,159,104677,2,0,P|139:185|201:163,1,100.700000153656,12|0,0:1|3:2,0:0:0:0:
365,85,105003,2,0,P|322:59|260:81,1,100.700000153656,12|0,0:1|3:2,0:0:0:0:
449,195,105329,1,8,0:0:0:0:
281,260,105492,1,8,0:0:0:0:
281,260,105574,1,8,0:0:0:0:
281,260,105655,6,0,L|286:356,1,91.2000022265626,4|0,3:2|3:2,0:0:0:0:
372,256,105981,1,10,0:0:0:0:
205,158,106144,2,0,B|208:239|208:239|204:255|204:255|208:344,1,182.400004453125,2|0,3:2|3:2,0:0:0:0:
115,211,106633,1,10,0:0:0:0:
33,338,106796,6,0,B|29:253|29:253|33:237|33:237|30:156,1,182.400004453125,2|0,3:2|3:2,0:0:0:0:
117,48,107286,1,10,0:0:0:0:
205,158,107449,2,0,P|266:199|370:130,1,182.400004453125,2|0,3:2|3:2,0:0:0:0:
281,79,107938,1,10,0:0:0:0:
441,8,108101,6,0,B|466:45|445:91|445:91|451:102|451:102|428:141|457:197,1,182.400004453125,2|0,0:0|3:2,0:0:0:0:
374,333,108590,1,10,0:0:0:0:
374,333,108753,2,0,L|476:350,1,91.2000022265626,2|4,3:2|3:0,0:0:0:0:
335,222,109079,1,8,0:0:0:0:
232,368,109242,1,2,3:2:0:0:
111,241,109405,6,0,B|86:212|87:152|87:152|78:212|43:250,1,182.400004453125,6|0,3:2|3:2,0:0:0:0:
131,366,109894,2,0,P|78:356|26:374,1,91.2000022265626,10|0,0:0|3:2,0:0:0:0:
276,276,110220,2,0,P|231:285|187:274,1,91.2000022265626,2|8,3:2|3:2,0:0:0:0:
341,362,110546,1,10,0:0:0:0:
368,360,110628,1,8,0:0:0:0:
395,358,110709,1,8,0:0:0:0:
422,357,110791,1,8,0:0:0:0:
449,356,110872,6,0,B|513:293|537:217|527:149|416:113|355:187|388:260,1,364.80000890625,6|0,3:2|0:0,0:0:0:0:
472,53,111851,5,6,0:3:0:0:
401,94,112014,5,4,3:2:0:0:
252,36,112340,1,4,3:2:0:0:
98,172,112992,5,8,0:3:0:0:
98,172,113074,1,8,0:3:0:0:
98,172,113155,2,0,L|191:183,1,79.8000009741211,2|0,3:2|0:0,0:0:0:0:
217,185,113481,5,14,0:0:0:0:
87,75,113644,1,2,3:2:0:0:
31,250,113807,1,0,3:2:0:0:
97,45,113970,6,0,L|216:29,1,91.2000022265626,10|0,0:0|0:0,0:0:0:0:
307,197,114296,2,0,L|188:181,1,91.2000022265626,10|0,0:0|3:2,0:0:0:0:
387,24,114622,6,0,P|407:88|349:16,1,273.600006679688,6|10,3:2|0:0,0:0:0:0:
428,218,115275,5,0,3:2:0:0:
499,36,115438,1,2,0:0:0:0:
416,251,115601,5,8,0:3:0:0:
388,269,115682,1,8,0:3:0:0:
356,273,115764,1,10,0:0:0:0:
325,263,115845,1,8,0:0:0:0:
301,241,115927,1,8,0:0:0:0:
290,210,116008,1,8,0:0:0:0:
293,177,116090,6,0,B|294:128|336:114|336:114|190:132,1,220.400006726074,6|8,3:1|0:0,0:0:0:0:
351,33,116579,2,0,L|112:61,1,220.400006726074,0|0,3:2|3:2,0:0:0:0:
98,241,117068,1,10,0:0:0:0:
48,59,117231,6,0,B|14:49|6:12|6:12|17:188,1,220.400006726074,2|0,3:2|3:2,0:0:0:0:
199,244,117720,2,0,P|137:225|85:252,1,110.200003363037,10|0,0:0|3:2,0:0:0:0:
310,232,118046,2,0,P|290:170|238:143,1,110.200003363037,10|0,0:3|3:2,0:0:0:0:
377,310,118372,2,0,P|416:258|408:200,1,110.200003363037,10|0,0:0|0:0,0:0:0:0:
284,360,118699,6,0,B|185:363|185:363|154:379|154:379|37:383,1,220.400006726074,2|8,3:2|0:0,0:0:0:0:
126,259,119188,1,0,3:2:0:0:
90,116,119351,2,0,B|71:52|-1:76|-14:115|-5:175|55:223,1,220.400006726074,2|8,0:0|0:0,0:0:0:0:
126,259,119840,1,0,0:0:0:0:
200,107,120003,6,0,B|227:93|234:58|234:58|251:93|237:140|223:130|198:181|249:240,1,220.400006726074,2|8,3:2|0:0,0:0:0:0:
296,341,120492,1,2,3:2:0:0:
387,242,120655,1,2,3:2:0:0:
387,242,120737,1,8,0:0:0:0:
387,242,120818,1,0,3:2:0:0:
483,359,120981,2,0,B|487:307|487:307|492:296|492:296|496:236,1,110.200003363037,8|10,0:0|0:0,0:0:0:0:
507,153,121226,1,8,0:0:0:0:
507,153,121307,6,0,P|450:175|401:57,1,220.400006726074,6|10,3:2|0:0,0:0:0:0:
313,170,121796,2,0,P|270:189|214:160,1,110.200003363037,2|0,3:2|0:0,0:0:0:0:
148,0,122122,2,0,P|173:46|154:96,1,110.200003363037,2|8,3:2|0:0,0:0:0:0:
38,207,122449,6,0,P|15:292|86:229,1,220.400006726074,2|0,3:2|3:2,0:0:0:0:
240,370,122938,1,10,0:0:0:0:
137,357,123101,1,0,3:2:0:0:
306,291,123264,1,10,0:3:0:0:
306,291,123345,1,8,0:0:0:0:
306,291,123427,1,0,3:2:0:0:
187,172,123590,2,0,P|166:231|183:284,1,110.200003363037,10|0,0:0|0:0,0:0:0:0:
362,219,123916,6,0,B|410:143|344:69|344:69|349:115|299:151,1,220.400006726074,6|8,3:2|0:0,0:0:0:0:
156,65,124405,1,2,3:2:0:0:
156,65,124568,2,0,L|276:78,1,110.200003363037,6|4,0:3|0:3,0:0:0:0:
187,172,124894,1,2,3:2:0:0:
41,58,125057,5,8,0:0:0:0:
41,58,125383,5,8,0:0:0:0:
41,58,125709,5,4,3:1:0:0:
91,223,125872,2,0,P|110:165|93:114,1,110.200003363037,0|0,0:0|3:2,0:0:0:0:
16,278,126199,2,0,P|-3:220|14:169,1,110.200003363037,2|8,3:2|0:3,0:0:0:0:
91,223,126443,1,8,0:3:0:0:
91,223,126525,6,0,B|183:233|183:233|206:226|206:226|321:238,1,220.400006726074,6|10,3:2|0:0,0:0:0:0:
453,178,127014,2,0,B|484:172|503:133|503:133|472:282,1,220.400006726074,2|0,3:2|3:2,0:0:0:0:
309,236,127503,1,10,0:0:0:0:
453,178,127666,1,0,3:2:0:0:
338,92,127829,6,0,B|264:53|220:114|233:119|193:161|102:103,1,220.400006726074,2|10,0:0|0:0,0:0:0:0:
26,17,128318,2,0,P|61:75|18:177,1,165.300005044556,2|8,3:2|0:0,0:0:0:0:
12,188,128644,1,0,3:2:0:0:
81,331,128807,2,0,P|102:276|82:221,1,110.200003363037,10|0,0:0|0:0,0:0:0:0:
156,363,129133,6,0,B|245:351|245:351|278:358|278:358|375:348,1,220.400006726074,6|8,3:1|0:0,0:0:0:0:
252,214,129622,6,0,P|352:244|374:347,1,220.400006726074,6|8,3:2|0:3,0:0:0:0:
479,199,130112,6,0,B|465:118|465:118|419:226|419:226|420:241|420:241|371:354,1,330.600010089112,14|0,0:1|3:2,0:0:0:0:
252,215,130764,6,0,P|352:245|374:348,2,220.400006726074,10|10|10,0:2|0:2|0:2,0:0:0:0:
174,311,131579,1,8,0:0:0:0:
174,311,131661,1,8,0:0:0:0:
174,311,131742,6,0,P|112:337|56:303,1,110.200003363037,4|0,3:2|0:0,0:0:0:0:
13,152,132068,2,0,L|9:279,1,110.200003363037,6|2,0:3|3:2,0:0:0:0:
101,139,132394,6,0,B|154:128|177:107|177:107|199:130|288:145,1,165.300005044556,12|0,0:0|0:0,0:0:0:0:
284,143,132720,1,2,0:0:0:0:
174,218,132883,1,6,3:1:0:0:
269,57,133046,6,0,B|342:61|342:61|368:74|368:74|457:79,1,165.300005044556
464,79,133372,1,10,0:0:0:0:
364,174,133536,1,0,3:2:0:0:
467,288,133699,6,0,B|440:232|470:183|470:183|465:170|465:170|499:124|442:43,1,220.400006726074,10|10,0:0|0:0,0:0:0:0:
344,199,134188,1,0,3:2:0:0:
344,199,134269,1,0,3:2:0:0:
344,199,134351,6,0,P|291:225|223:200,1,110.200003363037,2|4,3:2|0:3,0:0:0:0:
169,123,134677,1,10,0:0:0:0:
89,289,134840,2,0,B|83:193|83:193|72:175|72:175|66:43,1,220.400006726074,2|10,3:2|0:3,0:0:0:0:
41,51,135247,1,8,0:0:0:0:
41,51,135329,1,0,3:2:0:0:
179,0,135492,6,0,P|261:8|285:155,1,220.400006726074,6|0,3:2|3:2,0:0:0:0:
166,216,135981,2,0,P|229:195|286:235,1,110.200003363037,10|0,0:0|3:2,0:0:0:0:
312,331,136307,5,8,0:3:0:0:
225,316,136470,1,8,0:3:0:0:
398,286,136633,5,2,3:2:0:0:
339,222,136796,1,0,0:0:0:0:
492,261,136959,6,0,B|466:212|491:170|491:170|488:157|488:157|538:103|539:2|403:-57|311:38|336:122|376:157,1,486.4,4|0,0:1|3:0,0:0:0:0:
69,136,142177,6,0,P|77:88|78:49,1,81.7000012466431,4|0,3:2|0:0,0:0:0:0:
155,141,142503,2,0,P|163:93|164:54,1,81.7000012466431,0|0,3:2|0:0,0:0:0:0:
241,150,142829,2,0,P|249:102|250:63,1,81.7000012466431,8|8,0:0|0:0,0:0:0:0:
327,155,143155,2,0,P|335:107|336:68,1,81.7000012466431,8|8,0:0|0:0,0:0:0:0:
461,287,143481,6,0,P|443:243|441:199,1,81.7000012466431,8|8,0:0|0:0,0:0:0:0:
358,317,143807,2,0,P|340:273|338:229,1,81.7000012466431,8|8,0:0|0:0,0:0:0:0:
259,351,144133,2,0,P|241:307|239:263,1,81.7000012466431,8|8,0:0|0:0,0:0:0:0:
156,381,144459,2,0,P|138:337|136:293,1,81.7000012466431,8|8,0:0|0:0,0:0:0:0:
150,263,144704,1,8,0:0:0:0:
150,263,144785,6,0,P|177:214|44:162,1,245.100003739929,4|0,3:1|3:2,0:0:0:0:
25,190,145356,1,0,3:2:0:0:
25,190,145438,2,0,P|14:237|13:244,3,40.8500006233215,0|8|8|8,3:2|0:3|0:0|0:0,0:0:0:0:
121,158,145764,2,0,P|117:138|112:119,1,40.8500006233215,8|8,0:0|0:0,0:0:0:0:
249,218,145927,6,0,P|312:201|420:165,1,163.400002493286,12|8,0:1|0:3,0:0:0:0:
444,138,146334,1,8,0:0:0:0:
444,138,146416,1,2,3:2:0:0:
341,54,146579,2,0,P|317:47|290:42,2,40.8500006233215,8|8|2,0:3|0:3|3:2,0:0:0:0:
444,138,146905,1,8,0:0:0:0:
369,222,147068,6,0,B|361:252|361:252|374:284,1,53.2000006494141,2|8,3:2|0:0,0:0:0:0:
232,372,147394,6,0,B|182:350|145:353|145:353|132:329|116:310|116:310|75:309|36:288,1,220.400006726074,6|8,3:1|0:0,0:0:0:0:
190,224,147883,2,0,B|203:188|202:162|202:162|184:145|173:117,2,110.200003363037,2|0|0,3:2|0:0|3:2,0:0:0:0:
58,98,148372,1,10,0:0:0:0:
190,20,148535,6,0,B|288:36|330:61|330:61|299:69|255:93,1,220.400006726074,0|0,3:2|3:2,0:0:0:0:
426,174,149025,2,0,P|440:108|444:56,1,110.200003363037,10|0,0:0|3:2,0:0:0:0:
296,277,149351,2,0,P|324:145|332:41,1,220.400006726074,2|10,3:2|0:0,0:0:0:0:
331,60,149840,1,0,0:0:0:0:
426,174,150003,5,2,3:2:0:0:
251,107,150166,2,0,P|196:93|133:88,1,110.200003363037,0|8,3:2|0:0,0:0:0:0:
325,203,150492,2,0,P|215:213|108:240,1,220.400006726074,2|2,3:2|3:2,0:0:0:0:
233,336,150981,1,10,0:0:0:0:
233,336,151063,1,0,0:0:0:0:
233,336,151144,1,0,0:0:0:0:
108,240,151307,6,0,P|90:177|103:130,1,110.200003363037,2|2,0:0|3:2,0:0:0:0:
253,44,151633,2,0,P|271:107|258:154,1,110.200003363037,10|0,0:0|3:2,0:0:0:0:
70,55,151959,1,2,3:2:0:0:
260,148,152122,1,2,3:2:0:0:
32,207,152285,1,10,0:0:0:0:
169,62,152449,1,10,0:0:0:0:
169,62,152530,1,8,0:0:0:0:
169,62,152612,6,0,L|147:282,1,220.400006726074,6|8,3:1|0:0,0:0:0:0:
21,118,153101,2,0,L|-1:338,1,220.400006726074,6|10,3:1|3:2,0:0:0:0:
33,371,153508,1,10,3:2:0:0:
33,371,153590,2,0,P|85:351|102:348,1,55.1000016815186,10|10,0:0|0:0,0:0:0:0:
258,371,153753,5,6,3:2:0:0:
145,258,153916,2,0,P|125:200|117:140,2,110.200003363037,0|2|10,0:0|3:2|0:0,0:0:0:0:
258,371,154405,1,8,0:3:0:0:
277,361,154487,1,8,0:3:0:0:
296,351,154568,1,2,3:2:0:0:
222,179,154731,1,6,3:2:0:0:
49,251,154894,1,6,3:1:0:0:
222,179,155057,1,10,0:0:0:0:
243,185,155139,1,10,0:0:0:0:
263,191,155220,6,0,B|392:157|321:122|463:77,1,220.400006726074,6|10,3:2|0:0,0:0:0:0:
274,97,155709,2,0,P|177:58|148:40,1,110.200003363037,2|4,3:2|3:3,0:0:0:0:
453,85,156035,1,2,0:3:0:0:
453,85,156362,6,0,P|386:125|400:261,1,220.400006726074,14|12,0:0|0:0,0:0:0:0:
463,301,156851,1,2,3:2:0:0:
280,366,157014,6,0,B|237:331|240:304|240:304|272:268|266:236|266:236|237:208|237:172,1,220.400006726074,14|0,0:1|3:2,0:0:0:0:
261,136,157421,1,0,3:2:0:0:
261,136,157503,1,8,0:3:0:0:
126,215,157666,1,8,0:0:0:0:
133,235,157747,1,8,0:0:0:0:
141,255,157829,6,0,L|170:28,1,220.400006726074,6|8,3:2|0:0,0:0:0:0:
51,154,158318,1,2,3:2:0:0:
261,136,158481,2,0,P|269:75|263:20,1,110.200003363037,2|2,0:0|3:2,0:0:0:0:
54,44,158807,2,0,P|46:99|51:154,1,110.200003363037,10|0,0:0|3:2,0:0:0:0:
258,233,159133,6,0,B|323:228|349:174|349:174|378:223|451:220,1,220.400006726074,2|10,0:0|0:0,0:0:0:0:
270,341,159622,2,0,B|332:339|361:388|361:388|387:334|452:329,1,220.400006726074,2|0,3:2|3:2,0:0:0:0:
258,233,160112,1,10,0:0:0:0:
421,143,160275,1,2,0:0:0:0:
421,143,160356,1,0,0:0:0:0:
421,143,160438,6,0,B|356:119|342:71|342:71|284:72|250:128,1,220.400006726074,6|8,3:1|0:0,0:0:0:0:
41,52,160927,6,0,B|50:110|82:134|82:134|23:179|27:253,1,220.400006726074,6|10,3:1|0:0,0:0:0:0:
80,308,161334,1,10,0:0:0:0:
80,308,161416,6,0,B|125:302|160:256|160:256|180:317|236:368,1,220.400006726074,6|0,3:2|0:0,0:0:0:0:
321,289,161905,2,0,P|347:282|387:280,2,55.1000016815186,2|10|10,3:2|0:3|0:0,0:0:0:0:
225,358,162231,1,0,3:2:0:0:
275,198,162394,5,10,0:0:0:0:
357,371,162557,1,0,3:2:0:0:
423,167,162720,2,0,L|402:56,1,110.200003363037,10|10,0:0|0:0,0:0:0:0:
428,20,162965,1,10,0:0:0:0:
428,20,163046,6,0,P|364:34|308:36,1,110.200003363037,6|2,3:2|0:0,0:0:0:0:
231,113,163372,2,0,P|176:116|122:129,1,110.200003363037,6|2,0:3|3:2,0:0:0:0:
430,192,163699,2,0,P|366:206|310:208,1,110.200003363037,10|2,0:0|3:2,0:0:0:0:
233,285,164025,1,6,0:3:0:0:
113,35,164188,6,0,P|35:84|62:214,1,220.400006726074,4|2,3:2|3:2,0:0:0:0:
244,105,164677,1,10,0:0:0:0:
159,228,164840,1,0,3:2:0:0:
156,255,164921,1,0,3:2:0:0:
153,282,165003,2,0,P|138:192|138:167,1,110.200003363037,10|0,0:0|3:2,0:0:0:0:
253,327,165329,1,10,0:0:0:0:
79,360,165492,1,0,3:2:0:0:
79,360,165574,1,0,3:2:0:0:
79,360,165655,5,6,3:1:0:0:
159,228,165818,2,0,P|190:223|224:230,2,55.1000016815186,8|8|2,0:3|0:3|3:2,0:0:0:0:
253,327,166144,2,0,P|315:337|383:323,1,110.200003363037,6|0,3:2|3:2,0:0:0:0:
367,151,166470,2,0,P|313:141|258:147,1,110.200003363037,10|8,0:3|0:0,0:0:0:0:
439,27,166796,6,0,B|510:65|510:65|471:204,1,220.400006726074,6|2,3:2|3:2,0:0:0:0:
361,330,167285,1,10,3:2:0:0:
305,333,167366,1,8,0:0:0:0:
258,307,167448,1,10,3:2:0:0:
232,260,167529,1,8,0:0:0:0:
236,206,167612,6,0,P|250:166|241:115,1,87.3999970660401,6|2,3:1|0:3,0:0:0:0:
84,291,168264,5,14,0:0:0:0:
32,118,168427,1,8,0:0:0:0:
93,319,168590,1,8,0:0:0:0:
354,236,169405,6,0,L|216:255,1,136.800003339844,10|0,0:0|0:0,0:0:0:0:
187,261,169731,1,0,3:2:0:0:
250,68,169894,1,10,0:0:0:0:
453,226,170872,5,14,0:0:0:0:
510,49,171035,1,8,0:0:0:0:
444,254,171198,1,8,0:0:0:0:
216,169,172014,6,0,L|354:188,1,136.800003339844,8|0,0:0|0:0,0:0:0:0:
383,194,172340,1,0,3:2:0:0:
326,0,172503,1,8,0:0:0:0:
246,195,173155,5,8,0:3:0:0:
214,200,173237,1,8,0:3:0:0:
182,205,173318,1,0,3:2:0:0:
150,211,173400,1,0,0:0:0:0:
119,217,173481,6,0,P|88:263|161:237,1,163.400002493286,6|6,3:1|0:3,0:0:0:0:
127,121,173970,2,0,P|78:135|36:106,1,81.7000012466431,2|8,3:2|0:0,0:0:0:0:
96,42,174296,2,0,P|133:27|171:39,1,81.7000012466431,2|4,3:2|0:3,0:0:0:0:
243,104,174622,6,0,B|316:103|316:103|332:110|332:110|442:111,1,163.400002493286,6|0,3:1|0:0,0:0:0:0:
474,35,175112,1,2,3:2:0:0:
424,205,175275,1,8,0:0:0:0:
424,205,175438,2,0,P|466:219|515:200,1,81.7000012466431,2|0,3:2|3:2,0:0:0:0:
316,282,175764,2,0,P|355:273|393:286,1,81.7000012466431,10|0,0:0|0:0,0:0:0:0:
270,356,176090,6,0,B|200:353|200:353|180:362|180:362|95:358,1,163.400002493286,6|8,3:2|0:0,0:0:0:0:
12,264,176579,1,2,3:2:0:0:
152,193,176742,2,0,P|165:236|146:279,1,81.7000012466431,6|4,0:3|0:3,0:0:0:0:
27,171,177068,1,0,3:2:0:0:
194,98,177231,5,12,0:0:0:0:
194,98,177557,5,10,0:0:0:0:
194,98,177883,5,12,0:1:0:0:
345,42,178046,2,0,L|242:34,1,81.7000012466431
296,159,178372,2,0,L|399:151,1,81.7000012466431,10|0,0:0|3:2,0:0:0:0:
401,136,178617,1,0,3:2:0:0:
421,120,178699,6,0,L|521:113,1,72.1999991186524,6|0,3:2|0:0,0:0:0:0:
345,42,179025,1,4,0:3:0:0:
296,159,179188,2,0,B|277:196|290:231|290:231|288:241|288:241|305:278|283:320,1,144.399998237305,2|0,3:2|3:2,0:0:0:0:
135,250,179677,2,0,P|164:235|224:263,1,72.1999991186524,6|0,0:3|3:2,0:0:0:0:
87,317,180003,6,0,P|53:273|83:188,1,144.399998237305,6|4,3:2|0:3,0:0:0:0:
184,97,180492,2,0,P|119:122|60:86,1,144.399998237305,2|0,3:2|3:2,0:0:0:0:
132,13,180981,1,4,0:3:0:0:
237,180,181144,1,0,3:2:0:0:
349,43,181307,6,0,B|380:33|392:-3|392:-3|387:93|387:93|376:109|376:109|369:225,1,273.600006679688,6|2,3:1|3:2,0:0:0:0:
494,272,181959,1,8,0:0:0:0:
407,300,182122,1,0,3:2:0:0:
320,328,182285,6,0,B|250:350|197:316|197:316|181:321|181:321|109:279|47:315,1,273.600006679688,6|0,0:3|3:2,0:0:0:0:
196,143,182938,6,0,L|188:240,1,91.2000022265626,10|0,0:0|3:2,0:0:0:0:
35,83,183264,2,0,L|42:173,1,91.2000022265626,10|0,0:0|3:2,0:0:0:0:
196,143,183590,1,10,0:0:0:0:
35,83,183753,1,8,0:0:0:0:
242,66,183916,6,0,P|168:54|131:84,1,110.200003363037,8|8,0:0|0:0,0:0:0:0:
196,143,184242,2,0,P|247:159|296:137,1,110.200003363037,8|8,0:0|0:0,0:0:0:0:
423,23,184568,6,0,P|349:11|312:41,1,110.200003363037,8|8,0:0|0:0,0:0:0:0:
389,133,184894,2,0,P|440:149|489:127,1,110.200003363037,8|8,0:0|0:0,0:0:0:0:
388,230,185220,5,10,0:0:0:0:
364,119,185383,1,10,0:0:0:0:
249,284,185546,5,10,0:0:0:0:
278,148,185709,1,10,0:0:0:0:
171,320,185872,5,10,0:0:0:0:
142,187,186035,1,10,0:0:0:0:
4,384,186198,5,10,0:0:0:0:
39,221,186361,1,8,0:0:0:0:
48,166,186443,1,8,0:0:0:0:
62,112,186525,5,6,3:1:0:0:
226,184,186688,2,0,P|181:200|122:162,1,91.2000022265626,2|8,3:2|0:0,0:0:0:0:
199,26,187014,6,0,B|280:35|280:35|295:44|295:44|417:58,1,182.400004453125,6|10,3:2|0:0,0:0:0:0:
413,46,187421,1,8,0:0:0:0:
413,46,187503,1,4,3:0:0:0:
491,168,187666,6,0,P|407:145|332:227,1,182.400004453125,6|0,3:1|3:2,0:0:0:0:
330,239,188074,1,8,0:3:0:0:
330,239,188155,1,0,3:2:0:0:
452,347,188807,6,0,P|473:330|459:364,1,94.0499997129822,2|0,0:1|0:0,0:0:0:0:
440,364,189133,6,0,B|352:356|352:356|323:364|323:364|201:352,1,220.400006726074,6|8,3:1|0:0,0:0:0:0:
430,287,189622,2,0,B|342:279|342:279|313:287|313:287|191:275,1,220.400006726074,0|0,3:2|3:2,0:0:0:0:
85,361,190112,1,10,0:0:0:0:
29,217,190275,6,0,B|-6:166|15:118|15:118|11:110|11:110|37:49|6:-8,1,220.400006726074,2|0,3:2|3:2,0:0:0:0:
92,155,190764,2,0,P|161:161|193:120,1,110.200003363037,10|0,0:0|3:2,0:0:0:0:
309,5,191090,2,0,P|269:61|288:109,1,110.200003363037,10|0,0:3|3:2,0:0:0:0:
331,264,191416,2,0,P|301:201|250:194,1,110.200003363037,10|0,0:0|0:0,0:0:0:0:
165,338,191742,6,0,B|263:340|263:340|289:352|289:352|397:355,1,220.400006726074,2|8,3:2|0:0,0:0:0:0:
508,225,192231,1,0,3:2:0:0:
359,143,192394,2,0,B|382:208|382:208|362:291|362:291|385:364,1,220.400006726074,2|8,0:0|0:0,0:0:0:0:
508,225,192883,1,0,0:0:0:0:
359,143,193046,6,0,B|294:107|241:155|263:166|199:209|113:136,1,220.400006726074,2|8,3:2|0:0,0:0:0:0:
84,71,193535,1,2,3:2:0:0:
28,219,193699,1,2,3:2:0:0:
28,219,193780,1,8,0:0:0:0:
28,219,193862,1,0,3:2:0:0:
98,40,194025,1,8,0:0:0:0:
152,161,194188,1,10,0:0:0:0:
152,161,194269,1,8,0:0:0:0:
152,161,194351,6,0,B|247:165|247:165|270:176|270:176|405:184,1,220.400006726074,6|10,3:2|0:0,0:0:0:0:
505,102,194840,2,0,P|491:40|513:-5,1,110.200003363037,2|0,3:2|0:0,0:0:0:0:
434,233,195166,2,0,P|448:171|426:126,1,110.200003363037,2|8,3:2|0:0,0:0:0:0:
372,290,195492,6,0,B|328:318|272:294|272:294|262:304|262:304|196:277|147:319,1,220.400006726074,2|0,3:2|3:2,0:0:0:0:
0,228,195981,2,0,L|120:208,1,110.200003363037,10|0,0:0|3:2,0:0:0:0:
85,354,196307,1,10,0:3:0:0:
85,354,196389,1,8,0:0:0:0:
85,354,196470,1,0,3:2:0:0:
117,186,196633,2,0,L|8:204,1,110.200003363037,10|0,0:0|0:0,0:0:0:0:
66,67,196959,6,0,B|167:81|167:81|193:73|193:73|299:92,1,220.400006726074,6|8,3:2|0:0,0:0:0:0:
357,0,197449,1,2,3:2:0:0:
437,159,197612,2,0,L|328:177,1,110.200003363037,6|4,0:3|0:3,0:0:0:0:
397,79,197938,1,2,3:2:0:0:
486,242,198101,5,8,0:0:0:0:
486,242,198427,5,8,0:0:0:0:
486,242,198753,5,4,3:1:0:0:
331,177,198916,1,0,0:0:0:0:
512,143,199079,1,0,3:2:0:0:
346,287,199242,5,10,3:2:0:0:
314,301,199323,1,8,0:0:0:0:
279,301,199405,1,8,0:0:0:0:
248,286,199486,1,8,0:3:0:0:
230,264,199568,6,0,B|210:207|242:155|242:155|239:141|239:141|270:94|244:23,1,220.400006726074,6|10,3:2|0:0,0:0:0:0:
106,142,200057,2,0,P|67:122|148:121,1,220.400006726074,2|0,3:2|3:2,0:0:0:0:
50,240,200546,1,10,0:0:0:0:
153,124,200709,1,0,3:2:0:0:
230,264,200872,6,0,B|206:241|172:246|172:246|356:212,1,220.400006726074,2|10,0:0|0:0,0:0:0:0:
473,364,201362,2,0,L|298:331,1,165.300005044556,2|8,3:2|0:0,0:0:0:0:
283,326,201688,1,0,3:2:0:0:
396,166,201851,2,0,P|417:216|397:270,1,110.200003363037,10|0,0:0|0:0,0:0:0:0:
275,145,202177,6,0,B|298:37|298:37|326:88,1,165.300005044556,6|0,3:1|0:0,0:0:0:0:
338,108,202503,1,8,0:0:0:0:
182,204,202666,6,0,L|219:35,1,165.300005044556,6|0,3:2|0:0,0:0:0:0:
223,15,202992,1,0,3:2:0:0:
75,151,203155,6,0,P|11:128|113:126,1,330.600010089112,14|0,0:1|3:2,0:0:0:0:
85,239,203807,6,0,B|115:288|114:347|114:347|120:288|168:237,2,220.400006726074,10|10|10,0:2|0:2|0:2,0:0:0:0:
225,168,204622,1,8,0:0:0:0:
225,168,204704,1,8,0:0:0:0:
225,168,204785,6,0,B|322:176|322:176|351:194|351:194|470:203,1,220.400006726074,4|2,3:2|0:3,0:0:0:0:
351,91,205275,1,0,3:2:0:0:
245,245,205438,6,0,P|236:299|341:302,1,165.300005044556,10|0,3:2|0:0,0:0:0:0:
346,305,205764,1,0,0:0:0:0:
192,367,205927,1,6,3:1:0:0:
76,237,206090,6,0,B|106:221|112:179|112:179|109:339,1,220.400006726074,0|10,0:0|0:0,0:0:0:0:
17,353,206579,1,0,3:2:0:0:
193,146,206742,6,0,L|191:379,1,220.400006726074,10|10,0:0|0:0,0:0:0:0:
296,210,207231,1,0,3:2:0:0:
346,194,207312,1,0,3:2:0:0:
390,225,207394,6,0,L|388:345,1,110.200003363037,2|0,3:2|3:2,0:0:0:0:
487,216,207720,1,10,0:0:0:0:
385,101,207883,2,0,P|474:120|431:37,1,220.400006726074,6|10,3:2|0:0,0:0:0:0:
298,140,208372,1,0,3:2:0:0:
176,34,208535,6,0,B|182:131|182:131|190:147|190:147|196:275,1,220.400006726074,6|0,3:1|3:2,0:0:0:0:
64,170,209025,1,10,0:1:0:0:
21,290,209188,5,0,3:2:0:0:
21,290,209269,1,0,3:2:0:0:
21,290,209351,2,0,P|77:304|125:278,1,110.200003363037,10|0,0:0|3:2,0:0:0:0:
64,170,209677,5,10,3:2:0:0:
60,142,209758,1,8,0:0:0:0:
56,114,209840,1,8,0:0:0:0:
52,86,209921,1,8,0:0:0:0:
50,62,210003,6,0,B|34:31|1:32|1:32|154:14,1,182.400004453125,6|10,3:1|0:0,0:0:0:0:
242,126,210492,2,0,L|137:115,1,91.2000022265626,2|0,3:2|0:0,0:0:0:0:
256,32,210818,1,2,3:2:0:0:
326,174,210981,1,10,0:0:0:0:
445,51,211144,6,0,B|434:127|434:127|441:157|441:157|425:268,1,182.400004453125,2|2,3:2|3:2,0:0:0:0:
279,282,211633,2,0,P|338:269|374:306,1,91.2000022265626,10|0,0:0|3:2,0:0:0:0:
218,366,211959,1,10,0:3:0:0:
218,366,212041,1,8,0:0:0:0:
218,366,212122,1,0,3:2:0:0:
100,275,212285,1,10,0:0:0:0:
92,382,212449,1,0,0:0:0:0:
195,242,212612,6,0,B|212:194|192:154|192:154|196:150|196:150|172:106|211:42,1,182.400004453125,2|10,3:2|0:0,0:0:0:0:
362,169,213101,6,0,L|250:153,1,91.2000022265626,2|0,3:2|0:0,0:0:0:0:
382,151,213427,2,0,L|270:135,1,91.2000022265626,2|8,3:2|0:0,0:0:0:0:
461,59,213753,6,0,B|466:143|466:143|460:156|460:156|465:256,1,182.400004453125,6|2,3:1|3:2,0:0:0:0:
314,313,214242,1,10,0:0:0:0:
380,247,214405,1,0,3:2:0:0:
494,355,214568,2,0,P|445:372|396:345,1,91.2000022265626,10|0,0:3|3:2,0:0:0:0:
309,197,214894,5,10,0:0:0:0:
265,185,214975,1,8,0:0:0:0:
222,199,215057,1,8,0:0:0:0:
193,233,215138,1,8,0:0:0:0:
189,274,215220,6,0,B|112:294|112:294|92:289|92:289|6:309,1,182.400004453125,6|8,3:2|0:0,0:0:0:0:
76,162,215709,2,0,P|121:137|223:204,1,182.400004453125,2|0,3:2|3:2,0:0:0:0:
248,332,216199,5,10,0:0:0:0:
372,233,216362,2,0,B|407:203|414:152|414:152|409:202|448:248,1,182.400004453125,0|0,3:2|3:2,0:0:0:0:
334,364,216851,2,0,L|424:371,1,91.2000022265626,10|0,0:0|3:2,0:0:0:0:
271,237,217177,5,10,0:3:0:0:
271,237,217258,1,8,0:0:0:0:
271,237,217340,1,0,3:2:0:0:
161,342,217503,2,0,L|70:334,1,91.2000022265626,10|0,0:0|0:0,0:0:0:0:
162,192,217829,5,6,3:2:0:0:
13,223,217992,1,0,3:2:0:0:
196,184,218155,1,8,0:0:0:0:
21,109,218318,6,0,P|27:56|43:122,1,182.400004453125,6|12,3:2|3:1,0:0:0:0:
13,223,218807,1,2,0:0:0:0:
226,176,218970,6,0,B|311:157|311:157|331:161|331:161|434:137,1,182.400004453125,4|10,3:2|0:3,0:0:0:0:
424,115,219378,1,8,0:0:0:0:
424,115,219459,1,10,3:2:0:0:
481,210,219622,5,6,3:2:0:0:
295,65,219949,5,14,3:1:0:0:
261,276,220275,5,0,3:2:0:0:
261,276,220356,1,0,3:2:0:0:
261,276,220438,1,6,3:2:0:0:
256,192,220519,12,0,226307,0:0:0:0:
