osu file format v14

[General]
AudioFilename: audio.mp3
AudioLeadIn: 0
PreviewTime: 53725
Countdown: 0
SampleSet: Soft
StackLeniency: 0.7
Mode: 0
LetterboxInBreaks: 0
WidescreenStoryboard: 1

[Editor]
DistanceSpacing: 1.7
BeatDivisor: 4
GridSize: 16
TimelineZoom: 2.799999

[Metadata]
Title:Chant de Romance
TitleUnicode:Chant de Romance
Artist:Suzuki Konomi
ArtistUnicode:鈴木このみ
Creator:-Brethia
Version:Yuuma's Hard
Source:グリモアA〜私立グリモワール魔法学園〜
Tags:japanese video game applibot grimore a ~private grimoir magic academy~ IOS Android Toyosaki Aki Yuuma BaAR_Vendel kotachi _kotachi_
BeatmapID:2168940
BeatmapSetID:1021990

[Difficulty]
HPDrainRate:5
CircleSize:3.6
OverallDifficulty:6
ApproachRate:8
SliderMultiplier:1.5
SliderTickRate:1

[Events]
//Background and Video events
0,0,"BG.jpg",0,0
//Break Periods
//Storyboard Layer 0 (Background)
//Storyboard Layer 1 (Fail)
//Storyboard Layer 2 (Pass)
//Storyboard Layer 3 (Foreground)
//Storyboard Layer 4 (Overlay)
//Storyboard Sound Samples

[TimingPoints]
1444,348.837209302326,4,2,3,30,1,0
1444,-166.666666666667,4,2,3,30,0,0
1792,-166.666666666667,4,2,1,50,0,0
11560,-133.333333333333,4,2,1,5,0,0
11909,-133.333333333333,4,2,1,50,0,0
12257,-133.333333333333,4,2,3,50,0,0
12606,-133.333333333333,4,2,1,50,0,0
19409,-133.333333333333,4,2,1,30,0,0
19583,-133.333333333333,4,2,1,50,0,0
23071,-133.333333333333,4,2,3,50,0,0
23246,-133.333333333333,4,2,1,50,0,0
23769,-117.647058823529,4,2,1,55,0,0
27345,-117.647058823529,4,2,1,5,0,0
27432,-117.647058823529,4,2,1,55,0,0
27781,-117.647058823529,4,2,2,55,0,0
28130,-117.647058823529,4,2,1,55,0,0
33013,-117.647058823529,4,2,1,30,0,0
33188,-117.647058823529,4,2,1,55,0,0
34932,-133.333333333333,4,2,1,60,0,0
40077,-133.333333333333,4,2,1,5,0,0
40164,-133.333333333333,4,2,1,60,0,0
45048,-133.333333333333,4,2,2,60,0,0
45223,-133.333333333333,4,2,2,45,0,0
45397,-133.333333333333,4,2,2,60,0,0
45484,-133.333333333333,4,2,1,60,0,0
46095,-117.647058823529,4,2,1,60,0,0
47316,-117.647058823529,4,2,2,60,0,0
47664,-117.647058823529,4,2,1,60,0,0
51502,-117.647058823529,4,2,2,60,0,0
52025,-117.647058823529,4,2,2,40,0,0
52374,-117.647058823529,4,2,2,50,0,0
52723,-117.647058823529,4,2,2,60,0,0
52897,-117.647058823529,4,2,2,65,0,0
53159,-117.647058823529,4,2,2,5,0,0
53246,-117.647058823529,4,2,2,65,0,0
54380,-117.647058823529,4,2,2,45,0,0
54467,-100,4,2,1,70,0,0
54641,-100,4,2,5,70,0,0
54816,-100,4,2,1,70,0,0
57432,-100,4,2,5,70,0,0
57606,-100,4,2,1,70,0,0
59525,-100,4,2,5,70,0,0
59699,-100,4,2,1,70,0,0
60223,-100,4,2,5,70,0,0
60397,-100,4,2,1,70,0,0
64932,-100,4,2,2,70,0,0
65106,-100,4,2,2,45,0,0
65630,-100,4,2,1,70,0,0
65804,-100,4,2,5,70,0,0
65978,-100,4,2,1,70,0,0
68595,-100,4,2,5,70,0,0
68769,-100,4,2,1,70,0,0
69728,-100,4,2,1,5,0,0
69816,-100,4,2,1,70,0,0
70339,-100,4,2,2,70,0,0
71037,-100,4,2,1,70,0,0
74525,-100,4,2,1,40,0,0
74699,-100,4,2,1,70,0,0
79583,-133.333333333333,4,2,1,70,0,0
84118,-133.333333333333,4,2,1,40,0,0
84292,-133.333333333333,4,2,1,45,0,0
84467,-133.333333333333,4,2,1,50,0,0
84641,-133.333333333333,4,2,1,55,0,0
84816,-133.333333333333,4,2,1,60,0,0
84990,-133.333333333333,4,2,1,65,0,0

[Colours]
Combo1 : 142,255,142
Combo2 : 255,128,255
Combo3 : 166,166,210
Combo4 : 128,255,255

[HitObjects]
65,35,1444,6,0,B|97:92|41:111|82:182,1,134.999995880127,6|2,0:1|0:0,0:0:0:0:
451,35,2839,2,0,B|418:92|474:111|436:176,1,134.999995880127,2|2,0:0|0:0,0:0:0:0:
414,252,3537,2,0,L|361:237,1,44.999998626709,0|2,0:0|0:0,0:0:0:0:
309,311,3885,2,0,L|281:262,1,44.999998626709
198,279,4234,6,0,L|208:227,2,44.999998626709,2|0|0,0:0|0:0|0:0,0:0:0:0:
153,353,4757,1,0,0:0:0:0:
80,198,5106,1,2,0:0:0:0:
288,52,5630,6,0,P|234:35|183:42,1,89.9999972534181,2|0,0:0|0:0,0:0:0:0:
229,121,6153,1,2,0:0:0:0:
229,121,6327,2,0,P|236:148|237:180,1,44.999998626709,0|2,0:0|0:0,0:0:0:0:
321,208,6676,2,0,P|322:179|331:155,1,44.999998626709
391,99,7025,6,0,P|435:82|484:156,1,134.999995880127,0|2,0:0|0:0,0:0:0:0:
345,256,7897,1,0,0:0:0:0:
120,96,8420,5,2,0:0:0:0:
120,96,8769,2,0,P|91:96|64:105,1,44.999998626709
21,175,9118,2,0,P|46:226|50:276,1,89.9999972534181,2|0,0:0|0:0,0:0:0:0:
203,357,9816,5,2,0:0:0:0:
256,192,9903,12,0,12257,0:0:0:0:
449,33,12606,6,0,P|440:83|439:155,1,112.500004291535,10|0,0:1|0:0,0:0:0:0:
365,194,13130,1,0,0:0:0:0:
365,194,13304,2,0,P|374:244|375:316,1,112.500004291535,0|0,0:0|0:0,0:0:0:0:
296,342,13827,1,8,0:1:0:0:
296,342,14002,2,0,P|241:323|184:331,1,112.500004291535,10|0,0:1|0:0,0:0:0:0:
102,350,14525,1,8,0:1:0:0:
102,350,14699,2,0,P|88:325|82:298,1,56.2500021457673
2,266,15048,2,0,P|16:241|37:223,1,56.2500021457673,0|0,0:0|0:0,0:0:0:0:
24,137,15397,6,0,P|58:133|133:171,1,112.500004291535,10|0,0:1|0:0,0:0:0:0:
192,226,15920,2,0,P|226:230|301:192,1,112.500004291535,0|0,0:0|0:0,0:0:0:0:
363,134,16444,1,0,0:0:0:0:
452,160,16618,1,0,0:0:0:0:
452,160,16792,2,0,L|470:37,1,112.500004291535,10|0,0:1|0:0,0:0:0:0:
392,21,17316,1,8,0:1:0:0:
392,21,17490,2,0,P|343:10|327:12,1,56.2500021457673,0|0,0:0|0:0,0:0:0:0:
349,96,17839,1,0,0:0:0:0:
179,54,18188,6,0,P|123:47|75:73,1,112.500004291535,10|0,0:1|0:0,0:0:0:0:
22,143,18711,1,0,0:0:0:0:
22,143,18885,2,0,P|33:200|34:258,1,112.500004291535,0|0,0:0|0:0,0:0:0:0:
123,271,19409,1,8,0:1:0:0:
123,271,19583,2,0,P|118:311|118:340,2,56.2500021457673,10|0|0,0:1|0:0|0:0,0:0:0:0:
179,204,20106,1,8,0:1:0:0:
179,204,20281,2,0,P|241:190|294:204,1,112.500004291535,0|0,0:0|0:0,0:0:0:0:
352,263,20804,1,2,0:0:0:0:
352,263,20978,6,0,P|363:308|363:335,1,56.2500021457673,8|0,0:1|0:0,0:0:0:0:
375,174,21327,1,0,0:0:0:0:
375,174,21502,2,0,P|378:146|386:119,1,56.2500021457673,0|0,0:0|0:0,0:0:0:0:
419,40,21850,2,0,P|392:31|364:28,1,56.2500021457673,2|0,0:0|0:0,0:0:0:0:
285,69,22199,1,8,0:1:0:0:
285,69,22374,2,0,P|258:77|230:80,1,56.2500021457673,10|0,0:1|0:0,0:0:0:0:
153,50,22723,1,0,0:0:0:0:
153,50,22897,1,0,0:0:0:0:
85,114,23071,2,0,L|90:177,2,56.2500021457673,2|8|8,0:3|0:1|0:0,0:0:0:0:
45,282,23769,6,0,P|105:300|165:256,1,127.50000243187,12|8,0:1|0:0,0:0:0:0:
226,194,24292,2,0,P|290:180|343:218,1,127.50000243187,10|8,0:1|0:1,0:0:0:0:
354,309,24816,1,8,0:0:0:0:
436,253,24990,6,0,B|467:221|467:221|460:128,1,127.50000243187,10|8,0:1|0:1,0:0:0:0:
487,48,25513,1,8,0:0:0:0:
292,9,25862,1,2,0:0:0:0:
358,69,26037,1,8,0:1:0:0:
275,99,26211,1,8,0:0:0:0:
87,27,26560,6,0,P|146:13|208:36,1,127.50000243187,10|8,0:1|0:0,0:0:0:0:
275,99,27083,2,0,B|259:151|259:151|277:226,1,127.50000243187,10|8,0:1|0:1,0:0:0:0:
300,317,27606,1,8,0:0:0:0:
212,361,27781,6,0,P|157:373|88:335,1,127.50000243187,6|8,0:0|0:1,0:0:0:0:
17,288,28304,1,8,0:0:0:0:
130,146,28653,1,2,0:0:0:0:
178,228,28827,1,8,0:1:0:0:
223,141,29002,2,0,P|230:93|239:69,1,63.7500012159348,12|0,0:0|0:0,0:0:0:0:
325,42,29350,6,0,P|364:27|454:43,2,127.50000243187,12|8|8,0:1|0:0|0:1,0:0:0:0:
383,125,30223,1,8,0:1:0:0:
383,125,30397,2,0,P|395:166|393:208,1,63.7500012159348,8|2,0:0|0:0,0:0:0:0:
420,283,30746,6,0,P|365:303|296:284,1,127.50000243187,8|8,0:1|0:0,0:0:0:0:
230,223,31269,2,0,P|198:212|168:213,1,63.7500012159348,2|8,0:0|0:1,0:0:0:0:
78,245,31618,1,10,0:1:0:0:
144,312,31792,1,8,0:0:0:0:
99,133,32141,5,12,0:1:0:0:
99,133,32316,2,0,P|90:78|97:54,2,63.7500012159348,8|0|0,0:0|0:0|0:0,0:0:0:0:
186,93,32839,1,8,0:0:0:0:
260,162,33013,1,8,0:0:0:0:
260,162,33100,1,8,0:0:0:0:
260,162,33188,2,0,P|292:170|325:168,1,63.7500012159348,8|8,0:0|0:3,0:0:0:0:
374,88,33537,5,10,0:1:0:0:
437,162,33711,2,0,P|412:214|409:289,1,127.50000243187,8|4,0:3|0:3,0:0:0:0:
450,360,34234,2,0,P|379:272|291:299,1,191.250003647804,10|0,0:1|0:0,0:0:0:0:
234,338,34932,6,0,P|180:350|102:330,2,112.500004291535,12|8|8,0:1|0:1|0:1,0:0:0:0:
143,191,35978,2,0,P|98:181|43:194,1,84.3750032186509,8|0,0:1|0:0,0:0:0:0:
19,207,36327,2,0,L|23:137,1,56.2500021457673,8|0,0:1|0:0,0:0:0:0:
80,59,36676,2,0,P|121:48|169:69,1,84.3750032186509,8|0,0:1|0:0,0:0:0:0:
202,95,37025,2,0,P|249:110|265:108,1,56.2500021457673,8|8,0:3|0:1,0:0:0:0:
349,69,37374,2,0,L|358:147,1,56.2500021457673,4|0,0:3|0:0,0:0:0:0:
430,198,37723,6,0,L|416:331,1,112.500004291535,12|8,0:1|0:1,0:0:0:0:
244,369,38420,2,0,L|233:247,1,112.500004291535,8|8,0:1|0:1,0:0:0:0:
134,108,39118,1,8,0:1:0:0:
111,195,39292,1,8,0:3:0:0:
197,171,39467,1,8,0:1:0:0:
37,71,39816,2,0,L|49:151,1,56.2500021457673,4|0,0:3|0:0,0:0:0:0:
111,195,40164,2,0,L|101:276,1,56.2500021457673,8|0,0:1|0:0,0:0:0:0:
146,339,40513,6,0,P|85:348|33:311,2,112.500004291535,12|8|8,0:1|0:1|0:1,0:0:0:0:
297,237,41560,2,0,P|337:223|392:231,1,84.3750032186509,8|0,0:1|0:0,0:0:0:0:
427,240,41909,2,0,L|434:167,1,56.2500021457673,8|0,0:1|0:0,0:0:0:0:
357,90,42257,2,0,P|325:83|271:102,1,84.3750032186509,8|0,0:1|0:0,0:0:0:0:
247,140,42606,2,0,P|196:153|171:145,1,56.2500021457673,8|0,0:3|0:0,0:0:0:0:
97,89,42955,2,0,L|90:157,1,56.2500021457673,8|0,0:1|0:0,0:0:0:0:
25,225,43304,6,0,L|38:360,1,112.500004291535,12|8,0:1|0:1,0:0:0:0:
216,381,44002,2,0,L|233:253,1,112.500004291535,8|8,0:1|0:1,0:0:0:0:
335,123,44699,1,10,0:1:0:0:
358,210,44874,1,8,0:0:0:0:
269,185,45048,2,0,P|229:171|172:174,1,84.3750032186509,6|8,0:0|0:0,0:0:0:0:
146,189,45397,2,0,P|121:199|81:195,2,56.2500021457673,10|8|4,0:0|0:3|0:3,0:0:0:0:
282,78,46095,5,12,0:1:0:0:
282,78,46269,2,0,L|359:70,1,63.7500012159348,0|8,0:0|0:0,0:0:0:0:
406,149,46618,1,2,0:0:0:0:
496,101,46792,1,8,0:1:0:0:
496,101,46967,2,0,P|488:154|491:185,1,63.7500012159348,10|8,0:1|0:0,0:0:0:0:
453,250,47316,1,6,0:0:0:0:
453,250,47490,6,0,P|461:303|456:343,2,63.7500012159348,0|8|8,0:0|0:1|0:0,0:0:0:0:
377,186,48013,1,2,0:0:0:0:
326,259,48188,2,0,P|298:266|259:260,1,63.7500012159348,10|8,0:1|0:1,0:0:0:0:
235,243,48449,1,2,0:0:0:0:
235,243,48537,2,0,P|207:235|167:238,1,63.7500012159348,8|2,0:0|0:0,0:0:0:0:
94,294,48885,6,0,P|42:305|8:245,1,127.50000243187,10|8,0:1|0:0,0:0:0:0:
77,176,49409,1,2,0:0:0:0:
22,108,49583,1,8,0:1:0:0:
90,53,49757,1,8,0:1:0:0:
145,121,49932,2,0,L|228:104,1,63.7500012159348,10|2,0:0|0:0,0:0:0:0:
256,28,50281,6,0,L|382:44,1,127.50000243187,8|8,0:1|0:0,0:0:0:0:
469,82,50804,1,2,0:0:0:0:
413,152,50978,2,0,P|401:191|403:229,1,63.7500012159348,10|8,0:1|0:1,0:0:0:0:
447,301,51327,1,8,0:0:0:0:
356,338,51502,5,6,0:0:0:0:
356,338,51676,2,0,B|299:325|304:365|224:352,1,127.50000243187,2|10,0:0|0:0,0:0:0:0:
150,295,52199,1,8,0:0:0:0:
228,219,52374,2,0,L|296:212,2,63.7500012159348,10|8|10,0:0|0:0|0:0,0:0:0:0:
118,209,52897,6,0,P|80:157|97:79,1,127.50000243187,8|2,0:0|0:0,0:0:0:0:
178,30,53420,1,8,0:0:0:0:
178,30,54467,6,0,P|247:7|316:32,1,150,12|8,0:1|0:0,0:0:0:0:
420,92,54990,2,0,B|411:156|411:156|427:258,1,150,2|2,0:3|0:3,0:0:0:0:
445,357,55513,1,8,0:0:0:0:
338,314,55688,1,2,0:3:0:0:
338,314,55862,6,0,P|294:297|260:299,1,75,10|2,0:1|0:3,0:0:0:0:
212,200,56211,2,0,P|175:229|160:260,1,75,8|2,0:0|0:3,0:0:0:0:
50,251,56560,2,0,P|53:288|71:320,2,75,10|2|8,0:1|0:3|0:0,0:0:0:0:
37,133,57083,1,2,0:3:0:0:
121,50,57257,6,0,B|205:36|192:90|272:80,1,150,10|8,0:1|0:0,0:0:0:0:
362,11,57781,2,0,P|391:79|368:148,1,150,2|2,0:3|0:3,0:0:0:0:
320,256,58304,1,8,0:0:0:0:
213,215,58478,1,2,0:3:0:0:
213,215,58653,6,0,L|111:203,1,75,10|2,0:1|0:3,0:0:0:0:
73,307,59002,2,0,L|175:295,1,75,8|2,0:0|0:3,0:0:0:0:
261,339,59350,2,0,P|332:356|400:320,1,150,10|10,0:1|0:0,0:0:0:0:
484,243,59874,1,2,0:3:0:0:
431,141,60048,6,0,B|390:113|390:113|329:149|274:127,1,150,10|8,0:1|0:0,0:0:0:0:
189,86,60571,2,0,B|136:93|136:93|92:77|92:77|42:86,1,150,2|2,0:3|0:3,0:0:0:0:
81,197,61095,1,8,0:0:0:0:
81,197,61269,6,0,P|95:278|103:351,1,150,2|2,0:3|0:3,0:0:0:0:
186,262,61792,1,8,0:0:0:0:
186,262,61967,2,0,P|237:250|276:254,1,75,2|10,0:3|0:1,0:0:0:0:
334,338,62316,2,0,P|371:337|407:326,1,75,2|8,0:3|0:0,0:0:0:0:
492,244,62664,1,2,0:3:0:0:
492,244,62839,6,0,L|482:169,1,75,10|2,0:1|0:3,0:0:0:0:
366,163,63188,2,0,L|375:88,1,75,8|2,0:0|0:3,0:0:0:0:
269,35,63537,2,0,L|278:109,1,75,10|2,0:1|0:3,0:0:0:0:
161,115,63885,2,0,L|152:190,1,75,8|2,0:0|0:3,0:0:0:0:
139,308,64234,6,0,P|175:316|212:315,2,75,10|10|12,0:1|0:1|0:0,0:0:0:0:
46,243,64757,1,2,0:0:0:0:
152,190,64932,1,10,0:0:0:0:
55,126,65106,1,8,0:0:0:0:
55,126,65194,1,8,0:0:0:0:
55,126,65281,2,0,P|47:108|44:90,3,37.5,10|8|8|8,0:0|0:0|0:0|0:0,0:0:0:0:
69,36,65630,6,0,P|137:9|209:24,1,150,12|8,0:1|0:0,0:0:0:0:
257,134,66153,2,0,P|329:149|397:121,1,150,2|2,0:3|0:3,0:0:0:0:
475,38,66676,1,8,0:0:0:0:
512,144,66850,1,2,0:3:0:0:
512,144,67025,6,0,P|502:180|498:217,1,75,10|2,0:1|0:3,0:0:0:0:
420,308,67374,2,0,P|415:270|406:234,1,75,8|2,0:0|0:3,0:0:0:0:
302,191,67723,2,0,L|210:183,2,75,10|2|8,0:1|0:3|0:0,0:0:0:0:
253,293,68246,1,2,0:3:0:0:
145,339,68420,6,0,P|72:339|32:279,1,150,10|8,0:1|0:0,0:0:0:0:
134,220,68944,2,0,P|138:171|127:135,1,75,2|10,0:3|0:1,0:0:0:0:
51,72,69292,1,0,0:0:0:0:
163,35,69467,6,0,B|245:26|233:76|311:58,1,150,12|4,0:0|0:3,0:0:0:0:
422,33,69990,2,0,P|459:26|478:26,2,37.5,0|8|8,3:0|0:0|0:0,0:0:0:0:
386,142,70339,2,0,P|379:194|381:228,1,75,6|0,0:0|0:0,0:0:0:0:
285,286,70688,2,0,P|284:248|278:211,1,75,6|0,0:0|0:0,0:0:0:0:
186,146,71037,6,0,P|104:129|41:192,1,150,12|8,0:1|0:1,0:0:0:0:
20,279,71560,1,8,0:0:0:0:
20,279,71734,2,0,B|80:304|80:304|176:285,1,150,2|8,0:0|0:1,0:0:0:0:
264,234,72257,1,8,0:0:0:0:
355,309,72432,1,2,0:0:0:0:
448,246,72606,6,0,P|466:184|457:146,1,75,8|0,0:1|0:0,0:0:0:0:
404,78,72955,2,0,P|341:93|312:120,1,75,8|0,0:0|0:0,0:0:0:0:
281,200,73304,1,10,0:1:0:0:
281,200,73478,1,8,0:1:0:0:
281,200,73653,2,0,P|325:246|363:257,1,75,8|0,0:0|0:0,0:0:0:0:
261,343,74002,6,0,P|206:262|141:246,1,150,10|12,0:1|0:0,0:0:0:0:
45,223,74525,1,8,0:0:0:0:
45,223,74612,1,8,0:0:0:0:
45,223,74699,2,0,P|32:158|40:130,1,75,8|4,0:0|0:3,0:0:0:0:
80,48,75048,1,8,0:3:0:0:
162,126,75223,1,4,0:3:0:0:
241,36,75397,5,12,0:0:0:0:
241,36,75571,1,8,0:0:0:0:
278,372,76095,1,8,0:3:0:0:
353,285,76269,2,0,L|349:240,2,37.5,0|8|8,3:0|0:0|0:0,0:0:0:0:
437,363,76618,1,10,0:1:0:0:
510,275,76792,6,0,L|497:120,1,150,12|8,0:0|0:1,0:0:0:0:
419,43,77316,2,0,B|386:50|358:36|358:36|344:56|344:56|314:38|273:47,1,150,12|8,0:0|0:1,0:0:0:0:
187,104,77839,1,12,0:0:0:0:
102,49,78013,2,0,L|99:9,2,37.5,8|8|8,0:0|0:0|0:0,0:0:0:0:
187,104,78362,2,0,L|171:263,1,150,8|8,0:3|0:1,0:0:0:0:
154,363,78885,1,4,0:3:0:0:
154,363,79583,6,0,L|265:350,1,112.500004291535,12|2,0:1|0:0,0:0:0:0:
327,286,80106,1,8,0:1:0:0:
401,339,80281,2,0,P|412:296|411:268,1,56.2500021457673,8|0,0:0|0:0,0:0:0:0:
497,257,80630,1,2,0:0:0:0:
497,257,80804,6,0,P|474:218|399:189,1,112.500004291535,8|2,0:1|0:0,0:0:0:0:
326,202,81327,2,0,P|286:213|248:208,1,56.2500021457673,8|0,0:1|0:0,0:0:0:0:
195,168,81676,2,0,P|135:149|68:170,1,112.500004291535,8|2,0:0|0:0,0:0:0:0:
212,44,82374,6,0,P|272:63|339:42,1,112.500004291535,8|2,0:1|0:0,0:0:0:0:
396,7,82897,1,8,0:1:0:0:
443,83,83071,2,0,L|450:161,1,56.2500021457673,8|8,0:0|0:1,0:0:0:0:
396,211,83420,1,4,0:3:0:0:
463,271,83595,6,0,P|398:269|353:300,1,112.500004291535,10|0,0:1|3:0,0:0:0:0:
296,354,84118,2,0,L|236:346,1,56.2500021457673,8|8,0:0|0:0,0:0:0:0:
145,318,84467,1,8,0:0:0:0:
145,318,84641,1,8,0:0:0:0:
229,249,84816,1,8,0:0:0:0:
229,249,84990,1,12,0:0:0:0:
