osu file format v14

[General]
AudioFilename: audio.ogg
AudioLeadIn: 0
PreviewTime: 55793
Countdown: 0
SampleSet: Normal
StackLeniency: 0.4
Mode: 0
LetterboxInBreaks: 0
WidescreenStoryboard: 1

[Editor]
Bookmarks: 144,18707,24011,34619,45226,55834,87657
DistanceSpacing: 1
BeatDivisor: 2
GridSize: 16
TimelineZoom: 0.4999996

[Metadata]
Title:CHOIR JAIL (TV Size)
TitleUnicode:CHOIR JAIL (TV Size)
Artist:Suzuki Konomi
ArtistUnicode:鈴木このみ
Creator:Astronic
Version:NORMAL
Source:黄昏乙女×アムネジア
Tags:tasogare otome streams bursts dusk maiden of amnesia opening theme japanese anime metal rock jrock j-rock life of dash female vocals
BeatmapID:3055881
BeatmapSetID:1490776

[Difficulty]
HPDrainRate:3
CircleSize:3.3
OverallDifficulty:4.5
ApproachRate:5.5
SliderMultiplier:1.1
SliderTickRate:1

[Events]
//Background and Video events
0,0,"bg.jpg",0,0
//Break Periods
//Storyboard Layer 0 (Background)
//Storyboard Layer 1 (Fail)
//Storyboard Layer 2 (Pass)
//Storyboard Layer 3 (Foreground)
//Storyboard Layer 4 (Overlay)
//Storyboard Sound Samples

[TimingPoints]
144,331.491712707182,4,1,1,50,1,0
2795,-100,4,1,1,60,0,0
18707,-100,4,3,1,85,0,1
21359,-100,4,3,1,90,0,1
24011,-100,4,1,1,70,0,0
34619,-100,4,1,1,75,0,0
45226,-100,4,1,1,60,0,0
50530,-100,4,1,1,65,0,0
54342,-100,4,1,1,70,0,0
54674,-100,4,1,1,75,0,0
55005,-100,4,1,1,80,0,0
55834,-100,4,3,1,90,0,1
77050,-100,4,1,1,75,0,0
82353,-100,4,3,1,90,0,1
86331,-100,4,3,1,100,0,1
87657,-100,4,3,1,100,0,0

[Colours]
Combo1 : 129,129,129
Combo2 : 137,67,65
Combo3 : 81,132,189

[HitObjects]
96,96,144,6,0,L|32:112,2,55,2|2|2,0:0|0:0|0:0,0:0:0:0:
149,82,641,1,2,0:0:0:0:
256,60,972,2,0,L|272:-4,2,55,2|2|2,0:0|0:0|0:0,0:0:0:0:
330,141,1635,1,2,0:0:0:0:
337,138,1801,1,2,0:0:0:0:
430,79,2132,2,0,L|446:143,1,55,2|2,0:0|0:0,0:0:0:0:
492,157,2464,2,0,L|476:221,1,55,2|2,0:0|0:0,0:0:0:0:
469,266,2795,5,6,0:0:0:0:
469,266,5447,1,2,0:0:0:0:
469,266,8099,1,2,0:0:0:0:
469,266,10751,1,2,0:0:0:0:
128,320,13072,1,2,3:1:0:0:
48,240,13403,5,10,0:0:0:0:
48,240,13569,2,0,L|160:208,1,110,8|10,0:0|0:0,0:0:0:0:
208,192,14066,1,8,0:0:0:0:
272,112,14398,1,8,0:0:0:0:
272,112,14563,2,0,L|384:144,1,110,8|8,0:0|0:0,0:0:0:0:
432,160,15061,1,8,0:0:0:0:
373,253,15392,2,0,L|261:221,1,110,0|0,3:0|3:0,0:0:0:0:
161,245,16055,6,0,L|81:229,2,55,2|2|2,3:1|3:1|3:1,0:0:0:0:
160,300,16552,2,0,L|280:327,1,110,10|2,0:0|3:1,0:0:0:0:
321,336,17050,1,10,0:0:0:0:
321,336,17215,1,2,3:1:0:0:
400,256,17547,1,2,3:1:0:0:
512,128,18044,2,0,L|400:112,1,110,2|2,0:0|0:0,0:0:0:0:
352,16,18707,6,0,P|304:0|240:16,1,110,14|10,0:1|0:1,0:0:0:0:
208,112,19370,2,0,P|178:111|144:96,1,55,2|0,0:1|0:0,0:0:0:0:
100,112,19702,2,0,P|68:111|36:128,1,55,10|0,0:1|0:0,0:0:0:0:
21,168,20033,1,2,0:1:0:0:
58,271,20364,1,10,0:1:0:0:
100,372,20696,2,0,L|173:353,1,55,2|0,0:1|0:0,0:0:0:0:
190,317,21027,2,0,L|254:301,1,55,10|0,0:1|0:0,0:0:0:0:
277,258,21359,6,0,L|389:274,1,110,2|10,0:1|0:1,0:0:0:0:
482,326,22022,2,0,P|498:294|498:262,1,55,2|0,0:1|0:0,0:0:0:0:
488,221,22353,2,0,P|474:197|470:170,1,55,10|0,0:1|0:0,0:0:0:0:
491,118,22685,1,10,0:1:0:0:
419,34,23016,1,10,0:1:0:0:
373,64,23182,1,0,0:0:0:0:
328,97,23348,2,0,L|264:81,1,55,10|0,0:1|0:0,0:0:0:0:
232,47,23679,2,0,L|168:63,1,55,10|8,0:1|0:1,0:0:0:0:
123,63,24011,6,0,P|155:111|155:175,1,110,14|10,0:0|0:0,0:0:0:0:
209,182,24508,1,2,0:0:0:0:
224,291,24840,2,0,L|277:277,2,55,2|8|2,3:1|0:0|0:0,0:0:0:0:
145,367,25503,2,0,L|81:351,1,55,0|8,3:0|0:0,0:0:0:0:
32,336,25834,1,2,0:0:0:0:
31,329,26000,2,0,L|15:217,1,110,2|10,0:0|0:0,0:0:0:0:
0,110,26663,6,0,P|48:62|112:62,1,110,2|10,3:1|0:0,0:0:0:0:
138,76,27160,1,2,0:0:0:0:
239,33,27492,1,2,3:1:0:0:
320,106,27823,2,0,B|368:90|416:106|400:138|432:154|496:138,1,165,2|8,0:0|0:0,0:0:0:0:
506,186,28486,1,2,0:0:0:0:
506,186,28652,2,0,L|490:298,1,110,2|10,0:0|0:0,0:0:0:0:
394,357,29315,6,0,P|330:325|266:325,1,110,6|10,3:1|0:0,0:0:0:0:
248,355,29812,1,2,0:0:0:0:
139,337,30143,1,2,3:1:0:0:
30,320,30475,2,0,B|62:272|62:272|46:160,1,165,2|8,0:0|0:0,0:0:0:0:
13,122,31138,1,2,0:0:0:0:
13,122,31304,2,0,P|77:106|109:58,1,110,2|10,0:0|0:0,0:0:0:0:
196,3,31967,6,0,L|308:19,1,110,6|10,3:1|0:0,0:0:0:0:
340,60,32464,1,2,3:1:0:0:
264,139,32795,2,0,L|280:203,1,55,2|8,3:1|0:0,0:0:0:0:
288,246,33127,1,2,3:1:0:0:
319,351,33458,1,2,3:1:0:0:
427,370,33790,1,2,3:1:0:0:
434,367,33956,2,0,L|450:255,1,110,10|4,0:0|0:0,0:0:0:0:
511,167,34619,6,0,P|447:151|415:103,1,110,2|10,3:1|3:1,0:0:0:0:
401,66,35116,1,2,0:0:0:0:
302,114,35447,1,2,3:1:0:0:
225,34,35779,1,2,3:1:0:0:
124,78,36110,2,0,L|60:62,1,55,0|8,3:1|3:1,0:0:0:0:
25,32,36442,1,2,0:0:0:0:
22,38,36608,2,0,L|38:166,1,110,2|10,0:0|3:1,0:0:0:0:
0,251,37271,6,0,P|64:267|112:315,1,110,2|10,3:1|3:1,0:0:0:0:
132,336,37768,1,2,0:0:0:0:
226,279,38099,1,2,3:1:0:0:
336,320,38431,1,2,3:1:0:0:
427,259,38762,1,0,3:1:0:0:
422,254,38928,2,0,L|406:190,1,55,8|0,3:1|0:0,0:0:0:0:
360,173,39260,2,0,P|376:125|360:61,1,110,2|10,0:0|3:1,0:0:0:0:
265,116,39923,5,2,3:1:0:0:
169,62,40254,1,10,3:1:0:0:
71,113,40585,2,0,L|55:225,1,110,2|2,0:0|0:0,0:0:0:0:
32,336,41248,2,0,P|80:304|160:320,1,110,2|8,3:1|3:1,0:0:0:0:
176,320,41746,1,2,0:0:0:0:
182,325,41911,1,2,3:1:0:0:
288,304,42243,1,8,3:1:0:0:
366,233,42574,6,0,P|350:185|364:115,1,110,2|10,3:1|3:1,0:0:0:0:
447,62,43237,1,2,0:0:0:0:
475,168,43569,1,2,0:0:0:0:
509,272,43900,1,2,3:1:0:0:
509,279,44066,2,0,L|445:295,1,55,2|8,3:1|3:1,0:0:0:0:
416,331,44398,1,2,0:0:0:0:
304,352,44729,1,0,3:1:0:0:
300,357,44895,2,0,L|236:341,1,55,8|8,3:1|3:1,0:0:0:0:
192,352,45226,5,12,0:0:0:0:
80,336,45558,1,2,0:0:0:0:
17,246,45889,2,0,L|33:134,1,110,10|2,0:0|0:0,0:0:0:0:
36,27,46552,2,0,P|100:43|132:91,1,110,2|2,0:0|0:0,0:0:0:0:
138,129,47050,1,2,0:0:0:0:
242,95,47381,2,0,L|258:15,2,55,2|8|0,0:0|0:0|0:0,0:0:0:0:
270,142,47878,5,4,0:0:0:0:
363,83,48210,2,0,P|427:83|475:131,1,110,2|10,0:0|0:0,0:0:0:0:
499,212,48873,1,10,0:0:0:0:
464,316,49204,2,0,L|400:332,1,55,2|2,0:0|0:0,0:0:0:0:
357,345,49536,1,2,0:0:0:0:
357,345,49702,2,0,B|309:361|261:329|293:313|245:281|197:297,1,165,2|8,0:0|0:0,0:0:0:0:
99,306,50530,6,0,L|115:370,2,55,2|2|2,3:1|3:1|3:1,0:0:0:0:
45,292,51027,1,2,0:0:0:0:
47,285,51193,2,0,L|63:221,1,55,2|2,0:0|3:1,0:0:0:0:
91,125,51690,1,2,3:1:0:0:
181,187,52022,1,2,3:1:0:0:
277,250,52353,1,2,3:1:0:0:
277,250,52519,2,0,P|325:234|405:250,1,110,10|8,0:0|0:0,0:0:0:0:
489,277,53182,6,0,L|473:165,1,110,2|2,3:1|3:1,0:0:0:0:
509,126,53679,1,2,3:1:0:0:
449,33,54011,2,0,L|385:49,1,55,2|8,3:1|3:1,0:0:0:0:
343,62,54342,1,2,3:1:0:0:
241,18,54674,1,2,3:1:0:0:
148,76,55005,1,2,3:1:0:0:
145,82,55171,1,10,3:1:0:0:
26,267,55834,6,0,P|74:299|138:299,1,110,6|8,0:1|0:1,0:0:0:0:
221,249,56497,2,0,P|266:236|303:241,1,55,2|0,0:1|0:0,0:0:0:0:
319,267,56829,2,0,P|353:279|388:279,1,55,8|0,0:1|0:0,0:0:0:0:
424,296,57160,1,2,0:1:0:0:
500,218,57492,1,8,0:1:0:0:
465,113,57823,2,0,L|401:97,1,55,2|0,0:1|0:0,0:0:0:0:
390,48,58155,2,0,L|326:64,1,55,8|0,0:1|0:0,0:0:0:0:
288,32,58486,6,0,L|176:16,1,110,2|8,0:1|0:1,0:0:0:0:
80,64,59149,2,0,L|64:128,1,55
32,160,59481,2,0,L|48:224,1,55,10|2,0:1|0:1,0:0:0:0:
48,272,59812,1,2,0:1:0:0:
148,322,60143,1,10,0:1:0:0:
192,224,60475,2,0,L|256:208,1,55,2|0,0:1|0:0,0:0:0:0:
293,236,60806,2,0,L|357:252,1,55,10|0,0:1|0:0,0:0:0:0:
400,239,61138,6,0,P|368:303|384:367,1,110,6|8,0:1|0:1,0:0:0:0:
261,347,61801,1,0,0:0:0:0:
152,366,62132,1,10,0:1:0:0:
59,306,62464,2,0,L|43:242,1,55,2|0,0:1|0:0,0:0:0:0:
34,198,62795,1,10,0:1:0:0:
57,147,62961,2,0,L|89:35,1,110,2|0,0:1|0:0,0:0:0:0:
126,2,63458,1,10,0:1:0:0:
222,55,63790,6,0,P|270:71|350:55,1,110,2|10,0:1|0:1,0:0:0:0:
432,32,64453,2,0,L|439:111,1,55,2|0,0:1|0:0,0:0:0:0:
486,110,64784,2,0,L|475:166,1,55,10|0,0:1|0:0,0:0:0:0:
464,218,65116,1,2,0:1:0:0:
354,214,65447,1,8,0:1:0:0:
359,268,65613,1,2,0:1:0:0:
364,322,65779,2,0,L|300:306,1,55,10|8,0:1|0:1,0:0:0:0:
271,347,66110,2,0,L|207:363,1,55,8|8,0:1|0:1,0:0:0:0:
160,370,66442,6,0,L|176:258,1,110,6|8,0:1|0:1,0:0:0:0:
241,172,67105,2,0,L|236:106,1,55,2|0,0:1|0:0,0:0:0:0:
182,111,67436,2,0,L|176:45,1,55,8|0,0:1|0:0,0:0:0:0:
135,10,67768,1,2,0:1:0:0:
27,34,68099,1,8,0:1:0:0:
3,141,68431,2,0,L|11:207,1,55,2|0,0:1|0:0,0:0:0:0:
64,208,68762,2,0,L|52:274,1,55,8|0,0:1|0:0,0:0:0:0:
48,320,69094,6,0,L|178:345,1,110,2|8,0:1|0:1,0:0:0:0:
263,364,69757,1,0,0:0:0:0:
370,347,70088,1,10,0:1:0:0:
421,328,70254,1,2,0:1:0:0:
472,307,70420,2,0,L|488:195,1,110,2|10,0:1|0:1,0:0:0:0:
494,88,71083,1,2,0:1:0:0:
387,62,71414,1,10,0:1:0:0:
335,43,71580,1,2,0:1:0:0:
282,27,71746,6,0,P|234:11|154:27,1,110,6|10,0:1|0:1,0:0:0:0:
124,37,72243,2,0,L|140:149,1,110,2|0,0:1|0:0,0:0:0:0:
192,176,72740,2,0,L|176:240,1,55,10|0,0:1|0:0,0:0:0:0:
224,256,73072,2,0,P|176:272|128:320,1,110,2|8,0:1|0:1,0:0:0:0:
43,375,73735,1,0,0:0:0:0:
13,272,74066,2,0,L|29:208,1,55,10|0,0:1|0:0,0:0:0:0:
69,184,74398,6,0,L|54:116,1,55,6|0,0:1|0:0,0:0:0:0:
48,75,74729,1,10,0:1:0:0:
91,48,74895,1,2,0:1:0:0:
141,26,75061,1,8,0:1:0:0:
233,84,75392,2,0,L|297:100,1,55,10|0,0:1|0:0,0:0:0:0:
337,75,75724,2,0,P|379:118|447:140,1,110,10|10,0:1|0:1,0:0:0:0:
464,176,76221,1,0,0:0:0:0:
504,214,76387,2,0,L|488:278,1,55,10|8,0:1|0:1,0:0:0:0:
482,321,76718,2,0,L|418:305,1,55,10|0,0:1|0:0,0:0:0:0:
381,278,77050,6,0,L|269:294,1,110,6|2,0:0|0:0,0:0:0:0:
217,297,77547,1,2,3:1:0:0:
215,292,77713,2,0,P|206:235|165:188,1,110,10|2,0:0|3:1,0:0:0:0:
124,171,78210,1,10,0:0:0:0:
68,267,78541,1,2,3:1:0:0:
68,267,78707,1,10,0:0:0:0:
130,365,79039,2,0,L|194:349,1,55,2|2,3:1|3:1,0:0:0:0:
236,336,79370,1,10,0:0:0:0:
342,365,79702,5,14,0:0:0:0:
144,224,81690,2,0,L|160:112,1,110,2|2,0:0|0:0,0:0:0:0:
216,20,82353,6,0,P|163:7|111:21,1,110,14|10,0:1|0:1,0:0:0:0:
10,67,83016,2,0,L|21:142,1,55,2|0,0:1|0:0,0:0:0:0:
8,176,83348,2,0,L|24:248,1,55,10|0,0:1|0:0,0:0:0:0:
32,283,83679,1,2,0:1:0:0:
137,315,84011,1,10,0:1:0:0:
227,252,84342,2,0,P|269:245|315:256,1,55,2|0,0:1|0:0,0:0:0:0:
322,283,84674,2,0,P|358:293|399:287,1,55,10|0,0:1|0:0,0:0:0:0:
430,291,85005,6,0,L|446:179,1,110,2|10,0:1|0:1,0:0:0:0:
464,73,85668,1,2,0:1:0:0:
378,4,86000,1,10,0:1:0:0:
345,48,86166,1,0,0:0:0:0:
316,94,86331,2,0,L|252:78,1,55,10|0,0:1|0:0,0:0:0:0:
208,48,86663,2,0,L|144:64,1,55,10|0,0:1|0:0,0:0:0:0:
96,48,86994,2,0,L|80:112,1,55,10|0,0:1|0:0,0:0:0:0:
48,144,87326,1,10,0:1:0:0:
56,200,87492,1,8,0:1:0:0:
64,256,87657,5,14,0:1:0:0:
