osu file format v14

[General]
AudioFilename: audio.ogg
AudioLeadIn: 0
PreviewTime: 55793
Countdown: 0
SampleSet: Normal
StackLeniency: 0.4
Mode: 0
LetterboxInBreaks: 0
WidescreenStoryboard: 1

[Editor]
Bookmarks: 144,18707,24011,34619,45226,55834,87657
DistanceSpacing: 1
BeatDivisor: 4
GridSize: 4
TimelineZoom: 1

[Metadata]
Title:CHOIR JAIL (TV Size)
TitleUnicode:CHOIR JAIL (TV Size)
Artist:Suzuki Konomi
ArtistUnicode:鈴木このみ
Creator:Astronic
Version:INSANE
Source:黄昏乙女×アムネジア
Tags:tasogare otome streams bursts dusk maiden of amnesia opening theme japanese anime metal rock jrock j-rock life of dash female vocals
BeatmapID:3055880
BeatmapSetID:1490776

[Difficulty]
HPDrainRate:5
CircleSize:3.8
OverallDifficulty:8.2
ApproachRate:9
SliderMultiplier:1.6
SliderTickRate:1

[Events]
//Background and Video events
0,0,"bg.jpg",0,0
//Break Periods
//Storyboard Layer 0 (Background)
//Storyboard Layer 1 (Fail)
//Storyboard Layer 2 (Pass)
//Storyboard Layer 3 (Foreground)
//Storyboard Layer 4 (Overlay)
//Storyboard Sound Samples

[TimingPoints]
144,331.491712707182,4,1,1,50,1,0
144,-125,4,1,1,50,0,0
2795,-222.222222222222,4,1,1,60,0,0
13403,-111.111111111111,4,1,1,60,0,0
18044,-250,4,1,1,60,0,0
18707,-90.9090909090909,4,3,1,85,0,1
21359,-90.9090909090909,4,3,1,90,0,1
24011,-125,4,1,1,70,0,0
33127,-111.111111111111,4,1,1,70,0,0
33376,-111.111111111111,4,1,1,5,0,0
33458,-111.111111111111,4,1,1,70,0,0
34536,-111.111111111111,4,1,1,5,0,0
34619,-111.111111111111,4,1,1,75,0,0
45226,-111.111111111111,4,1,1,60,0,0
50530,-111.111111111111,4,1,1,65,0,0
54342,-111.111111111111,4,1,1,70,0,0
54674,-111.111111111111,4,1,1,75,0,0
55005,-111.111111111111,4,1,1,80,0,0
55834,-90.9090909090909,4,3,1,90,0,1
69342,-90.9090909090909,4,3,1,5,0,1
69425,-90.9090909090909,4,3,1,90,0,1
77050,-117.647058823529,4,1,1,75,0,0
79619,-117.647058823529,4,1,1,5,0,0
79702,-117.647058823529,4,1,1,75,0,0
81690,-250,4,1,1,75,0,0
82353,-90.9090909090909,4,3,1,90,0,1
86331,-90.9090909090909,4,3,1,100,0,1
87326,-66.6666666666667,4,3,1,100,0,1
87574,-66.6666666666667,4,3,1,100,0,1
87657,-100,4,3,1,100,0,0

[Colours]
Combo1 : 129,129,129
Combo2 : 137,67,65
Combo3 : 81,132,189

[HitObjects]
160,272,144,5,2,0:0:0:0:
252,300,309,1,2,0:0:0:0:
256,304,475,1,2,0:0:0:0:
336,248,641,2,0,L|320:184,1,64,2|0,0:0|0:0,0:0:0:0:
415,157,972,1,2,0:0:0:0:
275,105,1138,1,2,0:0:0:0:
275,105,1304,6,0,P|308:92|354:98,1,64,2|0,0:0|0:0,0:0:0:0:
222,189,1635,1,2,0:0:0:0:
208,32,1801,2,0,L|144:48,1,64,2|0,0:0|0:0,0:0:0:0:
52,79,2132,1,2,0:0:0:0:
131,147,2298,1,2,0:0:0:0:
64,272,2464,1,2,0:0:0:0:
208,208,2630,1,2,0:0:0:0:
144,336,2795,6,0,B|224:384|320:304|320:304|288:352|288:352|384:288|464:336,1,431.999986816407,6|2,0:0|0:0,0:0:0:0:
206,241,5447,6,0,B|238:96|238:96|252:25|362:3|412:107|358:174|299:172,1,431.999986816407,2|2,0:0|0:0,0:0:0:0:
144,144,7768,1,2,0:0:0:0:
139,336,8099,6,0,P|317:278|139:147,1,503.999984619141,2|2,0:0|0:0,0:0:0:0:
206,241,10751,6,0,B|462:209|462:209|494:113|494:113|408:121,1,431.999986816407,2|2,0:0|0:0,0:0:0:0:
325,132,13072,1,2,3:1:0:0:
416,304,13403,5,10,0:0:0:0:
206,241,13569,2,0,P|190:201|198:161,1,71.9999978027344,8|2,0:0|0:0,0:0:0:0:
392,64,13900,5,10,0:0:0:0:
318,299,14066,2,0,L|302:219,1,71.9999978027344,8|0,0:0|0:0,0:0:0:0:
256,52,14398,5,8,0:0:0:0:
433,155,14563,2,0,P|407:163|352:154,1,71.9999978027344,8|0,0:0|0:0,0:0:0:0:
240,36,14895,5,8,0:0:0:0:
152,200,15061,2,0,P|158:173|193:130,1,71.9999978027344,8|0,0:0|0:0,0:0:0:0:
303,228,15392,5,0,3:0:0:0:
285,224,15474,1,0,3:0:0:0:
267,220,15557,1,0,3:0:0:0:
144,296,15724,2,0,P|103:286|72:252,1,71.9999978027344,0|0,3:0|0:0,0:0:0:0:
104,80,16055,5,2,3:1:0:0:
152,200,16221,1,2,3:1:0:0:
56,168,16387,1,2,3:1:0:0:
196,111,16552,2,0,L|276:95,1,71.9999978027344,10|0,0:0|3:1,0:0:0:0:
299,91,16801,1,0,3:1:0:0:
299,91,16884,1,2,3:1:0:0:
248,4,17050,1,10,0:0:0:0:
345,177,17215,6,0,P|377:149|393:101,1,71.9999978027344,2|0,3:1|0:0,0:0:0:0:
352,0,17547,1,2,3:1:0:0:
480,160,17713,1,8,0:0:0:0:
264,328,18044,6,0,B|248:296|248:296|264:264,1,64,2|2,0:0|0:0,0:0:0:0:
320,160,18707,5,14,0:1:0:0:
285,186,18790,1,0,0:0:0:0:
241,186,18873,1,0,0:0:0:0:
205,160,18956,1,0,0:0:0:0:
191,119,19039,2,0,L|175:55,3,44.0000013427735,10|0|0|0,0:1|0:0|0:0|0:0,0:0:0:0:
79,39,19370,1,2,0:1:0:0:
88,81,19452,1,0,0:0:0:0:
98,124,19535,1,0,0:0:0:0:
108,167,19618,1,0,0:0:0:0:
118,210,19702,2,0,L|54:194,3,44.0000013427735,10|0|0|0,0:1|0:0|0:0|0:0,0:0:0:0:
176,304,20033,6,0,L|133:314,3,44.0000013427735,2|0|0|0,0:1|0:0|0:0|0:0,0:0:0:0:
288,240,20364,2,0,L|245:229,3,44.0000013427735,10|0|0|0,0:1|0:0|0:0|0:0,0:0:0:0:
304,336,20696,1,2,0:1:0:0:
347,328,20778,1,0,0:0:0:0:
390,320,20861,1,0,0:0:0:0:
433,312,20944,1,0,0:0:0:0:
477,304,21027,2,0,L|493:240,3,44.0000013427735,10|0|0|0,0:1|0:0|0:0|0:0,0:0:0:0:
400,208,21359,5,2,0:1:0:0:
373,173,21441,1,0,0:0:0:0:
363,130,21524,1,0,0:0:0:0:
370,87,21607,1,0,0:0:0:0:
395,51,21690,2,0,L|459:35,3,44.0000013427735,10|0|0|0,0:1|0:0|0:0|0:0,0:0:0:0:
272,80,22022,1,2,0:1:0:0:
228,72,22104,1,0,0:0:0:0:
185,64,22187,1,0,0:0:0:0:
142,56,22270,1,0,0:0:0:0:
98,48,22353,2,0,L|89:91,3,44.0000013427735,10|0|0|0,0:1|0:0|0:0|0:0,0:0:0:0:
16,160,22685,6,0,L|24:203,3,44.0000013427735,10|0|0|0,0:1|0:0|0:0|0:0,0:0:0:0:
80,288,23016,2,0,L|71:331,3,44.0000013427735,10|0|0|0,0:1|0:0|0:0|0:0,0:0:0:0:
192,240,23348,1,10,0:1:0:0:
227,214,23431,1,0,0:0:0:0:
271,214,23514,1,0,0:0:0:0:
307,240,23597,1,0,0:0:0:0:
320,281,23679,1,10,0:1:0:0:
307,323,23762,1,8,0:1:0:0:
271,349,23845,1,8,0:1:0:0:
227,349,23928,1,8,0:1:0:0:
192,320,24011,6,0,B|176:288|176:288|192:176,1,128,14|10,0:0|0:0,0:0:0:0:
201,100,24508,2,0,P|169:100|133:117,1,64,2|0,0:0|3:0,0:0:0:0:
278,158,24840,2,0,P|294:130|297:90,1,64,2|8,3:1|0:0,0:0:0:0:
189,196,25171,2,0,P|229:243|307:250,1,128,2|0,0:0|3:0,0:0:0:0:
369,194,25668,1,8,0:0:0:0:
408,352,25834,1,2,0:0:0:0:
408,352,26000,2,0,L|392:288,1,64,2|0,0:0|3:0,0:0:0:0:
480,160,26331,2,0,L|464:224,1,64,10|0,0:0|0:0,0:0:0:0:
369,194,26663,6,0,L|401:66,1,128,2|10,3:1|0:0,0:0:0:0:
256,32,27160,2,0,P|304:16|336:16,1,64,2|0,0:0|3:0,0:0:0:0:
144,96,27492,2,0,P|173:108|205:112,1,64,2|8,3:1|0:0,0:0:0:0:
82,25,27823,2,0,P|51:70|65:153,1,128,2|0,0:0|3:0,0:0:0:0:
208,208,28320,1,8,0:0:0:0:
96,288,28486,1,2,0:0:0:0:
96,288,28652,2,0,L|112:208,1,64,2|0,0:0|3:0,0:0:0:0:
188,303,28983,2,0,L|172:367,1,64,10|0,0:0|0:0,0:0:0:0:
321,189,29315,6,0,B|289:221|289:221|193:205,1,128,6|10,3:1|0:0,0:0:0:0:
32,176,29812,2,0,L|16:112,1,64,2|0,0:0|0:0,0:0:0:0:
160,64,30143,2,0,L|144:128,1,64,2|8,3:1|0:0,0:0:0:0:
288,32,30475,2,0,L|320:176,1,128,2|0,0:0|3:0,0:0:0:0:
448,256,30972,1,8,0:0:0:0:
480,128,31138,1,2,0:0:0:0:
480,128,31304,2,0,L|416:112,1,64,2|0,0:0|3:0,0:0:0:0:
350,244,31635,2,0,P|350:276|382:324,1,64,10|0,0:0|0:0,0:0:0:0:
315,156,31967,6,0,L|251:172,1,64,6|0,3:1|0:0,0:0:0:0:
220,189,32215,1,0,3:0:0:0:
220,189,32298,1,10,0:0:0:0:
296,64,32464,1,2,3:1:0:0:
204,52,32630,1,0,3:0:0:0:
200,67,32712,1,0,3:0:0:0:
197,83,32795,2,0,L|149:99,2,32,2|0|8,3:1|3:0|0:0,0:0:0:0:
64,48,33127,2,0,P|80:96|64:160,1,107.999996704102,2|0,3:1|0:0,0:0:0:0:
48,176,33458,2,0,L|64:256,1,71.9999978027344,2|0,3:1|0:0,0:0:0:0:
80,344,33790,1,2,3:1:0:0:
160,256,33956,1,10,0:0:0:0:
177,259,34038,1,8,0:0:0:0:
195,263,34121,1,2,3:1:0:0:
212,267,34204,1,2,3:1:0:0:
229,272,34287,2,0,B|245:240|245:240|341:224,1,107.999996704102,4|0,0:0|0:0,0:0:0:0:
352,224,34619,5,2,3:1:0:0:
355,206,34701,1,0,3:1:0:0:
359,188,34784,2,0,L|343:140,1,35.9999989013672,0|0,3:1|3:1,0:0:0:0:
313,62,34950,1,10,3:1:0:0:
432,16,35116,2,0,L|416:96,1,71.9999978027344,2|0,0:0|0:0,0:0:0:0:
449,246,35447,2,0,L|464:176,1,71.9999978027344,2|0,3:1|0:0,0:0:0:0:
464,352,35779,6,0,P|432:336|384:336,1,71.9999978027344,2|0,3:1|0:0,0:0:0:0:
304,352,36110,1,0,3:1:0:0:
286,348,36192,1,0,3:1:0:0:
268,344,36275,1,8,3:1:0:0:
172,325,36442,1,2,0:0:0:0:
75,304,36608,1,2,0:0:0:0:
234,247,36773,1,0,3:1:0:0:
237,229,36855,1,0,3:1:0:0:
241,211,36939,2,0,L|257:115,1,71.9999978027344,10|0,3:1|0:0,0:0:0:0:
152,32,37271,5,2,3:1:0:0:
134,35,37353,1,0,3:1:0:0:
116,39,37436,2,0,L|132:103,1,35.9999989013672,0|0,3:1|3:1,0:0:0:0:
151,167,37602,1,10,3:1:0:0:
28,80,37768,2,0,L|12:160,1,71.9999978027344,2|0,0:0|0:0,0:0:0:0:
60,296,38099,2,0,L|74:225,1,71.9999978027344,2|0,3:1|0:0,0:0:0:0:
252,139,38431,6,0,P|300:123|336:128,1,71.9999978027344,2|0,3:1|0:0,0:0:0:0:
355,302,38762,1,0,3:1:0:0:
337,298,38844,1,0,3:1:0:0:
319,294,38928,2,0,L|303:214,1,71.9999978027344,8|0,3:1|0:0,0:0:0:0:
396,189,39260,1,2,0:0:0:0:
336,28,39425,1,0,3:1:0:0:
318,31,39507,1,0,3:1:0:0:
300,35,39591,2,0,P|260:48|203:43,1,71.9999978027344,10|0,3:1|0:0,0:0:0:0:
352,112,39923,5,2,3:1:0:0:
369,108,40005,1,0,3:1:0:0:
387,104,40088,2,0,L|451:88,1,35.9999989013672,0|0,3:1|3:1,0:0:0:0:
484,36,40254,2,0,P|504:72|504:120,1,71.9999978027344,10|0,3:1|0:0,0:0:0:0:
396,189,40585,1,2,0:0:0:0:
444,328,40751,1,0,3:1:0:0:
488,240,40917,1,2,0:0:0:0:
356,280,41083,1,0,3:1:0:0:
256,144,41248,5,2,3:1:0:0:
238,147,41330,1,0,3:1:0:0:
220,151,41414,2,0,L|156:167,1,35.9999989013672,0|0,3:1|3:1,0:0:0:0:
91,186,41580,1,8,3:1:0:0:
166,261,41746,1,2,0:0:0:0:
6,293,41911,1,2,3:1:0:0:
24,290,41993,1,0,3:1:0:0:
42,286,42077,2,0,L|106:270,1,35.9999989013672,0|0,3:1|3:1,0:0:0:0:
166,261,42243,2,0,L|246:277,1,71.9999978027344,8|0,3:1|0:0,0:0:0:0:
320,336,42574,5,2,3:1:0:0:
337,332,42656,1,0,3:1:0:0:
355,328,42740,2,0,L|371:264,1,35.9999989013672,0|0,3:1|3:1,0:0:0:0:
343,203,42906,2,0,P|378:201|422:220,1,71.9999978027344,10|0,3:1|0:0,0:0:0:0:
462,299,43237,1,2,0:0:0:0:
320,208,43403,1,0,3:1:0:0:
368,112,43569,1,2,0:0:0:0:
208,160,43735,1,0,3:1:0:0:
272,32,43900,5,2,3:1:0:0:
268,49,43982,1,0,3:1:0:0:
264,67,44066,2,0,L|200:51,1,35.9999989013672,2|0,3:1|3:1,0:0:0:0:
133,38,44232,1,8,3:1:0:0:
112,132,44398,1,2,0:0:0:0:
182,253,44563,1,0,3:1:0:0:
88,232,44729,2,0,L|72:288,1,35.9999989013672,0|0,3:1|3:1,0:0:0:0:
176,352,44895,1,8,3:1:0:0:
193,348,44977,1,8,3:1:0:0:
211,344,45061,2,0,L|275:328,1,35.9999989013672,8|8,3:1|3:1,0:0:0:0:
341,311,45226,6,0,L|357:231,1,71.9999978027344,12|0,0:0|0:0,0:0:0:0:
315,63,45558,2,0,P|347:47|395:47,1,71.9999978027344,2|0,0:0|0:0,0:0:0:0:
464,96,45889,2,0,P|461:131|437:173,1,71.9999978027344,10|0,0:0|0:0,0:0:0:0:
361,212,46221,2,0,P|331:192|307:150,1,71.9999978027344,2|0,0:0|0:0,0:0:0:0:
224,16,46552,6,0,L|208:96,1,71.9999978027344,2|0,0:0|0:0,0:0:0:0:
112,224,46884,1,2,0:0:0:0:
76,56,47050,2,0,L|92:136,1,71.9999978027344,2|8,0:0|3:1,0:0:0:0:
20,254,47381,2,0,P|60:308|146:314,1,143.999995605469,2|0,0:0|0:0,0:0:0:0:
288,256,47878,6,0,L|208:240,1,71.9999978027344,4|0,0:0|0:0,0:0:0:0:
320,347,48210,2,0,P|352:331|384:283,1,71.9999978027344,2|0,0:0|0:0,0:0:0:0:
480,176,48541,2,0,L|464:256,1,71.9999978027344,10|0,0:0|0:0,0:0:0:0:
352,112,48873,2,0,L|368:192,1,71.9999978027344,10|8,0:0|3:1,0:0:0:0:
240,48,49204,5,2,0:0:0:0:
208,144,49370,1,2,0:0:0:0:
316,120,49536,1,2,0:0:0:0:
132,64,49702,1,2,0:0:0:0:
132,64,49867,2,0,L|52:80,1,71.9999978027344,8|8,0:0|3:1,0:0:0:0:
16,240,50199,1,8,0:0:0:0:
112,166,50364,1,8,0:0:0:0:
156,336,50530,5,2,3:1:0:0:
152,318,50612,1,0,3:1:0:0:
148,300,50696,2,0,L|132:236,1,35.9999989013672,2|0,3:1|3:1,0:0:0:0:
112,166,50862,1,2,3:1:0:0:
224,192,51027,1,2,0:0:0:0:
255,293,51193,1,2,0:0:0:0:
321,137,51359,2,0,P|293:106|253:89,1,71.9999978027344,2|8,3:1|0:0,0:0:0:0:
411,95,51690,6,0,P|451:86|486:60,1,71.9999978027344,2|0,3:1|0:0,0:0:0:0:
398,192,52022,2,0,P|385:231|390:274,1,71.9999978027344,2|0,3:1|0:0,0:0:0:0:
481,241,52353,1,2,3:1:0:0:
336,336,52519,2,0,L|256:320,1,71.9999978027344,10|0,0:0|3:1,0:0:0:0:
68,279,52851,2,0,L|148:263,1,71.9999978027344,8|2,0:0|0:0,0:0:0:0:
288,208,53182,5,2,3:1:0:0:
128,160,53348,1,8,3:1:0:0:
224,112,53514,1,2,3:1:0:0:
144,48,53679,1,2,3:1:0:0:
126,51,53761,1,0,3:1:0:0:
108,55,53844,1,0,3:1:0:0:
33,180,54011,2,0,L|113:164,1,71.9999978027344,2|8,3:1|3:1,0:0:0:0:
82,349,54342,6,0,L|66:269,1,71.9999978027344,2|0,3:1|0:0,0:0:0:0:
284,196,54674,2,0,L|268:276,1,71.9999978027344,2|0,3:1|3:1,0:0:0:0:
103,165,55005,2,0,L|119:117,1,35.9999989013672,2|0,3:1|3:1,0:0:0:0:
146,36,55171,1,10,3:1:0:0:
245,108,55834,5,6,0:1:0:0:
286,97,55916,1,0,0:0:0:0:
329,107,55999,1,0,0:0:0:0:
363,134,56082,1,0,0:0:0:0:
383,174,56166,2,0,L|448:167,3,44.0000013427735,8|0|0|0,0:1|0:0|0:0|0:0,0:0:0:0:
284,196,56497,1,2,0:1:0:0:
241,201,56580,1,0,0:0:0:0:
197,206,56663,1,0,0:0:0:0:
154,212,56746,1,0,0:0:0:0:
110,218,56829,2,0,L|129:155,3,44.0000013427735,8|0|0|0,0:1|0:0|0:0|0:0,0:0:0:0:
152,312,57160,5,2,0:1:0:0:
195,306,57243,1,0,0:0:0:0:
239,301,57326,1,0,0:0:0:0:
282,295,57409,1,0,0:0:0:0:
325,289,57492,2,0,L|306:352,3,44.0000013427735,8|0|0|0,0:1|0:0|0:0|0:0,0:0:0:0:
416,260,57823,1,2,0:1:0:0:
410,217,57906,1,0,0:0:0:0:
405,173,57989,1,0,0:0:0:0:
399,130,58072,1,0,0:0:0:0:
393,87,58155,2,0,L|456:105,3,44.0000013427735,8|0|0|0,0:1|0:0|0:0|0:0,0:0:0:0:
312,32,58486,5,2,0:1:0:0:
271,16,58568,1,0,0:0:0:0:
227,19,58651,1,0,0:0:0:0:
188,39,58734,1,0,0:0:0:0:
160,73,58818,2,0,L|224:89,3,44.0000013427735,8|0|0|0,0:1|0:0|0:0|0:0,0:0:0:0:
128,164,59149,2,0,L|85:153,3,44.0000013427735
224,185,59481,1,10,0:1:0:0:
112,304,59646,1,2,0:1:0:0:
256,368,59812,6,0,L|240:272,1,88.000002685547,2|0,0:1|0:0,0:0:0:0:
400,144,60143,2,0,L|385:230,1,88.000002685547,10|0,0:1|0:0,0:0:0:0:
396,328,60475,2,0,L|332:344,3,44.0000013427735,2|0|0|0,0:1|0:0|0:0|0:0,0:0:0:0:
428,236,60806,2,0,L|492:252,3,44.0000013427735,10|0|0|0,0:1|0:0|0:0|0:0,0:0:0:0:
400,144,61138,5,6,0:1:0:0:
356,151,61220,1,0,0:0:0:0:
313,159,61303,1,0,0:0:0:0:
270,167,61386,1,0,0:0:0:0:
226,175,61469,2,0,L|242:111,3,44.0000013427735,8|0|0|0,0:1|0:0|0:0|0:0,0:0:0:0:
272,272,61801,2,0,L|261:314,3,44.0000013427735
176,368,62132,2,0,P|128:368|80:336,1,88.000002685547,10|0,0:1|0:0,0:0:0:0:
137,185,62464,6,0,L|152:272,1,88.000002685547,2|0,0:1|0:0,0:0:0:0:
37,179,62795,1,10,0:1:0:0:
37,179,62961,2,0,P|71:108|184:98,1,176.000005371094,2|0,0:1|0:0,0:0:0:0:
270,167,63458,2,0,L|366:151,1,88.000002685547,10|0,0:1|0:0,0:0:0:0:
420,228,63790,5,2,0:1:0:0:
443,207,63872,1,0,0:0:0:0:
455,179,63955,1,0,0:0:0:0:
455,149,64038,1,0,0:0:0:0:
444,120,64121,2,0,L|460:56,3,44.0000013427735,10|0|0|0,0:1|0:0|0:0|0:0,0:0:0:0:
364,52,64453,1,2,0:1:0:0:
331,57,64535,1,0,0:0:0:0:
298,63,64618,1,0,0:0:0:0:
266,69,64701,1,0,0:0:0:0:
233,75,64784,2,0,L|245:26,3,44.0000013427735,10|0|0|0,0:1|0:0|0:0|0:0,0:0:0:0:
144,32,65116,6,0,B|128:96|128:96|160:208,1,176.000005371094,2|8,0:1|0:1,0:0:0:0:
204,356,65613,1,2,0:1:0:0:
260,183,65779,1,10,0:1:0:0:
291,159,65861,1,8,0:1:0:0:
329,148,65944,1,8,0:1:0:0:
368,152,66027,1,8,0:1:0:0:
404,169,66110,1,8,0:1:0:0:
430,197,66193,1,8,0:1:0:0:
446,234,66276,1,8,0:1:0:0:
448,269,66359,1,8,0:1:0:0:
446,295,66442,6,0,L|435:337,3,44.0000013427735,6|0|0|0,0:1|0:0|0:0|0:0,0:0:0:0:
342,301,66773,2,0,L|332:259,3,44.0000013427735,8|0|0|0,0:1|0:0|0:0|0:0,0:0:0:0:
256,352,67105,1,2,0:1:0:0:
212,344,67187,1,0,0:0:0:0:
169,336,67270,1,0,0:0:0:0:
126,328,67353,1,0,0:0:0:0:
82,320,67436,2,0,L|66:256,3,44.0000013427735,8|0|0|0,0:1|0:0|0:0|0:0,0:0:0:0:
160,240,67768,5,2,0:1:0:0:
167,196,67850,1,0,0:0:0:0:
175,153,67933,1,0,0:0:0:0:
183,110,68016,1,0,0:0:0:0:
191,66,68099,2,0,L|255:50,3,44.0000013427735,8|0|0|0,0:1|0:0|0:0|0:0,0:0:0:0:
104,12,68431,1,2,0:1:0:0:
96,55,68513,1,0,0:0:0:0:
88,98,68596,1,0,0:0:0:0:
80,141,68679,1,0,0:0:0:0:
73,186,68762,2,0,L|9:202,3,44.0000013427735,8|0|0|0,0:1|0:0|0:0|0:0,0:0:0:0:
160,240,69094,6,0,B|256:256|256:256|272:288,1,132.00000402832,2|0,0:1|0:0,0:0:0:0:
288,320,69425,2,0,P|320:288|384:288,1,88.000002685547,8|0,0:1|0:0,0:0:0:0:
348,189,69757,2,0,P|392:193|438:234,1,88.000002685547
384,16,70088,1,10,0:1:0:0:
504,123,70254,1,2,0:1:0:0:
504,123,70420,6,0,L|408:107,1,88.000002685547,2|0,0:1|0:0,0:0:0:0:
261,174,70751,2,0,L|347:188,1,88.000002685547,10|0,0:1|0:0,0:0:0:0:
320,85,71083,2,0,L|224:69,1,88.000002685547,2|0,0:1|0:0,0:0:0:0:
160,208,71414,1,10,0:1:0:0:
261,174,71580,1,2,0:1:0:0:
154,306,71746,6,0,P|106:290|74:242,1,88.000002685547,6|0,0:1|0:0,0:0:0:0:
128,112,72077,1,10,0:1:0:0:
248,296,72243,2,0,B|280:264|280:264|440:296,1,176.000005371094,2|0,0:1|0:0,0:0:0:0:
504,123,72740,2,0,L|408:139,1,88.000002685547,10|0,0:1|0:0,0:0:0:0:
334,240,73072,5,2,0:1:0:0:
290,232,73154,1,0,0:0:0:0:
247,224,73237,1,0,0:0:0:0:
204,216,73320,1,0,0:0:0:0:
160,208,73403,2,0,L|176:144,3,44.0000013427735,8|0|0|0,0:1|0:0|0:0|0:0,0:0:0:0:
72,224,73735,2,0,L|88:320,1,88.000002685547
266,138,74066,2,0,L|246:224,1,88.000002685547,10|0,0:1|0:0,0:0:0:0:
212,58,74398,6,0,P|260:42|324:58,1,88.000002685547,6|0,0:1|0:0,0:0:0:0:
448,96,74729,1,10,0:1:0:0:
266,138,74895,1,2,0:1:0:0:
428,192,75061,1,8,0:1:0:0:
244,232,75227,1,0,0:0:0:0:
411,287,75392,2,0,P|357:259|337:220,1,88.000002685547,10|0,0:1|0:0,0:0:0:0:
308,340,75724,5,10,0:1:0:0:
264,332,75806,1,8,0:1:0:0:
221,324,75889,1,8,0:1:0:0:
178,316,75972,1,8,0:1:0:0:
134,308,76055,2,0,L|150:244,3,44.0000013427735,10|0|0|0,0:1|0:0|0:0|0:0,0:0:0:0:
48,256,76387,1,10,0:1:0:0:
59,213,76469,1,8,0:1:0:0:
71,171,76552,1,8,0:1:0:0:
82,128,76635,1,8,0:1:0:0:
94,86,76718,2,0,L|78:22,3,44.0000013427735,10|0|0|0,0:1|0:0|0:0|0:0,0:0:0:0:
188,48,77050,6,0,P|232:32|272:40,1,68.0000012969971,6|0,0:0|0:0,0:0:0:0:
344,72,77381,1,2,0:0:0:0:
440,48,77547,1,2,3:1:0:0:
440,48,77713,2,0,L|426:114,1,68.0000012969971,10|0,0:0|0:0,0:0:0:0:
256,202,78044,1,2,3:1:0:0:
256,202,78210,2,0,L|242:135,1,68.0000012969971,10|0,0:0|0:0,0:0:0:0:
409,213,78541,1,2,3:1:0:0:
409,213,78707,2,0,L|395:279,1,68.0000012969971,10|0,0:0|0:0,0:0:0:0:
320,352,79039,1,2,3:1:0:0:
303,348,79121,1,0,0:0:0:0:
286,345,79204,2,0,L|238:361,1,34.0000006484985,2|0,3:1|3:1,0:0:0:0:
160,336,79370,2,0,B|176:288|176:288|160:208,1,102.000001945496,10|0,0:0|0:0,0:0:0:0:
160,207,79702,6,0,L|80:223,1,68.0000012969971,14|2,0:0|0:0,0:0:0:0:
180,111,80033,1,2,0:0:0:0:
180,111,80199,2,0,P|216:123|244:159,1,68.0000012969971,2|0,0:0|0:0,0:0:0:0:
256,240,80530,1,2,0:0:0:0:
336,176,80696,1,2,0:0:0:0:
336,176,80862,2,0,L|352:96,1,68.0000012969971,2|0,0:0|0:0,0:0:0:0:
436,72,81193,2,0,L|420:-8,1,68.0000012969971,2|0,0:0|0:0,0:0:0:0:
496,320,81690,6,0,B|462:306|462:306|432:333,1,64,2|2,0:0|0:0,0:0:0:0:
336,368,82353,5,14,0:1:0:0:
292,360,82435,1,0,0:0:0:0:
249,352,82518,1,0,0:0:0:0:
206,344,82601,1,0,0:0:0:0:
162,336,82685,2,0,L|146:272,3,44.0000013427735,10|0|0|0,0:1|0:0|0:0|0:0,0:0:0:0:
64,336,83016,1,2,0:1:0:0:
56,292,83098,1,0,0:0:0:0:
48,249,83181,1,0,0:0:0:0:
40,206,83264,1,0,0:0:0:0:
32,162,83348,2,0,L|96:146,3,44.0000013427735,10|0|0|0,0:1|0:0|0:0|0:0,0:0:0:0:
128,64,83679,6,0,L|170:74,3,44.0000013427735,2|0|0|0,0:1|0:0|0:0|0:0,0:0:0:0:
240,144,84011,2,0,L|282:133,3,44.0000013427735,10|0|0|0,0:1|0:0|0:0|0:0,0:0:0:0:
327,52,84342,1,2,0:1:0:0:
359,80,84424,1,0,0:0:0:0:
374,121,84507,1,0,0:0:0:0:
369,164,84590,1,0,0:0:0:0:
345,200,84674,2,0,L|329:264,3,44.0000013427735,10|0|0|0,0:1|0:0|0:0|0:0,0:0:0:0:
288,352,85005,5,2,0:1:0:0:
331,344,85087,1,0,0:0:0:0:
374,336,85170,1,0,0:0:0:0:
417,328,85253,1,0,0:0:0:0:
461,320,85337,2,0,L|445:256,3,44.0000013427735,10|0|0|0,0:1|0:0|0:0|0:0,0:0:0:0:
360,240,85668,1,2,0:1:0:0:
371,197,85750,1,0,0:0:0:0:
383,155,85833,1,0,0:0:0:0:
394,112,85916,1,0,0:0:0:0:
406,70,86000,2,0,L|470:54,3,44.0000013427735,10|0|0|0,0:1|0:0|0:0|0:0,0:0:0:0:
316,40,86331,5,10,0:1:0:0:
275,27,86413,1,0,0:0:0:0:
236,29,86496,1,0,0:0:0:0:
199,45,86579,1,0,0:0:0:0:
170,77,86664,1,10,0:1:0:0:
158,114,86747,1,0,0:0:0:0:
124,139,86829,1,0,0:0:0:0:
83,139,86912,1,0,0:0:0:0:
50,115,86995,1,10,0:1:0:0:
37,75,87078,1,0,0:0:0:0:
50,37,87161,1,0,0:0:0:0:
83,13,87244,1,0,0:0:0:0:
124,13,87326,2,0,B|139:88|139:88|124:118|124:118|139:192,1,180.000006866455,10|0,0:1|0:1,0:0:0:0:
155,283,87657,1,14,0:1:0:0:
