osu file format v14

[General]
AudioFilename: audio.ogg
AudioLeadIn: 0
PreviewTime: 55793
Countdown: 0
SampleSet: Normal
StackLeniency: 0.4
Mode: 0
LetterboxInBreaks: 0
WidescreenStoryboard: 1

[Editor]
Bookmarks: 144,18707,24011,34619,45226,55834,87657
DistanceSpacing: 1.2
BeatDivisor: 4
GridSize: 4
TimelineZoom: 0.9999998

[Metadata]
Title:CHOIR JAIL (TV Size)
TitleUnicode:CHOIR JAIL (TV Size)
Artist:Suzuki Konomi
ArtistUnicode:鈴木このみ
Creator:Astronic
Version:HARD
Source:黄昏乙女×アムネジア
Tags:tasogare otome streams bursts dusk maiden of amnesia opening theme japanese anime metal rock jrock j-rock life of dash female vocals
BeatmapID:3055879
BeatmapSetID:1490776

[Difficulty]
HPDrainRate:4
CircleSize:3.6
OverallDifficulty:7
ApproachRate:8
SliderMultiplier:1.4
SliderTickRate:1

[Events]
//Background and Video events
0,0,"bg.jpg",0,0
//Break Periods
//Storyboard Layer 0 (Background)
//Storyboard Layer 1 (Fail)
//Storyboard Layer 2 (Pass)
//Storyboard Layer 3 (Foreground)
//Storyboard Layer 4 (Overlay)
//Storyboard Sound Samples

[TimingPoints]
144,331.491712707182,4,1,1,50,1,0
144,-111.111111111111,4,1,1,50,0,0
2795,-111.111111111111,4,1,1,60,0,0
15972,-111.111111111111,4,1,1,5,0,0
16055,-111.111111111111,4,1,1,60,0,0
18707,-100,4,3,1,85,0,1
21359,-100,4,3,1,90,0,1
24011,-100,4,1,1,70,0,0
24260,-100,4,1,1,5,0,0
24342,-100,4,1,1,70,0,0
29563,-100,4,1,1,5,0,0
29646,-100,4,1,1,70,0,0
34536,-100,4,1,1,5,0,0
34619,-100,4,1,1,75,0,0
39840,-100,4,1,1,5,0,0
39923,-100,4,1,1,75,0,0
45226,-111.111111111111,4,1,1,60,0,0
50530,-111.111111111111,4,1,1,65,0,0
53182,-100,4,1,1,65,0,0
54342,-100,4,1,1,70,0,0
54674,-100,4,1,1,75,0,0
55005,-100,4,1,1,80,0,0
55834,-90.9090909090909,4,3,1,90,0,1
74646,-90.9090909090909,4,3,1,5,0,1
74729,-90.9090909090909,4,3,1,90,0,1
77050,-100,4,1,1,75,0,0
82353,-90.9090909090909,4,3,1,90,0,1
86331,-90.9090909090909,4,3,1,100,0,1
87657,-100,4,3,1,100,0,0

[Colours]
Combo1 : 129,129,129
Combo2 : 137,67,65
Combo3 : 81,132,189

[HitObjects]
16,48,144,6,0,L|80:64,1,62.9999980773926,2|2,0:0|0:0,0:0:0:0:
128,128,475,1,2,0:0:0:0:
128,128,641,2,0,P|192:96|272:112,1,125.999996154785,2|2,0:0|0:0,0:0:0:0:
320,128,1138,1,2,0:0:0:0:
320,128,1304,6,0,L|400:112,1,62.9999980773926,2|0,0:0|0:0,0:0:0:0:
416,48,1635,1,2,0:0:0:0:
416,48,1801,1,2,0:0:0:0:
496,176,2132,2,0,L|480:240,1,62.9999980773926,2|2,0:0|0:0,0:0:0:0:
480,320,2464,2,0,P|432:304|416:288,1,62.9999980773926,2|2,0:0|0:0,0:0:0:0:
336,224,2795,5,6,0:0:0:0:
336,224,5447,1,2,0:0:0:0:
336,224,8099,1,2,0:0:0:0:
336,224,10751,1,2,0:0:0:0:
160,352,13072,1,2,3:1:0:0:
80,224,13403,5,10,0:0:0:0:
80,224,13569,1,8,0:0:0:0:
205,130,13900,1,10,0:0:0:0:
205,130,14066,1,8,0:0:0:0:
49,120,14398,1,8,0:0:0:0:
49,120,14564,1,8,0:0:0:0:
174,35,14895,5,8,0:0:0:0:
174,35,15061,1,8,0:0:0:0:
304,112,15392,2,0,L|288:64,2,31.4999990386963,0|0|0,3:0|3:0|3:0,0:0:0:0:
272,224,15724,2,0,B|256:256|256:256|272:320,1,94.499997116089,0|0,3:0|0:0,0:0:0:0:
304,320,16055,6,0,L|384:336,1,62.9999980773926,2|2,3:1|3:1,0:0:0:0:
448,352,16387,1,2,3:1:0:0:
448,352,16552,1,10,0:0:0:0:
496,288,16718,1,0,3:1:0:0:
494,280,16800,1,0,3:1:0:0:
492,272,16883,1,2,3:1:0:0:
480,192,17050,1,10,0:0:0:0:
480,192,17215,6,0,L|464:128,1,62.9999980773926,2|0,3:1|0:0,0:0:0:0:
492,52,17547,1,2,3:1:0:0:
272,112,18044,2,0,B|224:96|224:96|208:80|208:80|144:64,1,125.999996154785,2|2,0:0|0:0,0:0:0:0:
256,208,18707,6,0,B|360:192|360:192|384:144,1,140,14|10,0:1|0:1,0:0:0:0:
416,320,19370,2,0,L|464:304,2,35,2|0|0,0:1|0:0|0:0,0:0:0:0:
340,358,19702,1,10,0:1:0:0:
331,357,19784,1,0,0:0:0:0:
322,355,19867,1,0,0:0:0:0:
240,320,20033,6,0,P|176:304|96:336,1,140,2|10,0:1|0:1,0:0:0:0:
64,160,20696,2,0,L|0:176,2,35,2|0|0,0:1|0:0|0:0,0:0:0:0:
144,135,21027,1,10,0:1:0:0:
145,126,21109,1,0,0:0:0:0:
147,117,21192,1,0,0:0:0:0:
144,32,21359,6,0,L|224:48,1,70,2|0,0:1|0:0,0:0:0:0:
272,112,21690,2,0,L|352:96,1,70,10|0,0:1|0:0,0:0:0:0:
416,80,22022,2,0,L|432:32,2,35,2|0|0,0:1|0:0|0:0,0:0:0:0:
448,160,22353,1,10,0:1:0:0:
446,169,22436,1,0,0:0:0:0:
445,178,22518,1,0,0:0:0:0:
384,236,22685,6,0,L|333:225,2,35,10|0|0,0:1|0:0|0:0,0:0:0:0:
406,316,23016,1,10,0:1:0:0:
404,325,23099,1,0,0:0:0:0:
403,334,23181,1,0,0:0:0:0:
320,352,23348,2,0,L|240:336,1,70,10|0,0:1|0:0,0:0:0:0:
188,255,23679,1,10,0:1:0:0:
190,246,23762,1,8,0:1:0:0:
191,237,23845,1,8,0:1:0:0:
192,228,23928,1,8,0:1:0:0:
195,220,24011,6,0,L|307:204,1,105,14|0,0:0|0:0,0:0:0:0:
340,198,24342,1,10,0:0:0:0:
407,248,24508,2,0,P|423:200|412:159,1,70,2|0,0:0|3:0,0:0:0:0:
469,112,24840,2,0,P|446:66|409:45,1,70,2|8,3:1|0:0,0:0:0:0:
359,13,25171,1,2,0:0:0:0:
208,64,25503,5,0,3:0:0:0:
128,32,25668,1,8,0:0:0:0:
48,64,25834,1,2,0:0:0:0:
48,64,26000,2,0,L|32:144,1,70,2|0,0:0|3:0,0:0:0:0:
80,208,26331,2,0,L|64:288,1,70,10|0,0:0|0:0,0:0:0:0:
112,352,26663,6,0,B|224:336|224:336|256:352,1,140,2|10,3:1|0:0,0:0:0:0:
320,384,27160,1,2,0:0:0:0:
224,240,27492,2,0,L|240:160,1,70,2|8,3:1|0:0,0:0:0:0:
186,104,27823,6,0,P|234:88|321:147,1,140,2|0,0:0|3:0,0:0:0:0:
320,208,28320,1,8,0:0:0:0:
304,288,28486,1,2,0:0:0:0:
304,288,28652,2,0,L|224:304,1,70,2|0,0:0|3:0,0:0:0:0:
176,352,28983,2,0,L|96:336,1,70,10|0,0:0|0:0,0:0:0:0:
32,256,29315,6,0,L|16:144,1,105,6|0,3:1|0:0,0:0:0:0:
9,110,29646,1,10,0:0:0:0:
48,32,29812,2,0,L|128:48,1,70,2|0,0:0|0:0,0:0:0:0:
192,96,30143,2,0,L|272:80,1,70,2|8,3:1|0:0,0:0:0:0:
336,64,30475,1,2,0:0:0:0:
240,208,30806,5,0,3:0:0:0:
240,208,30972,1,8,0:0:0:0:
208,288,31138,1,2,0:0:0:0:
256,352,31304,2,0,L|336:336,1,70,2|0,0:0|3:0,0:0:0:0:
368,256,31635,2,0,L|448:272,1,70,10|0,0:0|0:0,0:0:0:0:
512,176,31967,6,0,B|464:160|464:160|448:64,1,140,6|10,3:1|0:0,0:0:0:0:
368,16,32464,2,0,P|320:0|288:0,1,70,2|0,3:1|3:0,0:0:0:0:
224,48,32795,1,2,3:1:0:0:
144,32,32962,1,8,0:0:0:0:
135,30,33044,1,8,0:0:0:0:
126,29,33127,1,2,3:1:0:0:
16,160,33458,5,2,3:1:0:0:
80,320,33790,1,2,3:1:0:0:
160,304,33956,2,0,L|176:256,3,35,10|8|2|2,0:0|0:0|3:1|3:1,0:0:0:0:
208,256,34287,2,0,P|256:240|320:256,1,105,4|0,0:0|0:0,0:0:0:0:
352,272,34619,6,0,L|432:256,1,70,2|0,3:1|3:1,0:0:0:0:
480,192,34950,1,10,3:1:0:0:
480,192,35116,2,0,L|400:176,1,70,2|0,0:0|0:0,0:0:0:0:
328,161,35447,1,2,3:1:0:0:
224,48,35779,6,0,L|304:32,1,70,2|0,3:1|0:0,0:0:0:0:
368,16,36110,2,0,L|384:64,2,35,0|0|8,3:1|3:1|3:1,0:0:0:0:
450,16,36442,1,2,0:0:0:0:
450,16,36608,2,0,L|471:92,1,70,2|0,0:0|3:1,0:0:0:0:
495,171,36939,2,0,L|479:251,1,70,10|0,3:1|0:0,0:0:0:0:
464,320,37271,6,0,L|512:336,2,35,2|0|0,3:1|3:1|3:1,0:0:0:0:
381,353,37602,1,10,3:1:0:0:
381,353,37768,2,0,P|333:337|285:337,1,70,2|0,0:0|0:0,0:0:0:0:
224,352,38099,2,0,P|176:368|144:368,1,70,2|0,3:1|0:0,0:0:0:0:
80,352,38431,1,2,3:1:0:0:
32,192,38762,5,0,3:1:0:0:
33,183,38844,1,0,3:1:0:0:
35,174,38928,2,0,L|115:158,1,70,8|0,3:1|0:0,0:0:0:0:
160,96,39260,2,0,L|240:112,1,70,2|0,0:0|3:1,0:0:0:0:
293,163,39591,2,0,P|311:115|293:51,1,105,10|0,3:1|0:0,0:0:0:0:
272,32,39923,6,0,L|192:16,1,70,2|0,3:1|3:1,0:0:0:0:
144,80,40254,2,0,L|64:96,1,70,10|0,3:1|0:0,0:0:0:0:
16,160,40585,2,0,P|32:192|32:240,1,70,2|0,0:0|3:1,0:0:0:0:
16,304,40917,1,2,0:0:0:0:
80,352,41083,1,0,3:1:0:0:
144,304,41248,5,2,3:1:0:0:
152,305,41330,1,0,3:1:0:0:
161,307,41414,2,0,L|256:320,1,70,0|8,3:1|3:1,0:0:0:0:
320,336,41746,1,2,0:0:0:0:
400,352,41911,2,0,L|416:288,3,35,2|0|0|0,3:1|3:1|3:1|3:1,0:0:0:0:
422,277,42243,1,8,3:1:0:0:
256,224,42574,6,0,P|240:192|240:128,1,70,2|0,3:1|3:1,0:0:0:0:
144,144,42906,2,0,P|155:110|200:64,1,70,10|0,3:1|0:0,0:0:0:0:
256,16,43237,2,0,L|336:32,1,70,2|0,0:0|3:1,0:0:0:0:
464,64,43569,1,2,0:0:0:0:
384,96,43735,1,0,3:1:0:0:
448,176,43900,6,0,L|432:256,1,70,2|2,3:1|3:1,0:0:0:0:
384,320,44232,1,8,3:1:0:0:
304,272,44398,1,2,0:0:0:0:
224,320,44563,2,0,L|240:368,2,35,0|0|0,3:1|3:1|3:1,0:0:0:0:
124,272,44895,1,8,3:1:0:0:
125,263,44977,1,8,3:1:0:0:
127,254,45061,6,0,L|131:206,2,35,8|8|12,3:1|3:1|0:0,0:0:0:0:
208,48,45558,2,0,L|144:64,1,62.9999980773926,2|0,0:0|0:0,0:0:0:0:
80,16,45889,2,0,L|64:80,1,62.9999980773926,10|0,0:0|0:0,0:0:0:0:
0,128,46221,2,0,L|16:208,1,62.9999980773926,2|0,0:0|0:0,0:0:0:0:
64,256,46552,6,0,P|112:288|192:272,1,125.999996154785,2|2,0:0|0:0,0:0:0:0:
240,240,47050,1,2,0:0:0:0:
352,352,47381,2,0,P|384:304|448:288,1,125.999996154785,2|0,0:0|0:0,0:0:0:0:
512,192,47878,5,4,0:0:0:0:
464,48,48210,2,0,L|400:64,1,62.9999980773926,2|0,0:0|0:0,0:0:0:0:
352,128,48541,2,0,L|288:112,1,62.9999980773926,10|0,0:0|0:0,0:0:0:0:
240,48,48873,2,0,L|176:64,1,62.9999980773926,10|8,0:0|3:1,0:0:0:0:
106,85,49204,5,2,0:0:0:0:
106,85,49370,1,2,0:0:0:0:
156,156,49536,1,2,0:0:0:0:
208,224,49702,2,0,L|288:240,2,62.9999980773926,2|8|8,0:0|0:0|3:1,0:0:0:0:
160,288,50199,2,0,L|96:304,1,62.9999980773926,8|8,0:0|0:0,0:0:0:0:
33,265,50530,6,0,P|22:305|33:343,2,62.9999980773926,2|2|2,3:1|3:1|3:1,0:0:0:0:
80,208,51027,1,2,0:0:0:0:
32,144,51193,1,2,0:0:0:0:
80,80,51359,1,2,3:1:0:0:
224,48,51690,6,0,L|304:64,1,62.9999980773926,2|0,3:1|0:0,0:0:0:0:
320,128,52022,2,0,L|400:112,1,62.9999980773926,2|0,3:1|0:0,0:0:0:0:
464,96,52353,1,2,3:1:0:0:
512,208,52519,2,0,B|480:240|480:240|510:322,1,125.999996154785,10|8,0:0|0:0,0:0:0:0:
368,368,53182,5,2,3:1:0:0:
369,360,53264,1,0,3:1:0:0:
371,352,53347,1,8,3:1:0:0:
320,288,53514,1,2,3:1:0:0:
272,224,53679,2,0,L|288:128,1,70,2|0,3:1|3:1,0:0:0:0:
352,96,54011,1,2,3:1:0:0:
350,88,54093,1,8,3:1:0:0:
349,79,54176,1,8,3:1:0:0:
288,16,54342,1,2,3:1:0:0:
192,176,54674,5,2,3:1:0:0:
320,288,55005,1,2,3:1:0:0:
192,320,55170,1,10,3:1:0:0:
488,98,55834,6,0,P|440:66|344:82,1,154.000004699707,6|8,0:1|0:1,0:0:0:0:
272,128,56331,1,0,0:0:0:0:
192,80,56497,2,0,L|208:32,2,38.5000011749268,2|0|0,0:1|0:0|0:0,0:0:0:0:
112,112,56829,1,8,0:1:0:0:
115,130,56911,1,0,0:0:0:0:
119,149,56994,1,0,0:0:0:0:
48,192,57160,6,0,L|80:368,1,154.000004699707,2|8,0:1|0:1,0:0:0:0:
160,320,57657,1,0,0:0:0:0:
249,297,57823,2,0,L|265:249,2,38.5000011749268,2|0|0,0:1|0:0|0:0,0:0:0:0:
336,352,58155,1,8,0:1:0:0:
332,333,58238,1,0,0:0:0:0:
329,315,58320,1,0,0:0:0:0:
416,288,58486,6,0,P|448:240|432:144,1,154.000004699707,2|8,0:1|0:1,0:0:0:0:
368,80,58983,1,0,0:0:0:0:
288,112,59149,2,0,L|240:128,2,38.5000011749268
240,32,59481,1,10,0:1:0:0:
160,64,59646,1,2,0:1:0:0:
80,96,59812,6,0,L|64:48,2,38.5000011749268,2|0|0,0:1|0:0|0:0,0:0:0:0:
32,176,60143,1,10,0:1:0:0:
37,194,60225,1,0,0:0:0:0:
42,213,60308,1,0,0:0:0:0:
64,304,60475,2,0,L|0:320,2,38.5000011749268,2|0|0,0:1|0:0|0:0,0:0:0:0:
160,288,60806,1,10,0:1:0:0:
178,291,60888,1,0,0:0:0:0:
197,295,60971,1,0,0:0:0:0:
272,352,61138,6,0,P|291:286|236:209,1,154.000004699707,6|8,0:1|0:1,0:0:0:0:
172,164,61635,1,0,0:0:0:0:
100,104,61801,2,0,P|146:74|184:72,1,77.0000023498536
256,32,62132,2,0,L|336:48,1,77.0000023498536,10|0,0:1|0:0,0:0:0:0:
416,16,62464,6,0,L|432:96,1,77.0000023498536,2|0,0:1|0:0,0:0:0:0:
496,160,62795,1,10,0:1:0:0:
480,256,62961,2,0,P|400:240|336:272,1,154.000004699707,2|0,0:1|0:0,0:0:0:0:
272,336,63458,1,10,0:1:0:0:
253,332,63540,1,0,0:0:0:0:
234,328,63623,1,0,0:0:0:0:
144,352,63790,6,0,L|128:272,1,77.0000023498536,2|0,0:1|0:0,0:0:0:0:
32,256,64121,2,0,L|48:160,1,77.0000023498536,10|0,0:1|0:0,0:0:0:0:
64,96,64453,2,0,L|16:80,2,38.5000011749268,2|0|0,0:1|0:0|0:0,0:0:0:0:
136,156,64784,2,0,L|184:140,2,38.5000011749268,10|0|0,0:1|0:0|0:0,0:0:0:0:
144,16,65116,6,0,L|304:64,1,154.000004699707,2|8,0:1|0:1,0:0:0:0:
384,96,65613,1,2,0:1:0:0:
272,160,65779,2,0,L|288:240,1,77.0000023498536,10|8,0:1|0:1,0:0:0:0:
360,306,66110,1,8,0:1:0:0:
378,302,66192,1,8,0:1:0:0:
397,298,66276,1,8,0:1:0:0:
415,293,66358,1,8,0:1:0:0:
432,288,66442,6,0,P|480:240|480:144,1,154.000004699707,6|8,0:1|0:1,0:0:0:0:
464,64,66939,1,0,0:0:0:0:
368,80,67105,2,0,L|384:128,2,38.5000011749268,2|0|0,0:1|0:0|0:0,0:0:0:0:
272,48,67436,1,8,0:1:0:0:
253,44,67518,1,0,0:0:0:0:
234,40,67601,1,0,0:0:0:0:
144,16,67768,6,0,B|128:64|128:64|144:112|144:112|128:176,1,154.000004699707,2|8,0:1|0:1,0:0:0:0:
48,208,68265,1,0,0:0:0:0:
48,304,68431,2,0,L|64:352,2,38.5000011749268,2|0|0,0:1|0:0|0:0,0:0:0:0:
144,320,68762,1,8,0:1:0:0:
162,323,68844,1,0,0:0:0:0:
181,327,68927,1,0,0:0:0:0:
256,240,69094,6,0,P|304:224|400:272,1,154.000004699707,2|8,0:1|0:1,0:0:0:0:
432,180,69591,1,0,0:0:0:0:
460,91,69757,2,0,P|404:74|380:45,1,77.0000023498536
320,0,70088,1,10,0:1:0:0:
256,64,70254,1,2,0:1:0:0:
176,16,70420,6,0,P|166:89|239:156,1,154.000004699707,2|10,0:1|0:1,0:0:0:0:
384,208,71083,1,2,0:1:0:0:
272,352,71414,1,10,0:1:0:0:
192,304,71580,1,2,0:1:0:0:
88,376,71746,6,0,L|104:280,1,77.0000023498536,6|0,0:1|0:0,0:0:0:0:
112,208,72077,1,10,0:1:0:0:
96,112,72243,2,0,B|128:80|128:80|240:96,1,154.000004699707,2|0,0:1|0:0,0:0:0:0:
304,160,72740,1,10,0:1:0:0:
322,156,72822,1,0,0:0:0:0:
341,152,72905,1,0,0:0:0:0:
448,96,73072,6,0,L|416:256,1,154.000004699707,2|8,0:1|0:1,0:0:0:0:
340,296,73569,1,0,0:0:0:0:
264,348,73735,2,0,P|224:328|176:328,1,77.0000023498536
104,296,74066,2,0,L|88:216,1,77.0000023498536,10|0,0:1|0:0,0:0:0:0:
12,104,74398,6,0,L|140:120,1,115.50000352478,6|0,0:1|0:0,0:0:0:0:
164,92,74729,1,10,0:1:0:0:
244,48,74895,1,2,0:1:0:0:
320,160,75061,2,0,L|240:176,1,77.0000023498536,8|0,0:1|0:0,0:0:0:0:
336,64,75392,2,0,L|416:80,1,77.0000023498536,10|0,0:1|0:0,0:0:0:0:
496,128,75724,6,0,L|512:80,2,38.5000011749268,10|8|8,0:1|0:1|0:1,0:0:0:0:
416,192,76056,1,10,0:1:0:0:
420,210,76138,1,0,0:0:0:0:
424,229,76221,1,0,0:0:0:0:
408,324,76387,2,0,L|456:340,2,38.5000011749268,10|8|8,0:1|0:1|0:1,0:0:0:0:
316,342,76718,1,10,0:1:0:0:
297,345,76800,1,0,0:0:0:0:
278,348,76884,1,0,0:0:0:0:
259,350,76966,1,0,0:0:0:0:
240,352,77050,6,0,P|192:320|112:320,1,140,6|2,0:0|0:0,0:0:0:0:
32,352,77547,1,2,3:1:0:0:
32,352,77713,1,10,0:0:0:0:
144,224,78044,1,2,3:1:0:0:
144,224,78210,1,10,0:0:0:0:
48,80,78541,5,2,3:1:0:0:
48,80,78707,1,10,0:0:0:0:
212,58,79039,2,0,L|308:42,1,70,2|2,3:1|3:1,0:0:0:0:
363,28,79370,1,10,0:0:0:0:
240,144,79702,6,0,L|224:224,1,70,14|2,0:0|0:0,0:0:0:0:
208,288,80033,1,2,0:0:0:0:
208,288,80199,2,0,L|288:304,1,70,2|0,0:0|0:0,0:0:0:0:
336,368,80530,1,2,0:0:0:0:
416,336,80696,1,2,0:0:0:0:
416,336,80862,6,0,P|416:272|464:208,1,140,2|2,0:0|0:0,0:0:0:0:
288,32,81690,2,0,L|144:48,1,140,2|2,0:0|0:0,0:0:0:0:
32,192,82353,6,0,L|192:224,1,154.000004699707,14|10,0:1|0:1,0:0:0:0:
352,288,83016,2,0,L|336:336,2,38.5000011749268,2|0|0,0:1|0:0|0:0,0:0:0:0:
443,248,83348,1,10,0:1:0:0:
439,229,83430,1,0,0:0:0:0:
436,210,83513,1,0,0:0:0:0:
496,128,83679,6,0,P|416:112|352:64,1,154.000004699707,2|10,0:1|0:1,0:0:0:0:
176,16,84342,2,0,L|192:64,2,38.5000011749268,2|0|0,0:1|0:0|0:0,0:0:0:0:
96,64,84674,1,10,0:1:0:0:
92,82,84756,1,0,0:0:0:0:
88,101,84839,1,0,0:0:0:0:
16,144,85005,6,0,L|48:304,1,154.000004699707,2|10,0:1|0:1,0:0:0:0:
208,368,85668,2,0,L|192:320,2,38.5000011749268,2|0|0,0:1|0:0|0:0,0:0:0:0:
288,320,86000,1,10,0:1:0:0:
306,323,86082,1,0,0:0:0:0:
325,327,86165,1,0,0:0:0:0:
416,336,86331,6,0,L|400:272,3,38.5000011749268,10|0|0|0,0:1|0:0|0:0|0:0,0:0:0:0:
448,272,86663,2,0,L|457:234,3,38.5000011749268,10|0|0|0,0:1|0:0|0:0|0:0,0:0:0:0:
416,208,86994,2,0,L|406:170,3,38.5000011749268,10|0|0|0,0:1|0:0|0:0|0:0,0:0:0:0:
432,144,87326,1,10,0:1:0:0:
433,136,87408,1,8,0:1:0:0:
434,128,87491,1,8,0:1:0:0:
436,121,87574,1,8,0:1:0:0:
437,113,87657,1,14,0:1:0:0:
