osu file format v14

[General]
AudioFilename: audio.ogg
AudioLeadIn: 0
PreviewTime: 55793
Countdown: 0
SampleSet: Drum
StackLeniency: 0.4
Mode: 0
LetterboxInBreaks: 0
WidescreenStoryboard: 0

[Editor]
Bookmarks: 144,18707,24011,34619,45226,55834,87657
DistanceSpacing: 1
BeatDivisor: 4
GridSize: 4
TimelineZoom: 1.9

[Metadata]
Title:CHOIR JAIL (TV Size)
TitleUnicode:CHOIR JAIL (TV Size)
Artist:Suzuki Konomi
ArtistUnicode:鈴木このみ
Creator:Astronic
Version:FATE
Source:黄昏乙女×アムネジア
Tags:tasogare otome streams bursts dusk maiden of amnesia opening theme japanese anime metal rock jrock j-rock life of dash female vocals
BeatmapID:3055878
BeatmapSetID:1490776

[Difficulty]
HPDrainRate:6
CircleSize:4.5
OverallDifficulty:9.2
ApproachRate:9.4
SliderMultiplier:1.81
SliderTickRate:1

[Events]
//Background and Video events
0,0,"bg.jpg",0,0
//Break Periods
//Storyboard Layer 0 (Background)
//Storyboard Layer 1 (Fail)
//Storyboard Layer 2 (Pass)
//Storyboard Layer 3 (Foreground)
//Storyboard Layer 4 (Overlay)
//Storyboard Sound Samples

[TimingPoints]
144,331.491712707182,4,1,1,50,1,0
144,-117.647058823529,4,1,1,50,0,0
2795,-212.765957446809,4,1,1,60,0,0
13403,-142.857142857143,4,1,1,60,0,0
15392,-125,4,1,1,60,0,0
15972,-125,4,1,1,5,0,0
16055,-125,4,1,1,60,0,0
17215,-100,4,1,1,60,0,0
17464,-100,4,1,1,5,0,0
17547,-100,4,1,1,60,0,0
18044,-250,4,1,1,60,0,0
18707,-86.9565217391304,4,3,1,85,0,1
21359,-86.9565217391304,4,3,1,90,0,1
22685,-80,4,3,1,90,0,1
24011,-111.111111111111,4,1,1,70,0,0
29563,-111.111111111111,4,1,1,5,0,0
29646,-111.111111111111,4,1,1,70,0,0
33127,-86.9565217391304,4,1,1,70,0,0
33376,-86.9565217391304,4,1,1,5,0,0
33458,-86.9565217391304,4,1,1,70,0,0
33707,-86.9565217391304,4,1,1,5,0,0
33790,-86.9565217391304,4,1,1,70,0,0
33873,-86.9565217391304,4,1,1,5,0,0
33956,-86.9565217391304,4,1,1,70,0,0
34536,-86.9565217391304,4,1,1,70,0,0
34619,-100,4,1,1,75,0,0
45226,-111.111111111111,4,1,1,60,0,0
46801,-111.111111111111,4,1,1,5,0,0
46884,-111.111111111111,4,1,1,60,0,0
50530,-100,4,1,1,65,0,0
53265,-100,4,1,1,65,0,0
53348,-100,4,1,1,65,0,0
54342,-80,4,1,1,70,0,0
54591,-80,4,1,1,5,0,0
54674,-80,4,1,1,75,0,0
54757,-80,4,1,1,5,0,0
54840,-80,4,1,1,75,0,0
55005,-80,4,1,1,80,0,0
55254,-80,4,1,1,5,0,0
55834,-86.9565217391304,4,3,1,90,0,1
65116,-80,4,3,1,90,0,1
71746,-76.9230769230769,4,3,1,90,0,1
74646,-76.9230769230769,4,3,1,5,0,1
74729,-76.9230769230769,4,3,1,90,0,1
77050,-100,4,1,1,75,0,0
77298,-100,4,1,1,5,0,0
77381,-100,4,1,1,75,0,0
79619,-100,4,1,1,5,0,0
79702,-100,4,1,1,75,0,0
81690,-200,4,1,1,75,0,0
81939,-200,4,1,1,5,0,0
82022,-100,4,1,1,75,0,0
82271,-100,4,1,1,5,0,0
82353,-71.4285714285714,4,3,1,90,0,1
86331,-66.6666666666667,4,3,1,100,0,1
87657,-100,4,3,1,100,0,0
87740,-100,4,3,1,5,0,0

[Colours]
Combo1 : 129,129,129
Combo2 : 137,67,65
Combo3 : 81,132,189

[HitObjects]
208,128,144,5,2,0:0:0:0:
312,200,309,1,2,0:0:0:0:
296,112,475,1,2,0:0:0:0:
223,220,641,2,0,P|174:216|148:196,1,76.925001467228,2|0,0:0|0:0,0:0:0:0:
121,110,972,1,2,0:0:0:0:
208,128,1138,1,2,0:0:0:0:
72,264,1304,2,0,L|56:184,1,76.925001467228,2|0,0:0|0:0,0:0:0:0:
37,96,1635,1,2,0:0:0:0:
152,200,1801,2,0,L|168:280,1,76.925001467228,2|0,0:0|0:0,0:0:0:0:
192,368,2132,5,2,0:0:0:0:
288,336,2298,1,2,0:0:0:0:
352,208,2464,1,2,0:0:0:0:
275,39,2630,1,2,0:0:0:0:
381,297,2795,6,0,B|452:274|479:188|436:120|370:101|318:121|318:121|260:153|184:123|167:50|191:3,1,510.419992211609,6|2,0:0|0:0,0:0:0:0:
92,2,5447,6,0,P|207:217|426:136,1,510.419992211609,2|2,0:0|0:0,0:0:0:0:
428,52,7768,1,2,0:0:0:0:
346,94,8099,6,0,B|317:146|249:163|198:126|182:76|182:76|158:11|71:-10|10:30|-14:93|17:161,1,510.419992211609,2|0,0:0|0:0,0:0:0:0:
98,113,10420,1,2,0:0:0:0:
292,170,10751,6,0,B|371:225|490:157|473:26|386:-17|311:6|311:6|311:6|311:6|180:38,1,510.419992211609,2|2,0:0|0:0,0:0:0:0:
346,94,13072,1,2,3:1:0:0:
160,240,13403,5,10,0:0:0:0:
408,312,13569,2,0,P|424:280|424:248,1,63.3499980667115,8|2,0:0|0:0,0:0:0:0:
186,36,13900,5,10,0:0:0:0:
267,296,14067,2,0,P|298:286|321:266,1,63.3499980667115,8|0,0:0|0:0,0:0:0:0:
464,64,14398,5,8,0:0:0:0:
144,144,14563,2,0,L|160:224,1,63.3499980667115,8|0,0:0|0:0,0:0:0:0:
368,165,14895,5,8,0:0:0:0:
94,63,15061,2,0,P|66:94|51:130,1,63.3499980667115,8|0,0:0|0:0,0:0:0:0:
304,32,15392,5,0,3:0:0:0:
307,43,15474,1,0,3:0:0:0:
310,53,15558,2,0,L|320:87,1,36.2,0|0,3:0|3:0,0:0:0:0:
368,165,15724,2,0,P|320:181|256:149,1,108.6,0|0,3:0|0:0,0:0:0:0:
224,80,16055,5,2,3:1:0:0:
208,304,16221,1,2,3:1:0:0:
64,176,16387,1,2,3:1:0:0:
304,256,16552,1,10,0:0:0:0:
300,273,16634,1,0,3:1:0:0:
296,291,16718,2,0,L|286:336,1,36.2,0|0,3:1|3:1,0:0:0:0:
160,160,16884,1,2,3:1:0:0:
156,142,16966,1,0,3:1:0:0:
152,124,17050,2,0,L|144:159,1,36.2,10|0,0:0|0:0,0:0:0:0:
24,328,17215,6,0,P|56:280|152:264,1,135.75,2|0,3:1|0:0,0:0:0:0:
208,304,17547,1,2,3:1:0:0:
320,87,17713,1,8,0:0:0:0:
242,208,18044,6,0,P|270:179|305:167,1,72.4,2|2,0:0|0:0,0:0:0:0:
320,256,18707,5,14,0:1:0:0:
363,286,18790,1,0,0:0:0:0:
415,286,18873,1,0,0:0:0:0:
457,256,18956,1,0,0:0:0:0:
473,206,19039,1,10,0:1:0:0:
457,157,19121,1,0,0:0:0:0:
415,126,19204,1,0,0:0:0:0:
363,126,19287,1,0,0:0:0:0:
320,157,19370,1,2,0:1:0:0:
304,206,19453,1,0,0:0:0:0:
319,255,19536,1,0,0:0:0:0:
303,305,19619,1,0,0:0:0:0:
261,335,19702,1,10,0:1:0:0:
209,335,19785,1,0,0:0:0:0:
167,305,19867,1,0,0:0:0:0:
150,255,19950,1,0,0:0:0:0:
167,206,20033,1,2,0:1:0:0:
209,175,20115,1,0,0:0:0:0:
239,132,20198,1,0,0:0:0:0:
240,80,20281,1,0,0:0:0:0:
208,38,20364,1,10,0:1:0:0:
159,22,20446,1,0,0:0:0:0:
110,41,20530,1,0,0:0:0:0:
80,84,20613,1,0,0:0:0:0:
79,136,20696,1,2,0:1:0:0:
111,178,20779,1,0,0:0:0:0:
160,194,20862,1,0,0:0:0:0:
209,175,20944,1,0,0:0:0:0:
260,194,21027,1,10,0:1:0:0:
289,236,21110,1,0,0:0:0:0:
291,290,21193,1,0,0:0:0:0:
261,335,21276,1,0,0:0:0:0:
222,369,21359,5,2,0:1:0:0:
197,323,21441,1,0,0:0:0:0:
196,272,21524,1,0,0:0:0:0:
218,225,21607,1,0,0:0:0:0:
259,194,21690,1,10,0:1:0:0:
311,186,21773,1,0,0:0:0:0:
348,149,21856,1,0,0:0:0:0:
356,98,21938,1,0,0:0:0:0:
332,51,22021,1,2,0:1:0:0:
287,28,22104,1,0,0:0:0:0:
234,36,22187,1,0,0:0:0:0:
198,73,22270,1,0,0:0:0:0:
190,125,22353,1,10,0:1:0:0:
213,171,22436,1,0,0:0:0:0:
259,194,22519,1,0,0:0:0:0:
311,186,22602,1,0,0:0:0:0:
348,149,22685,5,10,0:1:0:0:
309,108,22767,1,0,0:0:0:0:
255,94,22850,1,0,0:0:0:0:
202,112,22933,1,0,0:0:0:0:
166,155,23016,1,10,0:1:0:0:
159,210,23099,1,0,0:0:0:0:
182,261,23182,1,0,0:0:0:0:
229,291,23265,1,0,0:0:0:0:
285,292,23349,1,10,0:1:0:0:
335,267,23431,1,0,0:0:0:0:
390,272,23514,1,0,0:0:0:0:
434,306,23597,1,0,0:0:0:0:
453,359,23680,5,10,0:1:0:0:
460,291,23762,1,8,0:1:0:0:
467,223,23845,1,8,0:1:0:0:
474,156,23928,1,8,0:1:0:0:
482,89,24011,6,0,L|384:72,1,81.4499975143433,14|0,0:0|0:0,0:0:0:0:
204,128,24342,1,10,0:0:0:0:
352,240,24508,2,0,P|384:192|384:144,1,81.4499975143433,2|0,0:0|3:0,0:0:0:0:
256,48,24840,1,2,3:1:0:0:
160,208,25005,1,8,0:0:0:0:
296,166,25171,1,2,0:0:0:0:
112,304,25337,5,0,0:0:0:0:
112,304,25503,1,0,3:0:0:0:
204,128,25668,1,8,0:0:0:0:
248,248,25834,1,2,0:0:0:0:
112,125,26000,2,0,P|128:77|160:45,1,81.4499975143433,2|0,0:0|3:0,0:0:0:0:
160,208,26331,2,0,P|111:221|66:210,1,81.4499975143433,10|0,0:0|0:0,0:0:0:0:
176,32,26663,6,0,L|272:48,1,81.4499975143433,2|0,3:1|0:0,0:0:0:0:
464,176,26994,1,10,0:0:0:0:
240,224,27160,2,0,L|320:208,1,81.4499975143433,2|0,0:0|3:0,0:0:0:0:
464,80,27492,1,2,3:1:0:0:
272,48,27657,1,8,0:0:0:0:
447,183,27823,2,0,P|448:256|366:315,1,162.899995028687,2|0,0:0|3:0,0:0:0:0:
192,352,28320,1,8,0:0:0:0:
240,224,28486,1,2,0:0:0:0:
276,384,28652,2,0,L|292:304,1,81.4499975143433,2|0,0:0|3:0,0:0:0:0:
132,184,28983,2,0,L|148:264,1,81.4499975143433,10|0,0:0|0:0,0:0:0:0:
368,96,29315,6,0,P|320:64|240:64,1,122.174996271515,6|0,3:1|0:0,0:0:0:0:
228,73,29646,1,10,0:0:0:0:
352,224,29812,2,0,L|448:240,1,81.4499975143433,2|0,0:0|0:0,0:0:0:0:
288,144,30143,1,2,3:1:0:0:
208,320,30309,1,8,0:0:0:0:
136,64,30475,6,0,B|104:96|104:96|136:224,1,162.899995028687,2|0,0:0|3:0,0:0:0:0:
48,352,30972,1,8,0:0:0:0:
227,315,31138,1,2,0:0:0:0:
32,184,31304,2,0,L|13:263,1,81.4499975143433,2|0,0:0|3:0,0:0:0:0:
200,116,31635,2,0,L|218:195,1,81.4499975143433,10|0,0:0|0:0,0:0:0:0:
352,48,31967,6,0,P|400:32|448:48,1,81.4499975143433,6|0,3:1|0:0,0:0:0:0:
460,54,32215,1,0,3:0:0:0:
460,54,32298,1,10,0:0:0:0:
415,163,32464,2,0,L|403:125,1,40.7249987571717,2|0,3:1|3:0,0:0:0:0:
512,176,32630,1,0,3:0:0:0:
508,196,32712,1,0,3:0:0:0:
504,216,32795,1,2,3:1:0:0:
501,236,32878,1,0,3:0:0:0:
497,256,32961,2,0,L|433:272,1,40.7249987571717,8|8,0:0|0:0,0:0:0:0:
367,351,33127,6,0,P|366:283|295:225,1,156.11250297761,2|0,3:1|0:0,0:0:0:0:
280,317,33458,2,0,P|327:268|318:176,1,156.11250297761,2|0,3:1|0:0,0:0:0:0:
288,96,33790,2,0,L|237:108,1,52.0375009925366,2|0,3:1|0:0,0:0:0:0:
129,212,33956,1,10,0:0:0:0:
154,215,34038,1,8,0:0:0:0:
180,219,34121,1,2,3:1:0:0:
206,223,34204,1,2,3:1:0:0:
231,227,34287,6,0,B|219:194|219:194|81:174,1,156.11250297761,4|0,0:0|0:0,0:0:0:0:
28,230,34619,5,2,3:1:0:0:
11,188,34701,1,0,3:1:0:0:
18,143,34784,1,0,3:1:0:0:
45,108,34867,1,0,3:1:0:0:
86,90,34950,1,10,3:1:0:0:
208,144,35116,2,0,L|192:48,1,90.5,2|0,0:0|0:0,0:0:0:0:
352,224,35447,2,0,L|368:128,1,90.5,2|0,3:1|0:0,0:0:0:0:
240,352,35779,6,0,P|281:352|336:308,1,90.5,2|0,3:1|0:0,0:0:0:0:
258,261,36110,1,0,3:1:0:0:
213,268,36192,1,0,3:1:0:0:
168,275,36275,1,8,3:1:0:0:
148,366,36442,1,2,0:0:0:0:
80,299,36608,1,2,0:0:0:0:
184,184,36773,1,0,3:1:0:0:
191,139,36855,1,0,3:1:0:0:
198,94,36939,2,0,L|102:110,1,90.5,10|0,3:1|0:0,0:0:0:0:
168,0,37271,5,2,3:1:0:0:
212,7,37353,1,0,3:1:0:0:
257,14,37436,1,0,3:1:0:0:
301,22,37519,1,0,3:1:0:0:
346,29,37602,1,10,3:1:0:0:
394,107,37768,2,0,P|346:123|298:107,1,90.5,2|0,0:0|0:0,0:0:0:0:
436,23,38099,2,0,P|473:56|484:106,1,90.5,2|0,3:1|0:0,0:0:0:0:
416,224,38431,6,0,L|400:128,1,90.5,2|0,3:1|0:0,0:0:0:0:
342,282,38762,1,0,3:1:0:0:
378,308,38844,1,0,3:1:0:0:
423,316,38928,2,0,P|464:305|501:254,1,90.5,8|0,3:1|0:0,0:0:0:0:
512,176,39260,1,2,0:0:0:0:
308,113,39425,1,0,3:1:0:0:
263,120,39507,1,0,3:1:0:0:
218,127,39591,2,0,L|199:224,1,90.5,10|0,3:1|0:0,0:0:0:0:
256,384,39923,5,2,3:1:0:0:
265,340,40005,1,0,3:1:0:0:
273,295,40088,1,0,3:1:0:0:
282,251,40171,1,0,3:1:0:0:
290,207,40254,2,0,L|384:224,1,90.5,10|0,3:1|0:0,0:0:0:0:
436,23,40585,1,2,0:0:0:0:
263,120,40751,1,0,3:1:0:0:
224,32,40917,1,2,0:0:0:0:
192,240,41083,1,0,3:1:0:0:
128,48,41248,5,2,3:1:0:0:
87,30,41330,1,0,3:1:0:0:
43,40,41413,1,0,3:1:0:0:
15,74,41496,1,0,3:1:0:0:
12,118,41579,1,8,3:1:0:0:
103,180,41746,1,2,0:0:0:0:
0,304,41911,1,2,3:1:0:0:
44,311,41993,1,0,3:1:0:0:
89,318,42076,1,0,3:1:0:0:
133,326,42159,1,0,3:1:0:0:
178,333,42243,2,0,L|274:349,1,90.5,8|0,3:1|0:0,0:0:0:0:
464,272,42574,5,2,3:1:0:0:
450,229,42656,1,0,3:1:0:0:
421,195,42739,1,0,3:1:0:0:
380,176,42822,1,0,3:1:0:0:
335,176,42906,2,0,L|351:272,1,90.5,10|0,3:1|0:0,0:0:0:0:
366,362,43237,1,2,0:0:0:0:
208,240,43403,1,0,3:1:0:0:
256,128,43569,1,2,0:0:0:0:
165,344,43735,1,0,3:1:0:0:
48,192,43900,5,2,3:1:0:0:
40,147,43982,1,0,3:1:0:0:
51,104,44065,1,2,3:1:0:0:
79,69,44148,1,0,3:1:0:0:
120,49,44231,1,8,3:1:0:0:
155,156,44398,1,2,0:0:0:0:
240,20,44563,1,0,3:1:0:0:
241,31,44645,1,0,3:1:0:0:
243,42,44729,2,0,L|249:92,1,45.25,0|0,3:1|3:1,0:0:0:0:
364,240,44895,1,8,3:1:0:0:
401,215,44977,1,8,3:1:0:0:
423,176,45060,1,8,3:1:0:0:
424,132,45143,1,8,3:1:0:0:
404,91,45226,6,0,P|372:58|332:44,1,81.4499975143433,12|0,0:0|0:0,0:0:0:0:
247,176,45558,2,0,P|287:167|319:142,1,81.4499975143433,2|0,0:0|0:0,0:0:0:0:
256,272,45889,2,0,P|215:266|181:245,1,81.4499975143433,10|0,0:0|0:0,0:0:0:0:
88,244,46221,2,0,P|96:283|121:315,1,81.4499975143433,2|0,0:0|0:0,0:0:0:0:
288,384,46552,6,0,B|256:352|256:352|272:272,1,122.174996271515,2|0,0:0|0:0,0:0:0:0:
276,252,46884,1,2,0:0:0:0:
480,304,47050,1,2,0:0:0:0:
352,160,47215,1,8,3:1:0:0:
359,199,47297,1,2,0:0:0:0:
367,239,47380,1,2,0:0:0:0:
375,279,47463,1,2,0:0:0:0:
383,319,47547,2,0,L|399:239,1,81.4499975143433,8|0,0:0|0:0,0:0:0:0:
488,80,47878,6,0,P|458:47|411:33,1,81.4499975143433,4|0,0:0|0:0,0:0:0:0:
329,143,48210,2,0,L|409:127,1,81.4499975143433,2|0,0:0|0:0,0:0:0:0:
256,8,48541,2,0,L|352:24,1,81.4499975143433,10|0,0:0|0:0,0:0:0:0:
240,160,48873,1,10,0:0:0:0:
256,30,49039,1,8,3:1:0:0:
152,192,49204,5,2,0:0:0:0:
329,143,49370,1,2,0:0:0:0:
184,96,49536,1,2,0:0:0:0:
308,244,49702,1,2,0:0:0:0:
136,184,49867,1,8,0:0:0:0:
95,185,49949,1,0,3:1:0:0:
60,205,50032,1,8,3:1:0:0:
37,238,50115,1,8,3:1:0:0:
30,278,50198,1,8,0:0:0:0:
182,113,50364,1,8,0:0:0:0:
129,283,50530,5,2,3:1:0:0:
173,290,50612,1,0,3:1:0:0:
218,297,50695,1,2,3:1:0:0:
263,306,50779,1,0,3:1:0:0:
308,314,50862,1,2,3:1:0:0:
403,240,51027,1,2,0:0:0:0:
404,336,51193,1,2,0:0:0:0:
256,160,51359,1,2,3:1:0:0:
424,256,51525,1,8,0:0:0:0:
343,64,51690,6,0,L|359:160,1,90.5,2|0,3:1|0:0,0:0:0:0:
192,328,52022,2,0,L|206:238,1,90.5,2|0,3:1|0:0,0:0:0:0:
240,32,52353,1,2,3:1:0:0:
96,172,52519,1,10,0:0:0:0:
277,141,52685,1,0,3:1:0:0:
232,133,52767,1,0,3:1:0:0:
187,126,52850,1,8,0:0:0:0:
88,304,53016,1,2,0:0:0:0:
132,296,53098,1,2,0:0:0:0:
176,288,53182,6,0,L|160:240,1,45.25,2|0,3:1|3:1,0:0:0:0:
109,75,53348,1,8,3:1:0:0:
288,224,53514,1,2,3:1:0:0:
332,231,53596,1,0,3:1:0:0:
377,238,53679,1,2,3:1:0:0:
421,246,53762,1,0,3:1:0:0:
466,253,53845,2,0,L|484:192,1,45.25,0|0,3:1|3:1,0:0:0:0:
400,32,54011,1,2,3:1:0:0:
396,54,54093,1,8,3:1:0:0:
392,76,54177,2,0,L|456:60,1,45.25,8|0,3:1|0:0,0:0:0:0:
346,157,54342,6,0,P|300:93|327:9,1,169.6875,2|0,3:1|0:0,0:0:0:0:
204,80,54674,2,0,L|190:25,1,56.5625,2|0,3:1|0:0,0:0:0:0:
120,185,54840,1,0,3:1:0:0:
115,198,54922,1,0,3:1:0:0:
112,208,55005,2,0,L|126:153,1,56.5625,2|0,3:1|3:1,0:0:0:0:
264,312,55171,2,0,L|250:257,1,56.5625,10|0,3:1|0:0,0:0:0:0:
251,322,55834,5,6,0:1:0:0:
294,349,55916,1,0,0:0:0:0:
345,352,55999,1,0,0:0:0:0:
391,329,56082,1,0,0:0:0:0:
420,286,56165,1,8,0:1:0:0:
425,242,56248,1,0,0:0:0:0:
415,207,56331,1,0,0:0:0:0:
398,184,56414,1,0,0:0:0:0:
379,174,56497,5,2,0:1:0:0:
343,178,56579,1,0,0:0:0:0:
302,168,56663,1,0,0:0:0:0:
269,135,56745,1,0,0:0:0:0:
256,84,56828,1,8,0:1:0:0:
275,35,56911,1,0,0:0:0:0:
316,3,56994,1,0,0:0:0:0:
368,0,57077,1,0,0:0:0:0:
412,26,57160,5,2,0:1:0:0:
390,72,57242,1,0,0:0:0:0:
348,102,57325,1,0,0:0:0:0:
297,109,57408,1,0,0:0:0:0:
249,89,57491,1,8,0:1:0:0:
216,57,57574,1,0,0:0:0:0:
177,44,57657,1,0,0:0:0:0:
141,47,57740,1,0,0:0:0:0:
113,60,57823,5,2,0:1:0:0:
157,83,57906,1,0,0:0:0:0:
181,129,57989,1,0,0:0:0:0:
173,181,58072,1,0,0:0:0:0:
136,217,58154,1,8,0:1:0:0:
90,226,58237,1,0,0:0:0:0:
50,213,58320,1,0,0:0:0:0:
27,184,58403,1,0,0:0:0:0:
20,154,58486,5,2,0:1:0:0:
55,144,58568,1,0,0:0:0:0:
96,144,58651,1,0,0:0:0:0:
140,158,58735,1,0,0:0:0:0:
180,191,58817,1,8,0:1:0:0:
188,241,58901,1,0,0:0:0:0:
224,279,58983,1,0,0:0:0:0:
276,287,59066,1,0,0:0:0:0:
322,263,59149,1,0,0:0:0:0:
345,217,59232,1,0,0:0:0:0:
337,165,59315,1,0,0:0:0:0:
301,128,59398,1,0,0:0:0:0:
247,118,59481,2,0,P|264:144|292:160,1,52.0375009925366,10|0,0:1|0:0,0:0:0:0:
428,36,59646,2,0,P|396:37|369:53,1,52.0375009925366,2|0,0:1|0:0,0:0:0:0:
496,232,59812,5,2,0:1:0:0:
484,233,59895,1,0,0:0:0:0:
471,235,59978,1,0,0:0:0:0:
458,237,60061,1,0,0:0:0:0:
444,264,60144,5,10,0:1:0:0:
431,262,60226,1,0,0:0:0:0:
417,260,60309,1,0,0:0:0:0:
403,258,60392,1,0,0:0:0:0:
380,232,60475,5,2,0:1:0:0:
364,234,60558,1,0,0:0:0:0:
349,236,60641,1,0,0:0:0:0:
334,238,60723,1,0,0:0:0:0:
312,264,60806,5,10,0:1:0:0:
295,261,60888,1,0,0:0:0:0:
279,259,60971,1,0,0:0:0:0:
261,257,61054,1,0,0:0:0:0:
236,228,61138,5,6,0:1:0:0:
199,263,61220,1,0,0:0:0:0:
149,274,61303,1,0,0:0:0:0:
100,257,61386,1,0,0:0:0:0:
69,216,61469,1,8,0:1:0:0:
63,165,61552,1,0,0:0:0:0:
86,119,61635,1,0,0:0:0:0:
129,92,61718,1,0,0:0:0:0:
181,92,61800,1,0,0:0:0:0:
220,120,61883,1,0,0:0:0:0:
259,134,61967,1,0,0:0:0:0:
296,130,62050,1,0,0:0:0:0:
325,118,62132,5,10,0:1:0:0:
350,121,62215,1,0,0:0:0:0:
376,125,62298,1,0,0:0:0:0:
402,129,62381,1,0,0:0:0:0:
428,133,62464,5,2,0:1:0:0:
414,83,62546,1,0,0:0:0:0:
378,45,62629,1,0,0:0:0:0:
330,28,62712,1,0,0:0:0:0:
277,35,62795,2,0,L|264:96,1,52.0375009925366,10|0,0:1|0:0,0:0:0:0:
320,220,62961,5,2,0:1:0:0:
341,272,63043,1,0,0:0:0:0:
327,326,63126,1,0,0:0:0:0:
284,362,63209,1,0,0:0:0:0:
228,366,63292,1,0,0:0:0:0:
180,336,63375,1,0,0:0:0:0:
160,283,63459,5,10,0:1:0:0:
134,286,63541,1,0,0:0:0:0:
108,290,63624,1,0,0:0:0:0:
82,294,63707,1,0,0:0:0:0:
57,298,63791,5,2,0:1:0:0:
64,284,63873,1,0,0:0:0:0:
72,272,63956,2,0,L|83:198,1,52.0375009925366
200,64,64121,5,10,0:1:0:0:
192,79,64203,1,0,0:0:0:0:
184,92,64287,2,0,L|171:173,1,52.0375009925366
256,280,64453,5,2,0:1:0:0:
264,263,64535,1,0,0:0:0:0:
273,249,64619,2,0,L|286:159,1,52.0375009925366
396,48,64784,5,10,0:1:0:0:
387,66,64866,1,0,0:0:0:0:
377,82,64950,2,0,L|362:180,1,52.0375009925366
492,352,65116,5,2,0:1:0:0:
431,364,65198,1,0,0:0:0:0:
378,333,65281,1,0,0:0:0:0:
360,275,65364,1,0,0:0:0:0:
384,218,65447,1,8,0:1:0:0:
440,194,65530,1,0,0:0:0:0:
500,212,65613,2,0,P|488:236|444:256,1,56.5625,2|0,0:1|0:0,0:0:0:0:
368,344,65779,2,0,P|344:332|324:288,1,56.5625,10|8,0:1|0:1,0:0:0:0:
272,144,65945,5,8,0:1:0:0:
260,203,66027,1,8,0:1:0:0:
219,248,66110,1,8,0:1:0:0:
164,262,66193,1,8,0:1:0:0:
109,248,66276,1,8,0:1:0:0:
71,214,66359,1,8,0:1:0:0:
52,176,66442,5,6,0:1:0:0:
102,152,66524,1,0,0:0:0:0:
158,160,66607,1,0,0:0:0:0:
201,195,66690,1,0,0:0:0:0:
219,248,66773,1,8,0:1:0:0:
209,298,66856,1,0,0:0:0:0:
180,333,66939,1,0,0:0:0:0:
145,351,67022,1,0,0:0:0:0:
113,357,67105,5,2,0:1:0:0:
96,303,67187,1,0,0:0:0:0:
109,248,67270,1,0,0:0:0:0:
147,208,67353,1,0,0:0:0:0:
201,195,67436,1,8,0:1:0:0:
250,207,67519,1,0,0:0:0:0:
282,240,67602,1,0,0:0:0:0:
319,255,67685,1,0,0:0:0:0:
353,248,67768,5,2,0:1:0:0:
324,221,67850,1,0,0:0:0:0:
309,178,67934,1,0,0:0:0:0:
319,129,68016,1,0,0:0:0:0:
360,90,68099,1,8,0:1:0:0:
416,83,68182,1,0,0:0:0:0:
463,113,68265,1,0,0:0:0:0:
485,165,68348,1,0,0:0:0:0:
469,219,68431,5,2,0:1:0:0:
432,176,68513,1,0,0:0:0:0:
380,156,68596,1,0,0:0:0:0:
325,164,68679,1,0,0:0:0:0:
280,198,68762,1,8,0:1:0:0:
260,245,68845,1,0,0:0:0:0:
261,290,68928,1,0,0:0:0:0:
275,326,69011,1,0,0:0:0:0:
302,347,69094,5,2,0:1:0:0:
343,301,69176,1,0,0:0:0:0:
354,241,69259,1,0,0:0:0:0:
325,186,69342,1,0,0:0:0:0:
270,159,69425,1,8,0:1:0:0:
209,168,69508,1,0,0:0:0:0:
164,212,69590,1,0,0:0:0:0:
104,221,69673,1,0,0:0:0:0:
50,193,69756,1,0,0:0:0:0:
22,140,69839,1,0,0:0:0:0:
32,79,69922,1,0,0:0:0:0:
75,35,70005,1,0,0:0:0:0:
136,24,70088,2,0,L|124:84,1,56.5625,10|0,0:1|0:0,0:0:0:0:
168,296,70254,5,2,0:1:0:0:
207,343,70337,1,0,0:0:0:0:
268,357,70420,1,2,0:1:0:0:
325,334,70503,1,0,0:0:0:0:
358,282,70586,1,0,0:0:0:0:
355,220,70669,1,0,0:0:0:0:
314,172,70751,1,10,0:1:0:0:
308,110,70834,1,0,0:0:0:0:
340,57,70917,1,0,0:0:0:0:
398,32,70999,1,0,0:0:0:0:
457,47,71082,1,2,0:1:0:0:
495,86,71165,1,0,0:0:0:0:
504,131,71248,1,0,0:0:0:0:
497,168,71331,1,0,0:0:0:0:
485,194,71414,2,0,L|405:178,1,56.5625,10|0,0:1|0:0,0:0:0:0:
336,344,71580,2,0,L|391:332,1,56.5625,2|0,0:1|0:0,0:0:0:0:
344,148,71746,5,6,0:1:0:0:
279,134,71828,1,0,0:0:0:0:
215,123,71911,1,0,0:0:0:0:
151,112,71994,1,0,0:0:0:0:
85,97,72077,2,0,P|55:115|38:142,1,58.8249973072053,10|0,0:1|0:0,0:0:0:0:
80,344,72243,5,2,0:1:0:0:
108,338,72325,1,0,0:0:0:0:
137,333,72408,1,0,0:0:0:0:
166,327,72491,1,0,0:0:0:0:
195,322,72574,1,0,0:0:0:0:
224,316,72657,1,0,0:0:0:0:
252,310,72741,5,10,0:1:0:0:
274,272,72823,1,0,0:0:0:0:
313,252,72906,1,0,0:0:0:0:
355,254,72989,1,0,0:0:0:0:
388,280,73072,5,2,0:1:0:0:
445,271,73154,1,0,0:0:0:0:
489,233,73237,1,0,0:0:0:0:
508,178,73320,1,0,0:0:0:0:
494,122,73403,1,8,0:1:0:0:
454,80,73486,1,0,0:0:0:0:
397,67,73569,1,0,0:0:0:0:
342,84,73652,1,0,0:0:0:0:
304,128,73735,1,0,0:0:0:0:
268,161,73817,1,0,0:0:0:0:
228,170,73900,1,0,0:0:0:0:
196,168,73983,1,0,0:0:0:0:
175,158,74066,5,10,0:1:0:0:
156,160,74149,1,0,0:0:0:0:
137,162,74232,1,0,0:0:0:0:
119,165,74315,1,0,0:0:0:0:
100,166,74398,2,0,B|59:136|59:136|85:272,1,176.474991921616,6|0,0:1|0:0,0:0:0:0:
224,72,74729,5,10,0:1:0:0:
160,352,74895,1,2,0:1:0:0:
232,48,75061,5,8,0:1:0:0:
284,360,75227,1,0,0:0:0:0:
240,24,75392,5,10,0:1:0:0:
441,348,75558,1,0,0:0:0:0:
64,144,75724,5,10,0:1:0:0:
122,151,75806,1,8,0:1:0:0:
180,159,75889,1,8,0:1:0:0:
238,167,75972,1,8,0:1:0:0:
297,175,76055,2,0,L|383:187,3,58.8249973072053,10|0|0|0,0:1|0:0|0:0|0:0,0:0:0:0:
352,276,76387,5,10,0:1:0:0:
366,274,76469,1,8,0:1:0:0:
381,272,76552,2,0,L|439:262,1,58.8249973072053,8|8,0:1|0:1,0:0:0:0:
512,128,76718,5,10,0:1:0:0:
498,126,76800,1,0,0:0:0:0:
483,124,76884,2,0,L|424:114,1,58.8249973072053
236,35,77050,6,0,P|172:49|132:123,1,135.75,6|0,0:0|0:0,0:0:0:0:
129,135,77381,1,2,0:0:0:0:
224,127,77547,1,2,3:1:0:0:
32,0,77713,2,0,L|48:96,1,90.5,10|0,0:0|0:0,0:0:0:0:
208,136,78044,1,2,3:1:0:0:
32,272,78210,2,0,L|16:176,1,90.5,10|0,0:0|0:0,0:0:0:0:
232,36,78541,1,2,3:1:0:0:
208,256,78707,2,0,P|163:248|128:221,1,90.5,10|0,0:0|0:0,0:0:0:0:
288,104,79039,1,2,3:1:0:0:
352,320,79204,1,2,3:1:0:0:
354,308,79286,1,0,3:1:0:0:
356,297,79370,2,0,L|381:150,1,135.75,10|0,0:0|0:0,0:0:0:0:
395,72,79702,5,14,0:0:0:0:
183,152,79867,1,2,0:0:0:0:
356,297,80033,1,2,0:0:0:0:
256,96,80199,2,0,P|224:69|176:61,1,90.5,2|0,0:0|0:0,0:0:0:0:
48,176,80530,1,2,0:0:0:0:
198,242,80696,1,2,0:0:0:0:
198,242,80862,2,0,L|184:153,1,90.5,2|0,0:0|0:0,0:0:0:0:
96,0,81193,2,0,L|80:96,1,90.5,2|0,0:0|0:0,0:0:0:0:
352,256,81690,6,0,P|343:231|336:256,1,67.875,2|0,0:0|0:0,0:0:0:0:
328,346,82022,6,0,P|376:346|438:285,1,135.75,2|0,0:0|0:0,0:0:0:0:
420,156,82353,5,14,0:1:0:0:
365,123,82435,1,0,0:0:0:0:
303,130,82518,1,0,0:0:0:0:
255,169,82601,1,0,0:0:0:0:
228,228,82685,1,10,0:1:0:0:
236,288,82768,1,0,0:0:0:0:
216,347,82851,1,0,0:0:0:0:
165,384,82934,1,0,0:0:0:0:
101,384,83017,1,2,0:1:0:0:
50,347,83099,1,0,0:0:0:0:
31,287,83182,1,0,0:0:0:0:
51,227,83265,1,0,0:0:0:0:
102,190,83348,1,10,0:1:0:0:
165,190,83431,1,0,0:0:0:0:
226,210,83514,1,0,0:0:0:0:
286,190,83597,1,0,0:0:0:0:
323,139,83680,1,2,0:1:0:0:
323,75,83763,1,0,0:0:0:0:
286,24,83846,1,0,0:0:0:0:
226,4,83929,1,0,0:0:0:0:
165,24,84012,1,10,0:1:0:0:
128,75,84095,1,0,0:0:0:0:
128,139,84177,1,0,0:0:0:0:
165,190,84260,1,0,0:0:0:0:
226,210,84342,1,2,0:1:0:0:
286,190,84425,1,0,0:0:0:0:
337,152,84508,1,0,0:0:0:0:
400,152,84591,1,0,0:0:0:0:
451,190,84674,1,10,0:1:0:0:
471,250,84757,1,0,0:0:0:0:
451,310,84840,1,0,0:0:0:0:
400,347,84922,1,0,0:0:0:0:
337,347,85005,1,2,0:1:0:0:
285,310,85088,1,0,0:0:0:0:
233,273,85171,1,0,0:0:0:0:
170,273,85254,1,0,0:0:0:0:
111,292,85337,1,10,0:1:0:0:
50,272,85419,1,0,0:0:0:0:
13,221,85502,1,0,0:0:0:0:
13,158,85585,1,0,0:0:0:0:
50,107,85668,1,2,0:1:0:0:
110,87,85751,1,0,0:0:0:0:
171,106,85834,1,0,0:0:0:0:
208,158,85917,1,0,0:0:0:0:
259,196,86000,1,10,0:1:0:0:
323,195,86083,1,0,0:0:0:0:
374,157,86166,1,0,0:0:0:0:
393,97,86249,1,0,0:0:0:0:
388,32,86332,5,10,0:1:0:0:
321,55,86414,1,0,0:0:0:0:
279,110,86497,1,0,0:0:0:0:
277,180,86580,1,0,0:0:0:0:
318,237,86663,1,10,0:1:0:0:
384,260,86746,1,0,0:0:0:0:
451,239,86829,1,0,0:0:0:0:
494,184,86912,1,0,0:0:0:0:
496,113,86994,1,10,0:1:0:0:
456,56,87077,1,0,0:0:0:0:
388,32,87160,1,0,0:0:0:0:
321,55,87243,1,0,0:0:0:0:
279,110,87326,5,10,0:1:0:0:
274,187,87409,5,8,0:1:0:0:
214,248,87492,5,8,0:1:0:0:
119,245,87574,5,8,0:1:0:0:
39,185,87657,6,0,L|84:173,1,45.25,14|0,0:1|0:0,0:0:0:0:
