osu file format v14

[General]
AudioFilename: audio.ogg
AudioLeadIn: 0
PreviewTime: 55793
Countdown: 0
SampleSet: Normal
StackLeniency: 0.4
Mode: 0
LetterboxInBreaks: 0
WidescreenStoryboard: 1

[Editor]
Bookmarks: 144,18707,24011,34619,45226,55834,87657
DistanceSpacing: 1
BeatDivisor: 4
GridSize: 16
TimelineZoom: 2.2

[Metadata]
Title:CHOIR JAIL (TV Size)
TitleUnicode:CHOIR JAIL (TV Size)
Artist:Suzuki Konomi
ArtistUnicode:鈴木このみ
Creator:Astronic
Version:EXTRA
Source:黄昏乙女×アムネジア
Tags:tasogare otome streams bursts dusk maiden of amnesia opening theme japanese anime metal rock jrock j-rock life of dash female vocals
BeatmapID:3055877
BeatmapSetID:1490776

[Difficulty]
HPDrainRate:5.5
CircleSize:4
OverallDifficulty:8.8
ApproachRate:9.2
SliderMultiplier:1.7
SliderTickRate:1

[Events]
//Background and Video events
0,0,"bg.jpg",0,0
//Break Periods
//Storyboard Layer 0 (Background)
//Storyboard Layer 1 (Fail)
//Storyboard Layer 2 (Pass)
//Storyboard Layer 3 (Foreground)
//Storyboard Layer 4 (Overlay)
//Storyboard Sound Samples

[TimingPoints]
144,331.491712707182,4,1,1,50,1,0
144,-111.111111111111,4,1,1,50,0,0
2795,-166.666666666667,4,1,1,60,0,0
13403,-111.111111111111,4,1,1,60,0,0
15972,-111.111111111111,4,1,1,5,0,0
16055,-111.111111111111,4,1,1,60,0,0
18044,-250,4,1,1,60,0,0
18707,-86.9565217391304,4,3,1,85,0,1
21359,-86.9565217391304,4,3,1,90,0,1
22685,-80,4,3,1,90,0,1
23679,-74.0740740740741,4,3,1,90,0,1
24011,-111.111111111111,4,1,1,70,0,0
29563,-111.111111111111,4,1,1,5,0,0
29646,-111.111111111111,4,1,1,70,0,0
34536,-111.111111111111,4,1,1,5,0,0
34619,-111.111111111111,4,1,1,75,0,0
45226,-111.111111111111,4,1,1,60,0,0
46801,-111.111111111111,4,1,1,5,0,0
46884,-111.111111111111,4,1,1,60,0,0
50530,-111.111111111111,4,1,1,65,0,0
53099,-111.111111111111,4,1,1,65,0,0
53182,-111.111111111111,4,1,1,65,0,0
54342,-100,4,1,1,70,0,0
54674,-100,4,1,1,75,0,0
55005,-100,4,1,1,80,0,0
55834,-86.9565217391304,4,3,1,90,0,1
77050,-100,4,1,1,75,0,0
79619,-100,4,1,1,5,0,0
79702,-100,4,1,1,75,0,0
80447,-100,4,1,1,5,0,0
80530,-100,4,1,1,75,0,0
81690,-250,4,1,1,75,0,0
82353,-80,4,3,1,90,0,1
86331,-74.0740740740741,4,3,1,100,0,1
87326,-68.9655172413793,4,3,1,100,0,1
87657,-100,4,3,1,100,0,0

[Colours]
Combo1 : 129,129,129
Combo2 : 137,67,65
Combo3 : 81,132,189

[HitObjects]
160,176,144,5,2,0:0:0:0:
256,192,309,1,2,0:0:0:0:
188,264,475,1,2,0:0:0:0:
285,285,641,2,0,P|325:261|346:223,1,76.4999976654053,2|0,0:0|0:0,0:0:0:0:
332,132,972,1,2,0:0:0:0:
256,192,1138,1,2,0:0:0:0:
314,38,1304,2,0,P|366:41|408:72,1,76.4999976654053,2|0,0:0|0:0,0:0:0:0:
428,144,1635,1,2,0:0:0:0:
360,271,1801,2,0,L|274:286,1,76.4999976654053,2|0,0:0|0:0,0:0:0:0:
188,264,2132,5,2,0:0:0:0:
256,192,2298,1,2,0:0:0:0:
214,361,2464,1,2,0:0:0:0:
155,169,2630,1,2,0:0:0:0:
284,284,2795,6,0,B|382:252|400:105|273:37|174:92|155:168|155:168|108:371,1,611.999981323243,6|2,0:0|0:0,0:0:0:0:
296,314,5447,6,0,P|334:88|141:246,1,611.999981323243,2|2,0:0|0:0,0:0:0:0:
256,192,7768,1,2,0:0:0:0:
360,360,8099,6,0,B|294:393|197:344|226:311|164:263|68:291|68:291|142:275|175:189|132:118|65:100|13:122,1,611.999981323243,2|0,0:0|0:0,0:0:0:0:
51,205,10420,1,2,0:0:0:0:
221,140,10751,6,0,B|434:187|434:187|521:167|562:31|399:-65|293:64|348:151,1,611.999981323243,2|2,0:0|0:0,0:0:0:0:
400,284,13072,1,2,3:1:0:0:
192,336,13403,5,10,0:0:0:0:
127,145,13569,2,0,P|165:130|221:142,1,76.4999976654053,8|2,0:0|0:0,0:0:0:0:
352,200,13900,5,10,0:0:0:0:
80,256,14066,2,0,L|160:240,1,76.4999976654053,8|0,0:0|0:0,0:0:0:0:
379,195,14398,5,8,0:0:0:0:
288,368,14563,2,0,L|303:292,1,76.4999976654053,8|0,0:0|0:0,0:0:0:0:
352,32,14895,5,8,0:0:0:0:
460,239,15061,2,0,P|428:271|380:287,1,76.4999976654053,8|0,0:0|0:0,0:0:0:0:
276,96,15392,1,0,3:0:0:0:
295,100,15474,1,0,3:0:0:0:
314,104,15557,1,0,3:0:0:0:
333,108,15640,1,0,3:0:0:0:
352,112,15724,2,0,L|481:137,1,114.749996498108,0|0,3:0|0:0,0:0:0:0:
496,140,16055,5,2,3:1:0:0:
352,12,16221,1,2,3:1:0:0:
256,216,16387,1,2,3:1:0:0:
336,16,16552,1,10,0:0:0:0:
176,80,16718,2,0,L|126:69,1,38.2499988327027,0|0,3:1|3:1,0:0:0:0:
40,56,16884,1,2,3:1:0:0:
43,74,16966,1,0,3:1:0:0:
47,93,17049,1,10,0:0:0:0:
32,272,17215,2,0,L|112:256,1,76.4999976654053,2|0,3:1|0:0,0:0:0:0:
288,320,17547,1,2,3:1:0:0:
112,160,17713,1,8,0:0:0:0:
320,48,18044,6,0,B|293:52|293:52|285:48|285:48|253:52,1,68,2|2,0:0|0:0,0:0:0:0:
160,48,18707,5,14,0:1:0:0:
111,48,18790,1,0,0:0:0:0:
71,76,18873,1,0,0:0:0:0:
56,123,18956,1,0,0:0:0:0:
71,169,19039,1,10,0:1:0:0:
111,198,19121,1,0,0:0:0:0:
159,198,19204,1,0,0:0:0:0:
199,169,19287,1,0,0:0:0:0:
214,122,19370,1,2,0:1:0:0:
253,93,19453,1,0,0:0:0:0:
303,93,19536,1,0,0:0:0:0:
341,122,19619,1,0,0:0:0:0:
357,168,19701,1,10,0:1:0:0:
342,215,19784,1,0,0:0:0:0:
302,244,19867,1,0,0:0:0:0:
253,243,19950,1,0,0:0:0:0:
214,214,20033,6,0,L|198:150,3,48.8750009322167,2|0|0|0,0:1|0:0|0:0|0:0,0:0:0:0:
372,304,20364,2,0,L|360:351,3,48.8750009322167,10|0|0|0,0:1|0:0|0:0|0:0,0:0:0:0:
401,150,20696,2,0,P|377:155|357:168,3,48.8750009322167,2|0|0|0,0:1|0:0|0:0|0:0,0:0:0:0:
192,336,21027,2,0,P|212:348|236:353,3,48.8750009322167,10|0|0|0,0:1|0:0|0:0|0:0,0:0:0:0:
96,272,21359,5,2,0:1:0:0:
58,241,21441,1,0,0:0:0:0:
39,196,21524,1,0,0:0:0:0:
41,148,21607,1,0,0:0:0:0:
66,106,21690,1,10,0:1:0:0:
106,80,21773,1,0,0:0:0:0:
154,75,21856,1,0,0:0:0:0:
200,92,21939,1,0,0:0:0:0:
232,127,22022,1,2,0:1:0:0:
236,175,22104,1,0,0:0:0:0:
263,215,22187,1,0,0:0:0:0:
306,239,22270,1,0,0:0:0:0:
354,241,22353,1,10,0:1:0:0:
398,222,22436,1,0,0:0:0:0:
429,185,22519,1,0,0:0:0:0:
438,137,22602,1,0,0:0:0:0:
424,88,22685,5,10,0:1:0:0:
371,83,22767,1,0,0:0:0:0:
327,111,22850,1,0,0:0:0:0:
309,159,22933,1,0,0:0:0:0:
323,210,23016,1,10,0:1:0:0:
354,252,23099,1,0,0:0:0:0:
354,306,23182,1,0,0:0:0:0:
323,349,23265,1,0,0:0:0:0:
272,365,23348,1,10,0:1:0:0:
221,349,23431,1,0,0:0:0:0:
190,306,23514,1,0,0:0:0:0:
190,252,23596,1,0,0:0:0:0:
220,208,23679,5,10,0:1:0:0:
268,179,23761,1,8,0:1:0:0:
296,129,23844,1,8,0:1:0:0:
293,72,23927,1,8,0:1:0:0:
264,24,24011,6,0,L|176:38,1,76.4999976654053,14|0,0:0|0:0,0:0:0:0:
117,187,24342,1,10,0:0:0:0:
117,187,24508,2,0,P|149:155|161:111,1,76.4999976654053,2|0,0:0|3:0,0:0:0:0:
54,28,24840,2,0,L|67:104,1,76.4999976654053,2|8,3:1|0:0,0:0:0:0:
32,304,25171,6,0,B|64:272|64:272|192:304,1,152.999995330811,2|0,0:0|3:0,0:0:0:0:
324,200,25668,1,8,0:0:0:0:
224,214,25834,1,2,0:0:0:0:
376,279,26000,2,0,P|408:247|415:197,1,76.4999976654053,2|0,0:0|3:0,0:0:0:0:
281,289,26331,2,0,P|294:333|334:364,1,76.4999976654053,10|0,0:0|0:0,0:0:0:0:
512,240,26663,6,0,L|496:160,1,76.4999976654053,2|0,3:1|0:0,0:0:0:0:
360,28,26994,1,10,0:0:0:0:
324,200,27160,2,0,L|340:120,1,76.4999976654053,2|0,0:0|3:0,0:0:0:0:
176,0,27492,2,0,P|160:48|176:96,1,76.4999976654053,2|8,3:1|0:0,0:0:0:0:
246,253,27823,6,0,P|278:285|390:269,1,152.999995330811,2|0,0:0|3:0,0:0:0:0:
199,168,28320,1,8,0:0:0:0:
324,200,28486,1,2,0:0:0:0:
156,328,28652,2,0,L|140:248,1,76.4999976654053,2|0,0:0|3:0,0:0:0:0:
339,124,28983,2,0,L|323:199,1,76.4999976654053,10|0,0:0|0:0,0:0:0:0:
132,68,29315,6,0,P|68:84|36:132,1,114.749996498108,6|0,3:1|0:0,0:0:0:0:
32,151,29646,1,10,0:0:0:0:
156,328,29812,2,0,L|236:312,1,76.4999976654053,2|0,0:0|0:0,0:0:0:0:
399,214,30143,2,0,L|319:198,1,76.4999976654053,2|8,3:1|0:0,0:0:0:0:
426,310,30475,6,0,P|474:278|485:166,1,152.999995330811,2|0,0:0|3:0,0:0:0:0:
416,48,30972,1,8,0:0:0:0:
344,112,31138,1,2,0:0:0:0:
248,4,31304,2,0,L|328:20,1,76.4999976654053,2|0,0:0|3:0,0:0:0:0:
285,189,31635,2,0,P|260:163|250:114,1,76.4999976654053,10|0,0:0|0:0,0:0:0:0:
152,0,31967,6,0,L|136:80,1,76.4999976654053,6|0,3:1|0:0,0:0:0:0:
128,112,32215,1,0,3:0:0:0:
128,112,32298,1,10,0:0:0:0:
48,168,32464,1,2,3:1:0:0:
115,233,32630,1,0,3:0:0:0:
133,229,32712,1,0,3:0:0:0:
152,225,32795,1,2,3:1:0:0:
171,221,32878,1,0,3:0:0:0:
190,217,32961,2,0,L|254:233,1,38.2499988327027,8|8,0:0|0:0,0:0:0:0:
384,368,33127,6,0,P|408:336|416:288,1,76.4999976654053,2|0,3:1|0:0,0:0:0:0:
190,217,33458,2,0,P|205:253|243:284,1,76.4999976654053,2|0,3:1|0:0,0:0:0:0:
417,124,33790,1,2,3:1:0:0:
300,180,33956,1,10,0:0:0:0:
303,161,34038,1,8,0:0:0:0:
307,142,34121,1,2,3:1:0:0:
311,123,34204,1,2,3:1:0:0:
315,104,34287,2,0,B|322:73|322:73|232:97,1,114.749996498108,4|0,0:0|0:0,0:0:0:0:
210,103,34619,5,2,3:1:0:0:
191,99,34701,1,0,3:1:0:0:
172,95,34784,1,0,3:1:0:0:
153,91,34867,1,0,3:1:0:0:
134,87,34950,1,10,3:1:0:0:
32,196,35116,2,0,L|112:180,1,76.4999976654053,2|0,0:0|0:0,0:0:0:0:
56,31,35447,2,0,P|37:80|45:126,1,76.4999976654053,2|0,3:1|0:0,0:0:0:0:
112,272,35779,6,0,L|192:288,1,76.4999976654053,2|0,3:1|0:0,0:0:0:0:
260,352,36110,1,0,3:1:0:0:
278,348,36192,1,0,3:1:0:0:
297,344,36275,1,8,3:1:0:0:
393,328,36442,1,2,0:0:0:0:
332,252,36608,1,2,0:0:0:0:
439,200,36773,1,0,3:1:0:0:
435,218,36855,1,0,3:1:0:0:
431,237,36939,2,0,L|511:221,1,76.4999976654053,10|0,3:1|0:0,0:0:0:0:
400,112,37271,5,2,3:1:0:0:
381,108,37353,1,0,3:1:0:0:
362,104,37436,1,0,3:1:0:0:
343,100,37519,1,0,3:1:0:0:
324,96,37602,1,10,3:1:0:0:
247,38,37768,2,0,P|231:70|231:118,1,76.4999976654053,2|0,0:0|0:0,0:0:0:0:
304,272,38099,2,0,L|320:192,1,76.4999976654053,2|0,3:1|0:0,0:0:0:0:
144,336,38431,6,0,L|128:256,1,76.4999976654053,2|0,3:1|0:0,0:0:0:0:
72,156,38762,1,0,3:1:0:0:
90,159,38844,1,0,3:1:0:0:
109,163,38928,2,0,L|197:176,1,76.4999976654053,8|0,3:1|0:0,0:0:0:0:
221,253,39260,1,2,0:0:0:0:
128,260,39425,1,0,3:1:0:0:
109,256,39507,1,0,3:1:0:0:
90,252,39591,2,0,L|10:236,1,76.4999976654053,10|0,3:1|0:0,0:0:0:0:
151,351,39923,5,2,3:1:0:0:
169,347,40005,1,0,3:1:0:0:
188,343,40088,1,0,3:1:0:0:
207,339,40171,1,0,3:1:0:0:
226,335,40254,2,0,L|306:319,1,76.4999976654053,10|0,3:1|0:0,0:0:0:0:
416,200,40585,1,2,0:0:0:0:
392,360,40751,1,0,3:1:0:0:
456,288,40917,1,2,0:0:0:0:
319,227,41083,1,0,3:1:0:0:
446,193,41248,5,2,3:1:0:0:
449,174,41330,1,0,3:1:0:0:
453,155,41413,1,0,3:1:0:0:
457,136,41496,1,0,3:1:0:0:
461,117,41579,1,8,3:1:0:0:
481,22,41746,1,2,0:0:0:0:
368,128,41911,1,2,3:1:0:0:
350,136,41993,1,0,3:1:0:0:
331,138,42076,1,0,3:1:0:0:
313,133,42159,1,0,3:1:0:0:
298,122,42243,2,0,P|266:106|202:106,1,76.4999976654053,8|0,3:1|0:0,0:0:0:0:
159,214,42574,5,2,3:1:0:0:
177,210,42656,1,0,3:1:0:0:
196,206,42739,1,0,3:1:0:0:
215,202,42822,1,0,3:1:0:0:
234,198,42906,2,0,L|218:278,1,76.4999976654053,10|0,3:1|0:0,0:0:0:0:
201,370,43237,1,2,0:0:0:0:
27,333,43403,1,0,3:1:0:0:
120,304,43569,1,2,0:0:0:0:
160,128,43735,1,0,3:1:0:0:
48,232,43900,5,2,3:1:0:0:
44,213,43982,1,0,3:1:0:0:
40,194,44065,1,2,3:1:0:0:
36,175,44148,1,0,3:1:0:0:
32,156,44231,1,8,3:1:0:0:
80,72,44398,1,2,0:0:0:0:
253,101,44563,1,0,3:1:0:0:
271,97,44645,1,0,3:1:0:0:
290,93,44729,2,0,L|354:77,1,38.2499988327027,0|0,3:1|3:1,0:0:0:0:
448,48,44895,1,8,3:1:0:0:
440,85,44977,1,8,3:1:0:0:
432,123,45060,1,8,3:1:0:0:
425,160,45143,1,8,3:1:0:0:
417,198,45226,6,0,P|433:230|480:256,1,76.4999976654053,12|0,0:0|0:0,0:0:0:0:
304,336,45558,2,0,P|332:311|369:303,1,76.4999976654053,2|0,0:0|0:0,0:0:0:0:
192,240,45889,2,0,P|227:227|265:234,1,76.4999976654053,10|0,0:0|0:0,0:0:0:0:
141,321,46221,2,0,P|112:295|97:260,1,76.4999976654053,2|0,0:0|0:0,0:0:0:0:
166,61,46552,6,0,L|38:77,1,114.749996498108,2|0,0:0|0:0,0:0:0:0:
27,79,46884,1,2,0:0:0:0:
136,160,47050,1,2,0:0:0:0:
4,232,47215,1,8,3:1:0:0:
140,320,47381,2,0,P|101:268|119:177,1,152.999995330811,2|0,0:0|0:0,0:0:0:0:
256,16,47878,6,0,L|352:32,1,76.4999976654053,4|0,0:0|0:0,0:0:0:0:
496,144,48210,2,0,L|416:160,1,76.4999976654053,2|0,0:0|0:0,0:0:0:0:
240,240,48541,2,0,L|336:256,1,76.4999976654053,10|0,0:0|0:0,0:0:0:0:
505,283,48873,1,10,0:0:0:0:
320,154,49039,1,8,3:1:0:0:
349,342,49204,5,2,0:0:0:0:
410,265,49370,1,2,0:0:0:0:
254,329,49536,1,2,0:0:0:0:
315,252,49702,1,2,0:0:0:0:
297,149,49867,1,8,0:0:0:0:
278,146,49949,1,0,3:1:0:0:
258,143,50032,1,8,3:1:0:0:
100,124,50199,1,8,0:0:0:0:
244,47,50364,1,8,0:0:0:0:
84,135,50530,5,2,3:1:0:0:
85,154,50612,1,0,3:1:0:0:
87,173,50695,1,2,3:1:0:0:
89,192,50778,1,0,3:1:0:0:
91,211,50861,1,2,3:1:0:0:
101,307,51027,1,2,0:0:0:0:
179,252,51193,1,2,0:0:0:0:
14,270,51359,2,0,P|6:320|23:360,1,76.4999976654053,2|8,3:1|0:0,0:0:0:0:
252,188,51690,6,0,P|216:159|177:154,1,76.4999976654053,2|0,3:1|0:0,0:0:0:0:
432,272,52022,2,0,P|474:255|498:224,1,76.4999976654053,2|0,3:1|0:0,0:0:0:0:
324,80,52353,1,2,3:1:0:0:
336,256,52519,1,10,0:0:0:0:
337,275,52601,1,0,0:0:0:0:
339,294,52684,1,0,3:1:0:0:
341,313,52767,1,0,3:1:0:0:
343,332,52851,2,0,B|311:305|311:305|231:319,1,114.749996498108,8|2,0:0|0:0,0:0:0:0:
204,327,53182,5,2,3:1:0:0:
91,211,53348,1,8,3:1:0:0:
252,188,53514,1,2,3:1:0:0:
256,170,53596,1,0,3:1:0:0:
260,151,53679,2,0,L|276:71,1,76.4999976654053,2|0,3:1|3:1,0:0:0:0:
176,0,54011,1,2,3:1:0:0:
179,18,54093,1,8,3:1:0:0:
183,37,54176,1,8,3:1:0:0:
96,192,54342,6,0,L|0:176,1,85,2|0,3:1|0:0,0:0:0:0:
280,59,54674,2,0,L|376:43,1,85,2|0,3:1|3:1,0:0:0:0:
152,48,55005,2,0,L|168:104,1,42.5,2|0,3:1|3:1,0:0:0:0:
208,264,55171,1,10,3:1:0:0:
308,240,55834,5,6,0:1:0:0:
347,268,55917,1,0,0:0:0:0:
395,267,56000,1,0,0:0:0:0:
435,239,56083,1,0,0:0:0:0:
450,192,56166,1,8,0:1:0:0:
435,146,56248,1,0,0:0:0:0:
396,117,56331,1,0,0:0:0:0:
347,118,56414,1,0,0:0:0:0:
307,146,56497,5,2,0:1:0:0:
292,192,56580,1,0,0:0:0:0:
253,221,56663,1,0,0:0:0:0:
204,222,56746,1,0,0:0:0:0:
165,192,56829,1,8,0:1:0:0:
150,146,56911,1,0,0:0:0:0:
165,100,56994,1,0,0:0:0:0:
204,71,57077,1,0,0:0:0:0:
253,70,57160,6,0,L|269:22,7,48.8750009322167,2|0|0|0|8|0|0|0,0:1|0:0|0:0|0:0|0:1|0:0|0:0|0:0,0:0:0:0:
224,164,57823,5,2,0:1:0:0:
217,187,57905,1,0,0:0:0:0:
210,210,57988,1,0,0:0:0:0:
203,234,58071,1,0,0:0:0:0:
197,257,58154,1,8,0:1:0:0:
190,281,58237,1,0,0:0:0:0:
183,304,58320,1,0,0:0:0:0:
176,328,58403,1,0,0:0:0:0:
170,351,58487,5,2,0:1:0:0:
218,355,58569,1,0,0:0:0:0:
264,341,58652,1,0,0:0:0:0:
302,310,58735,1,0,0:0:0:0:
324,267,58818,1,8,0:1:0:0:
328,218,58901,1,0,0:0:0:0:
314,172,58984,1,0,0:0:0:0:
282,135,59067,1,0,0:0:0:0:
239,113,59149,1,0,0:0:0:0:
191,109,59232,1,0,0:0:0:0:
145,124,59315,1,0,0:0:0:0:
108,156,59398,1,0,0:0:0:0:
86,199,59481,2,0,L|150:183,1,48.8750009322167,10|0,0:1|0:0,0:0:0:0:
328,218,59646,2,0,L|280:229,1,48.8750009322167,2|0,0:1|0:0,0:0:0:0:
160,280,59812,6,0,L|171:327,3,48.8750009322167,2|0|0|0,0:1|0:0|0:0|0:0,0:0:0:0:
260,132,60143,2,0,L|248:84,3,48.8750009322167,10|0|0|0,0:1|0:0|0:0|0:0,0:0:0:0:
260,320,60475,5,2,0:1:0:0:
272,321,60557,1,0,0:0:0:0:
284,323,60640,1,0,0:0:0:0:
296,325,60723,1,0,0:0:0:0:
320,344,60807,5,10,0:1:0:0:
337,341,60890,1,0,0:0:0:0:
354,338,60973,1,0,0:0:0:0:
371,335,61056,1,0,0:0:0:0:
392,320,61137,5,6,0:1:0:0:
438,327,61220,1,0,0:0:0:0:
483,308,61303,1,0,0:0:0:0:
508,265,61386,1,0,0:0:0:0:
503,216,61469,1,8,0:1:0:0:
470,180,61552,1,0,0:0:0:0:
422,170,61635,1,0,0:0:0:0:
377,190,61718,1,0,0:0:0:0:
329,180,61801,1,0,0:0:0:0:
296,143,61884,1,0,0:0:0:0:
291,94,61967,1,0,0:0:0:0:
316,52,62050,1,0,0:0:0:0:
358,31,62132,6,0,L|342:95,3,48.8750009322167,10|0|0|0,0:1|0:0|0:0|0:0,0:0:0:0:
300,272,62464,2,0,L|204:288,1,97.7500018644333,2|0,0:1|0:0,0:0:0:0:
0,320,62795,1,10,0:1:0:0:
32,128,62961,2,0,B|80:112|144:144|112:160|176:208|240:176,1,195.500003728867,2|0,0:1|0:0,0:0:0:0:
96,360,63458,2,0,L|112:248,1,97.7500018644333,10|0,0:1|0:0,0:0:0:0:
196,33,63791,5,2,0:1:0:0:
196,41,63873,1,0,0:0:0:0:
196,48,63956,2,0,L|203:114,1,48.8750009322167
312,248,64121,5,10,0:1:0:0:
310,236,64203,1,0,0:0:0:0:
308,224,64287,2,0,L|301:158,1,48.8750009322167
360,80,64453,5,2,0:1:0:0:
348,82,64535,1,0,0:0:0:0:
336,84,64619,2,0,L|270:91,1,48.8750009322167
137,193,64783,5,10,0:1:0:0:
149,191,64867,1,0,0:0:0:0:
161,189,64950,2,0,L|227:182,1,48.8750009322167
400,160,65116,5,2,0:1:0:0:
447,166,65198,1,0,0:0:0:0:
485,197,65281,1,0,0:0:0:0:
501,242,65364,1,0,0:0:0:0:
492,290,65447,1,8,0:1:0:0:
460,325,65530,1,0,0:0:0:0:
414,340,65613,2,0,P|384:340|352:324,1,48.8750009322167,2|0,0:1|0:0,0:0:0:0:
208,224,65779,1,10,0:1:0:0:
162,208,65861,1,8,0:1:0:0:
114,217,65944,1,8,0:1:0:0:
78,249,66027,1,8,0:1:0:0:
64,295,66110,1,8,0:1:0:0:
73,338,66193,1,8,0:1:0:0:
99,367,66276,1,8,0:1:0:0:
130,383,66359,1,8,0:1:0:0:
160,384,66442,5,6,0:1:0:0:
180,340,66524,1,0,0:0:0:0:
179,291,66607,1,0,0:0:0:0:
157,248,66690,1,0,0:0:0:0:
117,218,66773,1,8,0:1:0:0:
101,172,66856,1,0,0:0:0:0:
117,126,66939,1,0,0:0:0:0:
156,96,67022,1,0,0:0:0:0:
204,97,67105,5,2,0:1:0:0:
244,125,67188,1,0,0:0:0:0:
259,171,67271,1,0,0:0:0:0:
298,200,67354,1,0,0:0:0:0:
347,198,67437,1,8,0:1:0:0:
387,171,67520,1,0,0:0:0:0:
401,124,67603,1,0,0:0:0:0:
386,76,67686,1,0,0:0:0:0:
352,44,67768,6,0,L|286:56,7,48.8750009322167,2|0|0|0|8|0|0|0,0:1|0:0|0:0|0:0|0:1|0:0|0:0|0:0,0:0:0:0:
450,130,68431,5,2,0:1:0:0:
426,135,68513,1,0,0:0:0:0:
402,140,68596,1,0,0:0:0:0:
378,145,68679,1,0,0:0:0:0:
354,150,68762,1,8,0:1:0:0:
330,155,68845,1,0,0:0:0:0:
306,160,68928,1,0,0:0:0:0:
282,165,69011,1,0,0:0:0:0:
259,169,69094,5,2,0:1:0:0:
292,204,69176,1,0,0:0:0:0:
308,250,69259,1,0,0:0:0:0:
305,298,69342,1,0,0:0:0:0:
283,341,69425,1,8,0:1:0:0:
245,372,69508,1,0,0:0:0:0:
199,385,69591,1,0,0:0:0:0:
150,379,69674,1,0,0:0:0:0:
109,354,69756,1,0,0:0:0:0:
81,314,69839,1,0,0:0:0:0:
70,267,69922,1,0,0:0:0:0:
80,219,70005,1,0,0:0:0:0:
108,180,70088,2,0,L|156:164,1,48.8750009322167,10|0,0:1|0:0,0:0:0:0:
304,53,70254,2,0,L|257:37,1,48.8750009322167,2|0,0:1|0:0,0:0:0:0:
256,192,70420,6,0,P|256:160|272:128,3,48.8750009322167,2|0|0|0,0:1|0:0|0:0|0:0,0:0:0:0:
351,177,70751,2,0,P|378:193|398:222,3,48.8750009322167,10|0|0|0,0:1|0:0|0:0|0:0,0:0:0:0:
316,267,71083,2,0,P|288:282|252:285,3,48.8750009322167,2|0|0|0,0:1|0:0|0:0|0:0,0:0:0:0:
484,176,71414,6,0,L|500:224,1,48.8750009322167,10|0,0:1|0:0,0:0:0:0:
384,88,71580,2,0,L|399:41,1,48.8750009322167,2|0,0:1|0:0,0:0:0:0:
256,192,71746,6,0,L|160:176,1,97.7500018644333,6|0,0:1|0:0,0:0:0:0:
48,64,72077,1,10,0:1:0:0:
64,304,72243,2,0,B|108:269|108:269|253:292,1,195.500003728867,2|0,0:1|0:0,0:0:0:0:
443,375,72740,2,0,P|462:329|443:263,1,97.7500018644333,10|0,0:1|0:0,0:0:0:0:
304,183,73072,6,0,L|255:191,3,48.8750009322167,2|0|0|0,0:1|0:0|0:0|0:0,0:0:0:0:
331,308,73403,2,0,L|379:316,3,48.8750009322167,8|0|0|0,0:1|0:0|0:0|0:0,0:0:0:0:
448,160,73735,2,0,L|399:168,3,48.8750009322167
256,48,74066,2,0,L|160:64,1,97.7500018644333,10|0,0:1|0:0,0:0:0:0:
16,272,74398,6,0,L|128:288,1,97.7500018644333,6|0,0:1|0:0,0:0:0:0:
336,124,74729,1,10,0:1:0:0:
48,76,74895,1,2,0:1:0:0:
242,327,75061,1,8,0:1:0:0:
290,39,75227,1,0,0:0:0:0:
32,176,75392,1,10,0:1:0:0:
320,224,75558,1,0,0:0:0:0:
144,68,75724,5,10,0:1:0:0:
135,116,75806,1,8,0:1:0:0:
127,164,75889,1,8,0:1:0:0:
119,212,75972,1,8,0:1:0:0:
111,260,76055,2,0,L|159:244,3,48.8750009322167,10|0|0|0,0:1|0:0|0:0|0:0,0:0:0:0:
242,327,76387,2,0,L|288:342,3,48.8750009322167,10|8|8|8,0:1|0:1|0:1|0:1,0:0:0:0:
320,224,76718,2,0,L|366:208,3,48.8750009322167,10|0|0|0,0:1|0:0|0:0|0:0,0:0:0:0:
432,368,77050,6,0,L|448:272,1,85,6|0,0:0|0:0,0:0:0:0:
304,128,77381,1,2,0:0:0:0:
176,240,77547,1,2,3:1:0:0:
322,114,77713,2,0,L|405:127,1,85,10|0,0:0|0:0,0:0:0:0:
211,151,78044,1,2,3:1:0:0:
211,151,78210,2,0,L|127:137,1,85,10|0,0:0|0:0,0:0:0:0:
242,327,78541,1,2,3:1:0:0:
242,327,78707,2,0,L|338:311,1,85,10|0,0:0|0:0,0:0:0:0:
496,192,79039,1,2,3:1:0:0:
304,224,79204,1,2,3:1:0:0:
283,227,79286,1,0,3:1:0:0:
262,230,79370,2,0,L|130:251,1,127.5,10|0,0:0|0:0,0:0:0:0:
100,260,79702,5,14,0:0:0:0:
208,128,79867,1,2,0:0:0:0:
64,64,80033,1,2,0:0:0:0:
230,136,80199,2,0,L|368:112,1,127.5,2|0,0:0|0:0,0:0:0:0:
385,108,80530,1,2,0:0:0:0:
496,32,80696,1,2,0:0:0:0:
512,208,80862,2,0,L|416:192,1,85,2|0,0:0|0:0,0:0:0:0:
336,216,81193,1,2,0:0:0:0:
240,32,81690,6,0,B|213:28|213:28|205:32|205:32|173:28,1,68,2|2,0:0|0:0,0:0:0:0:
80,128,82353,5,14,0:1:0:0:
48,170,82436,1,0,0:0:0:0:
48,223,82518,1,0,0:0:0:0:
79,266,82601,1,0,0:0:0:0:
129,283,82684,1,10,0:1:0:0:
180,266,82767,1,0,0:0:0:0:
197,216,82851,1,0,0:0:0:0:
239,184,82934,1,0,0:0:0:0:
293,184,83016,1,2,0:1:0:0:
336,216,83099,1,0,0:0:0:0:
352,266,83182,1,0,0:0:0:0:
336,317,83265,1,0,0:0:0:0:
293,348,83348,1,10,0:1:0:0:
239,348,83431,1,0,0:0:0:0:
197,317,83514,1,0,0:0:0:0:
180,266,83597,1,0,0:0:0:0:
197,216,83679,6,0,L|181:152,3,53.125,2|0|0|0,0:1|0:0|0:0|0:0,0:0:0:0:
336,48,84011,2,0,L|323:99,3,53.125,10|0|0|0,0:1|0:0|0:0|0:0,0:0:0:0:
169,83,84342,2,0,P|196:82|221:91,3,53.125,2|0|0|0,0:1|0:0|0:0|0:0,0:0:0:0:
331,185,84674,2,0,P|304:184|279:175,3,53.125,10|0|0|0,0:1|0:0|0:0|0:0,0:0:0:0:
411,125,85005,5,2,0:1:0:0:
461,139,85088,1,0,0:0:0:0:
493,183,85171,1,0,0:0:0:0:
491,235,85254,1,0,0:0:0:0:
461,279,85337,1,10,0:1:0:0:
411,296,85420,1,0,0:0:0:0:
360,280,85503,1,0,0:0:0:0:
328,235,85585,1,0,0:0:0:0:
328,183,85668,1,2,0:1:0:0:
359,139,85751,1,0,0:0:0:0:
359,87,85834,1,0,0:0:0:0:
327,42,85916,1,0,0:0:0:0:
276,26,85999,1,10,0:1:0:0:
226,43,86082,1,0,0:0:0:0:
195,86,86165,1,0,0:0:0:0:
194,139,86248,1,0,0:0:0:0:
224,184,86331,5,10,0:1:0:0:
255,135,86414,1,0,0:0:0:0:
255,77,86497,1,0,0:0:0:0:
223,29,86580,1,0,0:0:0:0:
166,11,86662,1,10,0:1:0:0:
112,29,86745,1,0,0:0:0:0:
77,78,86828,1,0,0:0:0:0:
77,135,86911,1,0,0:0:0:0:
111,183,86994,1,10,0:1:0:0:
166,197,87077,1,0,0:0:0:0:
223,183,87160,1,0,0:0:0:0:
281,193,87243,1,0,0:0:0:0:
325,232,87326,5,10,0:1:0:0:
313,291,87408,1,8,0:1:0:0:
273,335,87491,1,8,0:1:0:0:
214,348,87574,1,8,0:1:0:0:
159,327,87657,1,14,0:1:0:0:
