osu file format v14

[General]
AudioFilename: audio.ogg
AudioLeadIn: 0
PreviewTime: 56053
Countdown: 0
SampleSet: None
StackLeniency: 0.8
Mode: 3
LetterboxInBreaks: 0
SpecialStyle: 1
WidescreenStoryboard: 0

[Editor]
DistanceSpacing: 0.8
BeatDivisor: 2
GridSize: 32
TimelineZoom: 2.3

[Metadata]
Title:CHOIR JAIL
TitleUnicode:CHOIR JAIL
Artist:Suzuki Konomi
ArtistUnicode:Suzuki Konomi
Creator:Herkkupala
Version:treat
Source:Tasogare Otome x Amnesia
Tags:黄昏乙女×アムネジア dusk maiden of amnesia opening dump stream
BeatmapID:1502737
BeatmapSetID:710882

[Difficulty]
HPDrainRate:8.2
CircleSize:4
OverallDifficulty:8.5
ApproachRate:5
SliderMultiplier:1.4
SliderTickRate:1

[Events]
//Background and Video events
0,0,"bg.png",0,0
//Break Periods
//Storyboard Layer 0 (Background)
//Storyboard Layer 1 (Fail)
//Storyboard Layer 2 (Pass)
//Storyboard Layer 3 (Foreground)
//Storyboard Sound Samples

[TimingPoints]
31,331.491713,4,3,0,30,1,0

[HitObjects]
64,192,3014,5,0,0:0:0:0:
448,192,3014,1,0,0:0:0:0:
192,192,3180,1,0,0:0:0:0:
64,192,3346,1,0,0:0:0:0:
320,192,3512,128,0,3843:0:0:0:0:
448,192,3843,1,0,0:0:0:0:
64,192,4009,1,0,0:0:0:0:
192,192,4175,128,0,4506:0:0:0:0:
64,192,4506,1,0,0:0:0:0:
320,192,4672,1,0,0:0:0:0:
192,192,4838,1,0,0:0:0:0:
64,192,5003,128,0,5169:0:0:0:0:
192,192,5169,128,0,5335:0:0:0:0:
320,192,5335,128,0,5501:0:0:0:0:
448,192,5501,128,0,5666:0:0:0:0:
64,192,5666,128,0,6246:0:0:0:0:
320,192,5666,128,0,6246:0:0:0:0:
192,192,6329,128,0,6909:0:0:0:0:
320,192,6329,128,0,6909:0:0:0:0:
64,192,6992,128,0,7572:0:0:0:0:
448,192,6992,128,0,7572:0:0:0:0:
192,192,7655,128,0,8235:0:0:0:0:
448,192,7655,128,0,8235:0:0:0:0:
64,192,8318,128,0,9230:0:0:0:0:
192,192,8318,128,0,9230:0:0:0:0:
320,192,8318,1,0,0:0:0:0:
320,192,9313,1,0,0:0:0:0:
448,192,9313,1,0,0:0:0:0:
320,192,9479,128,0,9976:0:0:0:0:
448,192,9479,128,0,9976:0:0:0:0:
64,192,10307,128,0,10639:0:0:0:0:
192,192,10639,128,0,10887:0:0:0:0:
64,192,10970,128,0,11550:0:0:0:0:
320,192,10970,128,0,11550:0:0:0:0:
192,192,11633,128,0,11799:0:0:0:0:
320,192,11965,128,0,12213:0:0:0:0:
64,192,12296,128,0,12628:0:0:0:0:
448,192,12628,1,0,0:0:0:0:
320,192,12793,128,0,13208:0:0:0:0:
192,192,13291,128,0,13539:0:0:0:0:
64,192,13622,128,0,15528:0:0:0:0:
448,192,13622,128,0,13871:0:0:0:0:
192,192,13954,128,0,14202:0:0:0:0:
320,192,14285,128,0,14534:0:0:0:0:
448,192,14617,128,0,14865:0:0:0:0:
320,192,14948,128,0,15197:0:0:0:0:
448,192,15280,128,0,15528:0:0:0:0:
192,192,15611,128,0,15860:0:0:0:0:
320,192,15611,1,0,0:0:0:0:
64,192,15943,1,0,0:0:0:0:
448,192,15943,128,0,16191:0:0:0:0:
64,192,16274,1,0,0:0:0:0:
192,192,16274,1,0,0:0:0:0:
320,192,16357,1,0,0:0:0:0:
64,192,16440,1,0,0:0:0:0:
192,192,16440,1,0,0:0:0:0:
320,192,16523,1,0,0:0:0:0:
64,192,16606,1,0,0:0:0:0:
192,192,16688,1,0,0:0:0:0:
320,192,16771,1,0,0:0:0:0:
448,192,16771,1,0,0:0:0:0:
192,192,16854,1,0,0:0:0:0:
320,192,16937,1,0,0:0:0:0:
448,192,16937,1,0,0:0:0:0:
64,192,17020,1,0,0:0:0:0:
192,192,17103,1,0,0:0:0:0:
320,192,17186,1,0,0:0:0:0:
192,192,17269,1,0,0:0:0:0:
448,192,17269,1,0,0:0:0:0:
320,192,17351,1,0,0:0:0:0:
192,192,17434,1,0,0:0:0:0:
448,192,17434,1,0,0:0:0:0:
64,192,17517,1,0,0:0:0:0:
192,192,17600,1,0,0:0:0:0:
320,192,17683,1,0,0:0:0:0:
64,192,17766,1,0,0:0:0:0:
448,192,17766,1,0,0:0:0:0:
320,192,17849,1,0,0:0:0:0:
64,192,17932,1,0,0:0:0:0:
448,192,17932,1,0,0:0:0:0:
192,192,18014,1,0,0:0:0:0:
320,192,18097,1,0,0:0:0:0:
448,192,18180,1,0,0:0:0:0:
64,192,18263,1,0,0:0:0:0:
320,192,18263,1,0,0:0:0:0:
192,192,18346,1,0,0:0:0:0:
64,192,18429,1,0,0:0:0:0:
448,192,18429,1,0,0:0:0:0:
320,192,18512,1,0,0:0:0:0:
64,192,18595,1,0,0:0:0:0:
192,192,18595,1,0,0:0:0:0:
64,192,18926,1,0,0:0:0:0:
320,192,18926,1,0,0:0:0:0:
448,192,18926,1,0,0:0:0:0:
192,192,19092,1,0,0:0:0:0:
320,192,19092,1,0,0:0:0:0:
64,192,19258,1,0,0:0:0:0:
192,192,19258,1,0,0:0:0:0:
64,192,19423,128,0,19506:0:0:0:0:
320,192,19423,128,0,19589:0:0:0:0:
448,192,19423,128,0,19589:0:0:0:0:
64,192,19589,1,0,0:0:0:0:
192,192,19589,1,0,0:0:0:0:
320,192,19672,1,0,0:0:0:0:
448,192,19672,1,0,0:0:0:0:
64,192,19755,1,0,0:0:0:0:
192,192,19755,1,0,0:0:0:0:
320,192,19921,1,0,0:0:0:0:
448,192,19921,1,0,0:0:0:0:
64,192,20086,128,0,20252:0:0:0:0:
192,192,20086,128,0,20252:0:0:0:0:
448,192,20086,128,0,20252:0:0:0:0:
64,192,20418,128,0,20583:0:0:0:0:
320,192,20418,128,0,20583:0:0:0:0:
448,192,20418,128,0,20583:0:0:0:0:
192,192,20583,1,0,0:0:0:0:
192,192,20915,1,0,0:0:0:0:
320,192,20970,1,0,0:0:0:0:
448,192,21025,1,0,0:0:0:0:
320,192,21081,1,0,0:0:0:0:
192,192,21136,1,0,0:0:0:0:
64,192,21191,1,0,0:0:0:0:
320,192,21246,1,0,0:0:0:0:
192,192,21302,1,0,0:0:0:0:
64,192,21357,1,0,0:0:0:0:
192,192,21412,1,0,0:0:0:0:
320,192,21467,1,0,0:0:0:0:
448,192,21523,1,0,0:0:0:0:
64,192,21578,1,0,0:0:0:0:
192,192,21578,1,0,0:0:0:0:
320,192,21619,1,0,0:0:0:0:
448,192,21661,1,0,0:0:0:0:
192,192,21702,1,0,0:0:0:0:
320,192,21744,1,0,0:0:0:0:
64,192,21785,1,0,0:0:0:0:
448,192,21827,1,0,0:0:0:0:
320,192,21868,1,0,0:0:0:0:
192,192,21909,1,0,0:0:0:0:
448,192,21951,1,0,0:0:0:0:
320,192,21992,1,0,0:0:0:0:
64,192,22034,1,0,0:0:0:0:
448,192,22075,1,0,0:0:0:0:
192,192,22117,1,0,0:0:0:0:
320,192,22158,1,0,0:0:0:0:
64,192,22200,1,0,0:0:0:0:
192,192,22241,1,0,0:0:0:0:
448,192,22241,1,0,0:0:0:0:
320,192,22282,1,0,0:0:0:0:
64,192,22324,1,0,0:0:0:0:
448,192,22365,1,0,0:0:0:0:
192,192,22407,1,0,0:0:0:0:
320,192,22448,1,0,0:0:0:0:
64,192,22490,1,0,0:0:0:0:
192,192,22531,1,0,0:0:0:0:
448,192,22572,1,0,0:0:0:0:
320,192,22614,1,0,0:0:0:0:
192,192,22655,1,0,0:0:0:0:
448,192,22697,1,0,0:0:0:0:
64,192,22738,1,0,0:0:0:0:
320,192,22780,1,0,0:0:0:0:
192,192,22821,1,0,0:0:0:0:
64,192,22862,1,0,0:0:0:0:
320,192,22904,1,0,0:0:0:0:
448,192,22904,1,0,0:0:0:0:
192,192,22945,1,0,0:0:0:0:
64,192,22987,1,0,0:0:0:0:
320,192,23028,1,0,0:0:0:0:
448,192,23070,1,0,0:0:0:0:
192,192,23111,1,0,0:0:0:0:
320,192,23153,1,0,0:0:0:0:
64,192,23194,1,0,0:0:0:0:
448,192,23235,1,0,0:0:0:0:
320,192,23277,1,0,0:0:0:0:
192,192,23318,1,0,0:0:0:0:
448,192,23360,1,0,0:0:0:0:
64,192,23401,1,0,0:0:0:0:
320,192,23443,1,0,0:0:0:0:
192,192,23484,1,0,0:0:0:0:
448,192,23525,1,0,0:0:0:0:
64,192,23567,1,0,0:0:0:0:
320,192,23567,1,0,0:0:0:0:
192,192,23608,1,0,0:0:0:0:
448,192,23650,1,0,0:0:0:0:
320,192,23691,1,0,0:0:0:0:
64,192,23733,1,0,0:0:0:0:
192,192,23774,1,0,0:0:0:0:
448,192,23816,1,0,0:0:0:0:
64,192,23857,1,0,0:0:0:0:
320,192,23898,1,0,0:0:0:0:
192,192,23940,1,0,0:0:0:0:
448,192,23981,1,0,0:0:0:0:
320,192,24023,1,0,0:0:0:0:
64,192,24064,1,0,0:0:0:0:
448,192,24106,1,0,0:0:0:0:
192,192,24147,1,0,0:0:0:0:
320,192,24188,1,0,0:0:0:0:
64,192,24230,1,0,0:0:0:0:
448,192,24230,1,0,0:0:0:0:
192,192,24271,1,0,0:0:0:0:
320,192,24313,1,0,0:0:0:0:
64,192,24354,1,0,0:0:0:0:
448,192,24396,1,0,0:0:0:0:
192,192,24437,1,0,0:0:0:0:
320,192,24479,1,0,0:0:0:0:
448,192,24520,1,0,0:0:0:0:
64,192,24561,1,0,0:0:0:0:
320,192,24603,1,0,0:0:0:0:
192,192,24644,1,0,0:0:0:0:
64,192,24686,1,0,0:0:0:0:
448,192,24727,1,0,0:0:0:0:
192,192,24769,1,0,0:0:0:0:
320,192,24810,1,0,0:0:0:0:
448,192,24851,1,0,0:0:0:0:
64,192,24893,1,0,0:0:0:0:
192,192,24893,1,0,0:0:0:0:
320,192,24934,1,0,0:0:0:0:
448,192,24976,1,0,0:0:0:0:
64,192,25017,1,0,0:0:0:0:
192,192,25059,1,0,0:0:0:0:
448,192,25100,1,0,0:0:0:0:
320,192,25141,1,0,0:0:0:0:
192,192,25183,1,0,0:0:0:0:
64,192,25224,1,0,0:0:0:0:
448,192,25224,1,0,0:0:0:0:
320,192,25307,1,0,0:0:0:0:
192,192,25390,1,0,0:0:0:0:
448,192,25473,1,0,0:0:0:0:
64,192,25556,1,0,0:0:0:0:
320,192,25556,1,0,0:0:0:0:
192,192,25611,1,0,0:0:0:0:
448,192,25666,1,0,0:0:0:0:
64,192,25722,1,0,0:0:0:0:
320,192,25777,1,0,0:0:0:0:
192,192,25832,1,0,0:0:0:0:
64,192,25887,1,0,0:0:0:0:
448,192,25887,1,0,0:0:0:0:
320,192,25970,1,0,0:0:0:0:
192,192,26053,1,0,0:0:0:0:
64,192,26136,1,0,0:0:0:0:
320,192,26219,1,0,0:0:0:0:
448,192,26219,1,0,0:0:0:0:
192,192,26274,1,0,0:0:0:0:
64,192,26329,1,0,0:0:0:0:
320,192,26385,1,0,0:0:0:0:
448,192,26440,1,0,0:0:0:0:
192,192,26495,1,0,0:0:0:0:
64,192,26550,1,0,0:0:0:0:
320,192,26550,1,0,0:0:0:0:
448,192,26592,1,0,0:0:0:0:
192,192,26633,1,0,0:0:0:0:
320,192,26675,1,0,0:0:0:0:
64,192,26716,1,0,0:0:0:0:
192,192,26758,1,0,0:0:0:0:
448,192,26799,1,0,0:0:0:0:
320,192,26840,1,0,0:0:0:0:
64,192,26882,1,0,0:0:0:0:
192,192,26882,1,0,0:0:0:0:
448,192,26937,1,0,0:0:0:0:
320,192,26992,1,0,0:0:0:0:
64,192,27048,1,0,0:0:0:0:
448,192,27103,1,0,0:0:0:0:
192,192,27158,1,0,0:0:0:0:
320,192,27213,1,0,0:0:0:0:
448,192,27213,1,0,0:0:0:0:
64,192,27296,1,0,0:0:0:0:
320,192,27379,1,0,0:0:0:0:
192,192,27434,1,0,0:0:0:0:
64,192,27490,1,0,0:0:0:0:
192,192,27545,1,0,0:0:0:0:
320,192,27628,1,0,0:0:0:0:
448,192,27711,1,0,0:0:0:0:
320,192,27766,1,0,0:0:0:0:
64,192,27821,1,0,0:0:0:0:
192,192,27876,1,0,0:0:0:0:
448,192,27959,1,0,0:0:0:0:
192,192,28042,1,0,0:0:0:0:
320,192,28042,1,0,0:0:0:0:
64,192,28125,1,0,0:0:0:0:
192,192,28208,1,0,0:0:0:0:
64,192,28291,1,0,0:0:0:0:
192,192,28374,1,0,0:0:0:0:
448,192,28374,1,0,0:0:0:0:
64,192,28456,1,0,0:0:0:0:
320,192,28539,1,0,0:0:0:0:
448,192,28539,1,0,0:0:0:0:
192,192,28705,1,0,0:0:0:0:
320,192,28788,1,0,0:0:0:0:
64,192,28871,1,0,0:0:0:0:
192,192,28871,1,0,0:0:0:0:
320,192,28954,1,0,0:0:0:0:
192,192,29037,1,0,0:0:0:0:
320,192,29119,1,0,0:0:0:0:
64,192,29202,1,0,0:0:0:0:
448,192,29202,1,0,0:0:0:0:
192,192,29285,1,0,0:0:0:0:
448,192,29368,1,0,0:0:0:0:
192,192,29451,1,0,0:0:0:0:
320,192,29534,1,0,0:0:0:0:
448,192,29534,1,0,0:0:0:0:
64,192,29589,1,0,0:0:0:0:
192,192,29644,1,0,0:0:0:0:
448,192,29700,1,0,0:0:0:0:
320,192,29755,1,0,0:0:0:0:
64,192,29810,1,0,0:0:0:0:
192,192,29865,1,0,0:0:0:0:
448,192,29865,1,0,0:0:0:0:
320,192,29948,1,0,0:0:0:0:
192,192,30031,1,0,0:0:0:0:
64,192,30086,1,0,0:0:0:0:
320,192,30141,1,0,0:0:0:0:
192,192,30197,1,0,0:0:0:0:
448,192,30280,1,0,0:0:0:0:
320,192,30362,1,0,0:0:0:0:
64,192,30418,1,0,0:0:0:0:
448,192,30473,1,0,0:0:0:0:
192,192,30528,1,0,0:0:0:0:
64,192,30611,1,0,0:0:0:0:
320,192,30694,1,0,0:0:0:0:
448,192,30694,1,0,0:0:0:0:
192,192,30777,1,0,0:0:0:0:
320,192,30860,1,0,0:0:0:0:
192,192,30943,1,0,0:0:0:0:
64,192,31025,1,0,0:0:0:0:
320,192,31025,1,0,0:0:0:0:
192,192,31108,1,0,0:0:0:0:
64,192,31191,1,0,0:0:0:0:
448,192,31191,1,0,0:0:0:0:
320,192,31357,1,0,0:0:0:0:
192,192,31440,1,0,0:0:0:0:
320,192,31523,1,0,0:0:0:0:
448,192,31523,1,0,0:0:0:0:
64,192,31606,1,0,0:0:0:0:
320,192,31688,1,0,0:0:0:0:
64,192,31771,1,0,0:0:0:0:
192,192,31854,1,0,0:0:0:0:
448,192,31854,1,0,0:0:0:0:
320,192,31937,1,0,0:0:0:0:
448,192,32020,1,0,0:0:0:0:
320,192,32103,1,0,0:0:0:0:
64,192,32186,1,0,0:0:0:0:
192,192,32186,1,0,0:0:0:0:
448,192,32241,1,0,0:0:0:0:
192,192,32296,1,0,0:0:0:0:
320,192,32351,1,0,0:0:0:0:
448,192,32407,1,0,0:0:0:0:
320,192,32462,1,0,0:0:0:0:
64,192,32517,1,0,0:0:0:0:
192,192,32517,1,0,0:0:0:0:
448,192,32600,1,0,0:0:0:0:
64,192,32683,1,0,0:0:0:0:
192,192,32738,1,0,0:0:0:0:
448,192,32793,1,0,0:0:0:0:
320,192,32849,1,0,0:0:0:0:
64,192,32932,1,0,0:0:0:0:
448,192,33014,1,0,0:0:0:0:
320,192,33070,1,0,0:0:0:0:
64,192,33125,1,0,0:0:0:0:
192,192,33180,1,0,0:0:0:0:
448,192,33263,1,0,0:0:0:0:
192,192,33346,1,0,0:0:0:0:
320,192,33346,1,0,0:0:0:0:
64,192,33429,1,0,0:0:0:0:
192,192,33512,1,0,0:0:0:0:
64,192,33595,1,0,0:0:0:0:
192,192,33677,1,0,0:0:0:0:
448,192,33677,1,0,0:0:0:0:
64,192,33760,1,0,0:0:0:0:
448,192,33843,1,0,0:0:0:0:
320,192,33864,1,0,0:0:0:0:
192,192,34009,1,0,0:0:0:0:
64,192,34092,1,0,0:0:0:0:
192,192,34175,1,0,0:0:0:0:
448,192,34175,1,0,0:0:0:0:
320,192,34258,1,0,0:0:0:0:
192,192,34340,1,0,0:0:0:0:
320,192,34423,1,0,0:0:0:0:
64,192,34506,1,0,0:0:0:0:
448,192,34506,1,0,0:0:0:0:
320,192,34589,1,0,0:0:0:0:
448,192,34672,1,0,0:0:0:0:
320,192,34755,1,0,0:0:0:0:
64,192,34838,1,0,0:0:0:0:
192,192,34838,1,0,0:0:0:0:
448,192,34893,1,0,0:0:0:0:
320,192,34948,1,0,0:0:0:0:
64,192,35003,1,0,0:0:0:0:
448,192,35059,1,0,0:0:0:0:
192,192,35114,1,0,0:0:0:0:
64,192,35169,1,0,0:0:0:0:
320,192,35169,1,0,0:0:0:0:
448,192,35252,1,0,0:0:0:0:
320,192,35335,1,0,0:0:0:0:
192,192,35390,1,0,0:0:0:0:
448,192,35445,1,0,0:0:0:0:
320,192,35501,1,0,0:0:0:0:
192,192,35556,1,0,0:0:0:0:
448,192,35611,1,0,0:0:0:0:
64,192,35666,1,0,0:0:0:0:
320,192,35722,1,0,0:0:0:0:
448,192,35777,1,0,0:0:0:0:
64,192,35832,1,0,0:0:0:0:
320,192,35887,1,0,0:0:0:0:
448,192,35943,1,0,0:0:0:0:
64,192,35998,128,0,36164:0:0:0:0:
192,192,35998,128,0,36164:0:0:0:0:
320,192,35998,128,0,36164:0:0:0:0:
192,192,36329,128,0,36495:0:0:0:0:
320,192,36329,128,0,36495:0:0:0:0:
448,192,36329,128,0,36495:0:0:0:0:
320,192,36661,1,0,0:0:0:0:
448,192,36661,1,0,0:0:0:0:
192,192,36744,1,0,0:0:0:0:
64,192,36827,1,0,0:0:0:0:
448,192,36827,1,0,0:0:0:0:
192,192,36909,1,0,0:0:0:0:
64,192,36992,1,0,0:0:0:0:
192,192,37075,1,0,0:0:0:0:
64,192,37158,1,0,0:0:0:0:
320,192,37158,1,0,0:0:0:0:
448,192,37158,1,0,0:0:0:0:
320,192,37490,1,0,0:0:0:0:
448,192,37490,1,0,0:0:0:0:
64,192,37545,1,0,0:0:0:0:
192,192,37600,1,0,0:0:0:0:
448,192,37655,1,0,0:0:0:0:
64,192,37711,1,0,0:0:0:0:
320,192,37766,1,0,0:0:0:0:
192,192,37821,1,0,0:0:0:0:
448,192,37821,1,0,0:0:0:0:
64,192,37876,1,0,0:0:0:0:
320,192,37932,1,0,0:0:0:0:
192,192,37987,1,0,0:0:0:0:
448,192,38070,1,0,0:0:0:0:
192,192,38153,1,0,0:0:0:0:
448,192,38235,1,0,0:0:0:0:
64,192,38318,1,0,0:0:0:0:
320,192,38318,1,0,0:0:0:0:
192,192,38401,1,0,0:0:0:0:
320,192,38484,1,0,0:0:0:0:
64,192,38650,1,0,0:0:0:0:
448,192,38650,1,0,0:0:0:0:
320,192,38733,1,0,0:0:0:0:
64,192,38816,1,0,0:0:0:0:
320,192,38898,1,0,0:0:0:0:
64,192,38981,1,0,0:0:0:0:
192,192,38981,1,0,0:0:0:0:
320,192,39064,1,0,0:0:0:0:
448,192,39064,1,0,0:0:0:0:
64,192,39147,1,0,0:0:0:0:
192,192,39147,1,0,0:0:0:0:
320,192,39313,1,0,0:0:0:0:
448,192,39313,1,0,0:0:0:0:
320,192,39479,1,0,0:0:0:0:
448,192,39479,1,0,0:0:0:0:
192,192,39561,1,0,0:0:0:0:
320,192,39644,1,0,0:0:0:0:
448,192,39644,1,0,0:0:0:0:
64,192,39727,1,0,0:0:0:0:
192,192,39727,1,0,0:0:0:0:
320,192,39810,1,0,0:0:0:0:
448,192,39810,1,0,0:0:0:0:
64,192,39893,1,0,0:0:0:0:
448,192,39976,1,0,0:0:0:0:
64,192,40059,1,0,0:0:0:0:
192,192,40141,1,0,0:0:0:0:
320,192,40141,1,0,0:0:0:0:
448,192,40197,1,0,0:0:0:0:
64,192,40252,1,0,0:0:0:0:
320,192,40307,1,0,0:0:0:0:
192,192,40362,1,0,0:0:0:0:
448,192,40418,1,0,0:0:0:0:
64,192,40473,1,0,0:0:0:0:
320,192,40473,1,0,0:0:0:0:
192,192,40556,1,0,0:0:0:0:
320,192,40639,1,0,0:0:0:0:
448,192,40694,1,0,0:0:0:0:
192,192,40749,1,0,0:0:0:0:
320,192,40804,1,0,0:0:0:0:
64,192,40887,1,0,0:0:0:0:
320,192,40970,1,0,0:0:0:0:
192,192,41025,1,0,0:0:0:0:
448,192,41081,1,0,0:0:0:0:
320,192,41136,1,0,0:0:0:0:
64,192,41219,1,0,0:0:0:0:
192,192,41302,1,0,0:0:0:0:
320,192,41302,1,0,0:0:0:0:
448,192,41357,1,0,0:0:0:0:
64,192,41412,1,0,0:0:0:0:
192,192,41467,1,0,0:0:0:0:
448,192,41523,1,0,0:0:0:0:
320,192,41578,1,0,0:0:0:0:
64,192,41633,1,0,0:0:0:0:
192,192,41633,1,0,0:0:0:0:
320,192,41716,1,0,0:0:0:0:
448,192,41716,1,0,0:0:0:0:
64,192,41799,1,0,0:0:0:0:
192,192,41799,1,0,0:0:0:0:
64,192,42075,1,0,0:0:0:0:
448,192,42130,1,0,0:0:0:0:
320,192,42186,1,0,0:0:0:0:
192,192,42241,1,0,0:0:0:0:
448,192,42296,1,0,0:0:0:0:
320,192,42351,1,0,0:0:0:0:
192,192,42407,1,0,0:0:0:0:
64,192,42462,1,0,0:0:0:0:
320,192,42517,1,0,0:0:0:0:
448,192,42572,1,0,0:0:0:0:
64,192,42628,1,0,0:0:0:0:
320,192,42683,1,0,0:0:0:0:
448,192,42738,1,0,0:0:0:0:
64,192,42793,1,0,0:0:0:0:
192,192,42793,1,0,0:0:0:0:
320,192,42849,1,0,0:0:0:0:
192,192,42904,1,0,0:0:0:0:
448,192,42959,1,0,0:0:0:0:
64,192,43014,1,0,0:0:0:0:
448,192,43070,1,0,0:0:0:0:
192,192,43125,1,0,0:0:0:0:
64,192,43180,1,0,0:0:0:0:
448,192,43235,1,0,0:0:0:0:
320,192,43291,1,0,0:0:0:0:
64,192,43346,1,0,0:0:0:0:
192,192,43401,1,0,0:0:0:0:
448,192,43456,1,0,0:0:0:0:
64,192,43512,1,0,0:0:0:0:
448,192,43567,1,0,0:0:0:0:
192,192,43622,1,0,0:0:0:0:
448,192,43677,1,0,0:0:0:0:
320,192,43733,1,0,0:0:0:0:
64,192,43788,1,0,0:0:0:0:
192,192,43843,1,0,0:0:0:0:
64,192,43898,1,0,0:0:0:0:
320,192,43954,1,0,0:0:0:0:
64,192,44009,1,0,0:0:0:0:
448,192,44064,1,0,0:0:0:0:
192,192,44119,1,0,0:0:0:0:
320,192,44119,1,0,0:0:0:0:
64,192,44175,1,0,0:0:0:0:
448,192,44230,1,0,0:0:0:0:
320,192,44285,1,0,0:0:0:0:
64,192,44340,1,0,0:0:0:0:
192,192,44396,1,0,0:0:0:0:
448,192,44451,1,0,0:0:0:0:
320,192,44506,1,0,0:0:0:0:
64,192,44561,1,0,0:0:0:0:
192,192,44617,1,0,0:0:0:0:
448,192,44617,1,0,0:0:0:0:
320,192,44700,1,0,0:0:0:0:
64,192,44782,1,0,0:0:0:0:
192,192,44782,1,0,0:0:0:0:
448,192,44838,1,0,0:0:0:0:
320,192,44893,1,0,0:0:0:0:
64,192,44948,1,0,0:0:0:0:
448,192,45003,1,0,0:0:0:0:
192,192,45059,1,0,0:0:0:0:
320,192,45114,1,0,0:0:0:0:
64,192,45445,1,0,0:0:0:0:
448,192,45445,1,0,0:0:0:0:
320,192,45501,1,0,0:0:0:0:
192,192,45556,1,0,0:0:0:0:
448,192,45611,1,0,0:0:0:0:
320,192,45666,1,0,0:0:0:0:
64,192,45722,1,0,0:0:0:0:
192,192,45777,1,0,0:0:0:0:
320,192,45832,1,0,0:0:0:0:
448,192,45887,1,0,0:0:0:0:
192,192,45943,1,0,0:0:0:0:
320,192,45998,1,0,0:0:0:0:
64,192,46053,1,0,0:0:0:0:
448,192,46108,1,0,0:0:0:0:
320,192,46164,1,0,0:0:0:0:
64,192,46219,1,0,0:0:0:0:
448,192,46274,1,0,0:0:0:0:
320,192,46329,1,0,0:0:0:0:
64,192,46385,1,0,0:0:0:0:
192,192,46440,1,0,0:0:0:0:
448,192,46495,1,0,0:0:0:0:
64,192,46550,1,0,0:0:0:0:
192,192,46606,1,0,0:0:0:0:
320,192,46661,1,0,0:0:0:0:
64,192,46716,1,0,0:0:0:0:
192,192,46771,1,0,0:0:0:0:
448,192,46771,1,0,0:0:0:0:
320,192,46827,1,0,0:0:0:0:
64,192,46882,1,0,0:0:0:0:
192,192,46937,1,0,0:0:0:0:
448,192,46937,1,0,0:0:0:0:
320,192,46992,1,0,0:0:0:0:
64,192,47048,1,0,0:0:0:0:
192,192,47103,1,0,0:0:0:0:
448,192,47158,1,0,0:0:0:0:
320,192,47213,1,0,0:0:0:0:
64,192,47269,1,0,0:0:0:0:
192,192,47269,1,0,0:0:0:0:
448,192,47310,1,0,0:0:0:0:
320,192,47351,1,0,0:0:0:0:
64,192,47393,1,0,0:0:0:0:
192,192,47434,1,0,0:0:0:0:
320,192,47476,1,0,0:0:0:0:
448,192,47517,1,0,0:0:0:0:
64,192,47559,1,0,0:0:0:0:
192,192,47600,1,0,0:0:0:0:
448,192,47641,1,0,0:0:0:0:
320,192,47683,1,0,0:0:0:0:
192,192,47724,1,0,0:0:0:0:
64,192,47766,1,0,0:0:0:0:
320,192,47849,1,0,0:0:0:0:
192,192,47932,1,0,0:0:0:0:
448,192,48014,1,0,0:0:0:0:
64,192,48097,1,0,0:0:0:0:
192,192,48097,1,0,0:0:0:0:
320,192,48097,1,0,0:0:0:0:
448,192,48180,1,0,0:0:0:0:
192,192,48263,1,0,0:0:0:0:
64,192,48346,1,0,0:0:0:0:
192,192,48429,1,0,0:0:0:0:
448,192,48429,1,0,0:0:0:0:
320,192,48484,1,0,0:0:0:0:
192,192,48539,1,0,0:0:0:0:
448,192,48595,1,0,0:0:0:0:
320,192,48650,1,0,0:0:0:0:
64,192,48705,1,0,0:0:0:0:
192,192,48760,1,0,0:0:0:0:
448,192,48760,1,0,0:0:0:0:
320,192,48816,1,0,0:0:0:0:
448,192,48871,1,0,0:0:0:0:
64,192,48926,1,0,0:0:0:0:
192,192,48981,1,0,0:0:0:0:
320,192,49037,1,0,0:0:0:0:
64,192,49092,1,0,0:0:0:0:
192,192,49092,1,0,0:0:0:0:
448,192,49147,1,0,0:0:0:0:
320,192,49202,1,0,0:0:0:0:
64,192,49258,1,0,0:0:0:0:
448,192,49313,1,0,0:0:0:0:
192,192,49368,1,0,0:0:0:0:
64,192,49423,1,0,0:0:0:0:
448,192,49423,1,0,0:0:0:0:
320,192,49479,1,0,0:0:0:0:
192,192,49534,1,0,0:0:0:0:
448,192,49589,1,0,0:0:0:0:
64,192,49644,1,0,0:0:0:0:
192,192,49700,1,0,0:0:0:0:
64,192,49755,1,0,0:0:0:0:
320,192,49755,1,0,0:0:0:0:
448,192,49838,1,0,0:0:0:0:
320,192,49921,1,0,0:0:0:0:
192,192,49976,1,0,0:0:0:0:
448,192,50031,1,0,0:0:0:0:
320,192,50086,1,0,0:0:0:0:
64,192,50169,1,0,0:0:0:0:
192,192,50252,1,0,0:0:0:0:
320,192,50307,1,0,0:0:0:0:
64,192,50362,1,0,0:0:0:0:
448,192,50418,1,0,0:0:0:0:
192,192,50473,1,0,0:0:0:0:
320,192,50528,1,0,0:0:0:0:
64,192,50583,1,0,0:0:0:0:
192,192,50666,1,0,0:0:0:0:
320,192,50749,1,0,0:0:0:0:
448,192,50749,1,0,0:0:0:0:
64,192,50832,1,0,0:0:0:0:
192,192,50915,1,0,0:0:0:0:
448,192,50998,1,0,0:0:0:0:
64,192,51081,1,0,0:0:0:0:
320,192,51081,1,0,0:0:0:0:
192,192,51136,1,0,0:0:0:0:
320,192,51191,1,0,0:0:0:0:
64,192,51246,1,0,0:0:0:0:
192,192,51302,1,0,0:0:0:0:
448,192,51357,1,0,0:0:0:0:
192,192,51412,1,0,0:0:0:0:
320,192,51412,1,0,0:0:0:0:
64,192,51467,1,0,0:0:0:0:
448,192,51523,1,0,0:0:0:0:
192,192,51578,1,0,0:0:0:0:
320,192,51633,1,0,0:0:0:0:
448,192,51688,1,0,0:0:0:0:
64,192,51744,1,0,0:0:0:0:
320,192,51744,1,0,0:0:0:0:
192,192,51799,1,0,0:0:0:0:
448,192,51854,1,0,0:0:0:0:
320,192,51909,1,0,0:0:0:0:
64,192,51965,1,0,0:0:0:0:
192,192,52020,1,0,0:0:0:0:
64,192,52075,1,0,0:0:0:0:
448,192,52075,1,0,0:0:0:0:
320,192,52158,1,0,0:0:0:0:
192,192,52241,1,0,0:0:0:0:
448,192,52241,1,0,0:0:0:0:
320,192,52324,1,0,0:0:0:0:
64,192,52407,1,0,0:0:0:0:
192,192,52407,1,0,0:0:0:0:
448,192,52490,1,0,0:0:0:0:
320,192,52572,1,0,0:0:0:0:
192,192,52628,1,0,0:0:0:0:
448,192,52683,1,0,0:0:0:0:
64,192,52738,1,0,0:0:0:0:
320,192,52793,1,0,0:0:0:0:
192,192,52849,1,0,0:0:0:0:
448,192,52904,1,0,0:0:0:0:
320,192,52987,1,0,0:0:0:0:
64,192,53070,1,0,0:0:0:0:
192,192,53070,1,0,0:0:0:0:
192,192,53235,1,0,0:0:0:0:
448,192,53235,1,0,0:0:0:0:
64,192,53401,1,0,0:0:0:0:
320,192,53401,1,0,0:0:0:0:
448,192,53401,1,0,0:0:0:0:
320,192,53567,1,0,0:0:0:0:
448,192,53567,1,0,0:0:0:0:
64,192,53733,1,0,0:0:0:0:
192,192,53733,1,0,0:0:0:0:
64,192,53898,1,0,0:0:0:0:
320,192,53898,1,0,0:0:0:0:
192,192,54064,1,0,0:0:0:0:
448,192,54064,1,0,0:0:0:0:
64,192,54230,1,0,0:0:0:0:
320,192,54230,1,0,0:0:0:0:
192,192,54285,1,0,0:0:0:0:
448,192,54340,1,0,0:0:0:0:
320,192,54396,1,0,0:0:0:0:
64,192,54561,1,0,0:0:0:0:
192,192,54617,1,0,0:0:0:0:
320,192,54672,1,0,0:0:0:0:
192,192,54727,1,0,0:0:0:0:
320,192,54782,1,0,0:0:0:0:
448,192,54838,1,0,0:0:0:0:
64,192,54893,1,0,0:0:0:0:
192,192,54893,1,0,0:0:0:0:
320,192,54948,1,0,0:0:0:0:
448,192,55003,1,0,0:0:0:0:
320,192,55059,1,0,0:0:0:0:
192,192,55114,1,0,0:0:0:0:
64,192,55169,1,0,0:0:0:0:
192,192,55224,1,0,0:0:0:0:
448,192,55224,1,0,0:0:0:0:
320,192,55307,1,0,0:0:0:0:
64,192,55390,1,0,0:0:0:0:
192,192,55390,1,0,0:0:0:0:
448,192,55390,1,0,0:0:0:0:
320,192,55473,1,0,0:0:0:0:
64,192,55556,1,0,0:0:0:0:
192,192,55556,1,0,0:0:0:0:
320,192,55639,1,0,0:0:0:0:
192,192,55722,1,0,0:0:0:0:
448,192,55804,1,0,0:0:0:0:
320,192,55887,1,0,0:0:0:0:
448,192,55970,1,0,0:0:0:0:
64,192,56053,1,0,0:0:0:0:
192,192,56053,1,0,0:0:0:0:
320,192,56108,1,0,0:0:0:0:
448,192,56164,1,0,0:0:0:0:
192,192,56219,1,0,0:0:0:0:
64,192,56274,1,0,0:0:0:0:
320,192,56329,1,0,0:0:0:0:
448,192,56385,1,0,0:0:0:0:
192,192,56467,1,0,0:0:0:0:
320,192,56550,1,0,0:0:0:0:
448,192,56606,1,0,0:0:0:0:
320,192,56661,1,0,0:0:0:0:
192,192,56716,1,0,0:0:0:0:
448,192,56799,1,0,0:0:0:0:
192,192,56882,1,0,0:0:0:0:
64,192,56937,1,0,0:0:0:0:
192,192,56992,1,0,0:0:0:0:
320,192,57048,1,0,0:0:0:0:
64,192,57130,1,0,0:0:0:0:
448,192,57213,1,0,0:0:0:0:
320,192,57269,1,0,0:0:0:0:
192,192,57324,1,0,0:0:0:0:
448,192,57379,1,0,0:0:0:0:
320,192,57434,1,0,0:0:0:0:
192,192,57490,1,0,0:0:0:0:
64,192,57545,1,0,0:0:0:0:
320,192,57600,1,0,0:0:0:0:
448,192,57655,1,0,0:0:0:0:
64,192,57711,1,0,0:0:0:0:
320,192,57766,1,0,0:0:0:0:
448,192,57821,1,0,0:0:0:0:
64,192,57876,1,0,0:0:0:0:
192,192,57876,1,0,0:0:0:0:
320,192,57959,1,0,0:0:0:0:
64,192,58042,1,0,0:0:0:0:
192,192,58042,1,0,0:0:0:0:
448,192,58097,1,0,0:0:0:0:
320,192,58153,1,0,0:0:0:0:
64,192,58208,1,0,0:0:0:0:
192,192,58291,1,0,0:0:0:0:
64,192,58374,1,0,0:0:0:0:
320,192,58705,1,0,0:0:0:0:
448,192,58705,1,0,0:0:0:0:
192,192,58746,1,0,0:0:0:0:
64,192,58788,1,0,0:0:0:0:
320,192,58829,1,0,0:0:0:0:
448,192,58871,1,0,0:0:0:0:
192,192,58912,1,0,0:0:0:0:
64,192,58954,1,0,0:0:0:0:
320,192,58995,1,0,0:0:0:0:
192,192,59037,1,0,0:0:0:0:
448,192,59078,1,0,0:0:0:0:
64,192,59119,1,0,0:0:0:0:
320,192,59161,1,0,0:0:0:0:
192,192,59202,1,0,0:0:0:0:
448,192,59244,1,0,0:0:0:0:
64,192,59285,1,0,0:0:0:0:
320,192,59327,1,0,0:0:0:0:
192,192,59368,1,0,0:0:0:0:
448,192,59368,1,0,0:0:0:0:
64,192,59409,1,0,0:0:0:0:
320,192,59451,1,0,0:0:0:0:
192,192,59492,1,0,0:0:0:0:
448,192,59534,1,0,0:0:0:0:
64,192,59575,1,0,0:0:0:0:
192,192,59617,1,0,0:0:0:0:
448,192,59658,1,0,0:0:0:0:
64,192,59700,1,0,0:0:0:0:
320,192,59741,1,0,0:0:0:0:
192,192,59782,1,0,0:0:0:0:
448,192,59824,1,0,0:0:0:0:
64,192,59865,1,0,0:0:0:0:
320,192,59907,1,0,0:0:0:0:
192,192,59948,1,0,0:0:0:0:
448,192,59990,1,0,0:0:0:0:
64,192,60031,1,0,0:0:0:0:
320,192,60031,1,0,0:0:0:0:
192,192,60072,1,0,0:0:0:0:
448,192,60114,1,0,0:0:0:0:
64,192,60155,1,0,0:0:0:0:
320,192,60197,1,0,0:0:0:0:
448,192,60238,1,0,0:0:0:0:
192,192,60280,1,0,0:0:0:0:
320,192,60321,1,0,0:0:0:0:
64,192,60362,1,0,0:0:0:0:
448,192,60404,1,0,0:0:0:0:
192,192,60445,1,0,0:0:0:0:
320,192,60487,1,0,0:0:0:0:
448,192,60528,1,0,0:0:0:0:
64,192,60570,1,0,0:0:0:0:
320,192,60611,1,0,0:0:0:0:
192,192,60653,1,0,0:0:0:0:
64,192,60694,1,0,0:0:0:0:
448,192,60694,1,0,0:0:0:0:
320,192,60735,1,0,0:0:0:0:
192,192,60777,1,0,0:0:0:0:
448,192,60818,1,0,0:0:0:0:
64,192,60860,1,0,0:0:0:0:
320,192,60901,1,0,0:0:0:0:
192,192,60943,1,0,0:0:0:0:
448,192,60984,1,0,0:0:0:0:
320,192,61025,1,0,0:0:0:0:
64,192,61067,1,0,0:0:0:0:
448,192,61108,1,0,0:0:0:0:
192,192,61150,1,0,0:0:0:0:
64,192,61191,1,0,0:0:0:0:
320,192,61233,1,0,0:0:0:0:
192,192,61274,1,0,0:0:0:0:
448,192,61316,1,0,0:0:0:0:
64,192,61357,1,0,0:0:0:0:
320,192,61357,1,0,0:0:0:0:
192,192,61398,1,0,0:0:0:0:
448,192,61440,1,0,0:0:0:0:
320,192,61481,1,0,0:0:0:0:
64,192,61523,1,0,0:0:0:0:
192,192,61564,1,0,0:0:0:0:
320,192,61606,1,0,0:0:0:0:
448,192,61647,1,0,0:0:0:0:
192,192,61688,1,0,0:0:0:0:
64,192,61730,1,0,0:0:0:0:
320,192,61771,1,0,0:0:0:0:
192,192,61813,1,0,0:0:0:0:
448,192,61854,1,0,0:0:0:0:
320,192,61896,1,0,0:0:0:0:
64,192,61937,1,0,0:0:0:0:
192,192,61979,1,0,0:0:0:0:
448,192,62020,1,0,0:0:0:0:
320,192,62061,1,0,0:0:0:0:
192,192,62103,1,0,0:0:0:0:
64,192,62144,1,0,0:0:0:0:
320,192,62186,1,0,0:0:0:0:
448,192,62227,1,0,0:0:0:0:
192,192,62269,1,0,0:0:0:0:
64,192,62310,1,0,0:0:0:0:
320,192,62351,1,0,0:0:0:0:
448,192,62393,1,0,0:0:0:0:
192,192,62434,1,0,0:0:0:0:
320,192,62476,1,0,0:0:0:0:
448,192,62517,1,0,0:0:0:0:
192,192,62559,1,0,0:0:0:0:
64,192,62600,1,0,0:0:0:0:
320,192,62641,1,0,0:0:0:0:
192,192,62683,1,0,0:0:0:0:
64,192,62724,1,0,0:0:0:0:
320,192,62766,1,0,0:0:0:0:
448,192,62807,1,0,0:0:0:0:
192,192,62849,1,0,0:0:0:0:
320,192,62890,1,0,0:0:0:0:
64,192,62932,1,0,0:0:0:0:
192,192,62973,1,0,0:0:0:0:
320,192,63014,1,0,0:0:0:0:
448,192,63014,1,0,0:0:0:0:
64,192,63097,1,0,0:0:0:0:
192,192,63180,1,0,0:0:0:0:
448,192,63263,1,0,0:0:0:0:
64,192,63346,1,0,0:0:0:0:
320,192,63346,1,0,0:0:0:0:
192,192,63401,1,0,0:0:0:0:
448,192,63456,1,0,0:0:0:0:
64,192,63512,1,0,0:0:0:0:
192,192,63567,1,0,0:0:0:0:
448,192,63622,1,0,0:0:0:0:
64,192,63677,1,0,0:0:0:0:
320,192,63677,1,0,0:0:0:0:
192,192,63733,1,0,0:0:0:0:
448,192,63788,1,0,0:0:0:0:
320,192,63843,1,0,0:0:0:0:
192,192,63898,1,0,0:0:0:0:
448,192,63954,1,0,0:0:0:0:
64,192,64009,1,0,0:0:0:0:
320,192,64009,1,0,0:0:0:0:
192,192,64050,1,0,0:0:0:0:
448,192,64092,1,0,0:0:0:0:
320,192,64133,1,0,0:0:0:0:
64,192,64175,1,0,0:0:0:0:
192,192,64216,1,0,0:0:0:0:
320,192,64258,1,0,0:0:0:0:
448,192,64299,1,0,0:0:0:0:
192,192,64340,1,0,0:0:0:0:
64,192,64382,1,0,0:0:0:0:
320,192,64423,1,0,0:0:0:0:
448,192,64465,1,0,0:0:0:0:
192,192,64506,1,0,0:0:0:0:
64,192,64561,1,0,0:0:0:0:
320,192,64617,1,0,0:0:0:0:
448,192,64672,1,0,0:0:0:0:
64,192,64755,1,0,0:0:0:0:
448,192,64838,1,0,0:0:0:0:
320,192,64921,1,0,0:0:0:0:
64,192,65003,1,0,0:0:0:0:
192,192,65003,1,0,0:0:0:0:
448,192,65059,1,0,0:0:0:0:
320,192,65114,1,0,0:0:0:0:
64,192,65169,1,0,0:0:0:0:
192,192,65224,1,0,0:0:0:0:
448,192,65280,1,0,0:0:0:0:
64,192,65335,1,0,0:0:0:0:
320,192,65335,1,0,0:0:0:0:
192,192,65376,1,0,0:0:0:0:
448,192,65418,1,0,0:0:0:0:
320,192,65459,1,0,0:0:0:0:
64,192,65501,1,0,0:0:0:0:
192,192,65542,1,0,0:0:0:0:
448,192,65583,1,0,0:0:0:0:
320,192,65625,1,0,0:0:0:0:
64,192,65666,1,0,0:0:0:0:
192,192,65666,1,0,0:0:0:0:
448,192,65708,1,0,0:0:0:0:
320,192,65749,1,0,0:0:0:0:
64,192,65791,1,0,0:0:0:0:
192,192,65832,1,0,0:0:0:0:
448,192,65874,1,0,0:0:0:0:
64,192,65915,1,0,0:0:0:0:
320,192,65956,1,0,0:0:0:0:
192,192,65998,1,0,0:0:0:0:
448,192,66039,1,0,0:0:0:0:
64,192,66081,1,0,0:0:0:0:
320,192,66122,1,0,0:0:0:0:
192,192,66164,1,0,0:0:0:0:
448,192,66205,1,0,0:0:0:0:
64,192,66246,1,0,0:0:0:0:
320,192,66288,1,0,0:0:0:0:
192,192,66329,1,0,0:0:0:0:
448,192,66329,1,0,0:0:0:0:
64,192,66371,1,0,0:0:0:0:
320,192,66412,1,0,0:0:0:0:
192,192,66454,1,0,0:0:0:0:
448,192,66495,1,0,0:0:0:0:
64,192,66537,1,0,0:0:0:0:
192,192,66578,1,0,0:0:0:0:
448,192,66619,1,0,0:0:0:0:
64,192,66661,1,0,0:0:0:0:
320,192,66661,1,0,0:0:0:0:
192,192,66702,1,0,0:0:0:0:
448,192,66744,1,0,0:0:0:0:
320,192,66785,1,0,0:0:0:0:
64,192,66827,1,0,0:0:0:0:
192,192,66868,1,0,0:0:0:0:
320,192,66909,1,0,0:0:0:0:
64,192,66951,1,0,0:0:0:0:
192,192,66992,1,0,0:0:0:0:
448,192,66992,1,0,0:0:0:0:
320,192,67034,1,0,0:0:0:0:
64,192,67075,1,0,0:0:0:0:
448,192,67117,1,0,0:0:0:0:
192,192,67158,1,0,0:0:0:0:
320,192,67200,1,0,0:0:0:0:
64,192,67241,1,0,0:0:0:0:
192,192,67282,1,0,0:0:0:0:
320,192,67324,1,0,0:0:0:0:
448,192,67324,1,0,0:0:0:0:
64,192,67365,1,0,0:0:0:0:
192,192,67407,1,0,0:0:0:0:
448,192,67448,1,0,0:0:0:0:
320,192,67490,1,0,0:0:0:0:
64,192,67531,1,0,0:0:0:0:
448,192,67572,1,0,0:0:0:0:
320,192,67614,1,0,0:0:0:0:
64,192,67655,1,0,0:0:0:0:
192,192,67655,1,0,0:0:0:0:
448,192,67697,1,0,0:0:0:0:
320,192,67738,1,0,0:0:0:0:
64,192,67780,1,0,0:0:0:0:
192,192,67821,1,0,0:0:0:0:
448,192,67862,1,0,0:0:0:0:
320,192,67904,1,0,0:0:0:0:
64,192,67945,1,0,0:0:0:0:
192,192,67987,1,0,0:0:0:0:
448,192,67987,1,0,0:0:0:0:
320,192,68028,1,0,0:0:0:0:
64,192,68070,1,0,0:0:0:0:
192,192,68111,1,0,0:0:0:0:
448,192,68153,1,0,0:0:0:0:
320,192,68194,1,0,0:0:0:0:
64,192,68235,1,0,0:0:0:0:
448,192,68277,1,0,0:0:0:0:
192,192,68318,1,0,0:0:0:0:
320,192,68360,1,0,0:0:0:0:
64,192,68401,1,0,0:0:0:0:
192,192,68443,1,0,0:0:0:0:
448,192,68484,1,0,0:0:0:0:
64,192,68525,1,0,0:0:0:0:
320,192,68567,1,0,0:0:0:0:
192,192,68608,1,0,0:0:0:0:
448,192,68650,1,0,0:0:0:0:
64,192,68691,1,0,0:0:0:0:
192,192,68733,1,0,0:0:0:0:
320,192,68774,1,0,0:0:0:0:
448,192,68816,1,0,0:0:0:0:
192,192,68857,1,0,0:0:0:0:
64,192,68898,1,0,0:0:0:0:
320,192,68940,1,0,0:0:0:0:
192,192,68981,1,0,0:0:0:0:
64,192,69064,1,0,0:0:0:0:
192,192,69147,1,0,0:0:0:0:
320,192,69230,1,0,0:0:0:0:
64,192,69313,1,0,0:0:0:0:
192,192,69313,1,0,0:0:0:0:
320,192,69354,1,0,0:0:0:0:
448,192,69396,1,0,0:0:0:0:
192,192,69437,1,0,0:0:0:0:
64,192,69479,1,0,0:0:0:0:
320,192,69520,1,0,0:0:0:0:
448,192,69561,1,0,0:0:0:0:
192,192,69603,1,0,0:0:0:0:
320,192,69644,1,0,0:0:0:0:
64,192,69686,1,0,0:0:0:0:
448,192,69727,1,0,0:0:0:0:
192,192,69769,1,0,0:0:0:0:
320,192,69810,1,0,0:0:0:0:
64,192,69851,1,0,0:0:0:0:
448,192,69893,1,0,0:0:0:0:
192,192,69934,1,0,0:0:0:0:
64,192,69976,1,0,0:0:0:0:
320,192,69976,1,0,0:0:0:0:
448,192,70017,1,0,0:0:0:0:
192,192,70059,1,0,0:0:0:0:
320,192,70100,1,0,0:0:0:0:
64,192,70141,1,0,0:0:0:0:
448,192,70183,1,0,0:0:0:0:
320,192,70224,1,0,0:0:0:0:
192,192,70266,1,0,0:0:0:0:
448,192,70307,1,0,0:0:0:0:
64,192,70349,1,0,0:0:0:0:
320,192,70390,1,0,0:0:0:0:
192,192,70432,1,0,0:0:0:0:
448,192,70473,1,0,0:0:0:0:
320,192,70514,1,0,0:0:0:0:
64,192,70556,1,0,0:0:0:0:
192,192,70597,1,0,0:0:0:0:
320,192,70639,1,0,0:0:0:0:
448,192,70639,1,0,0:0:0:0:
64,192,70680,1,0,0:0:0:0:
192,192,70722,1,0,0:0:0:0:
448,192,70763,1,0,0:0:0:0:
320,192,70804,1,0,0:0:0:0:
64,192,70846,1,0,0:0:0:0:
192,192,70887,1,0,0:0:0:0:
448,192,70929,1,0,0:0:0:0:
320,192,70970,1,0,0:0:0:0:
64,192,71012,1,0,0:0:0:0:
192,192,71053,1,0,0:0:0:0:
320,192,71095,1,0,0:0:0:0:
448,192,71136,1,0,0:0:0:0:
192,192,71177,1,0,0:0:0:0:
64,192,71219,1,0,0:0:0:0:
320,192,71260,1,0,0:0:0:0:
192,192,71302,1,0,0:0:0:0:
448,192,71302,1,0,0:0:0:0:
64,192,71343,1,0,0:0:0:0:
320,192,71385,1,0,0:0:0:0:
448,192,71426,1,0,0:0:0:0:
192,192,71467,1,0,0:0:0:0:
64,192,71509,1,0,0:0:0:0:
320,192,71550,1,0,0:0:0:0:
192,192,71592,1,0,0:0:0:0:
448,192,71633,1,0,0:0:0:0:
64,192,71675,1,0,0:0:0:0:
192,192,71716,1,0,0:0:0:0:
320,192,71758,1,0,0:0:0:0:
448,192,71799,1,0,0:0:0:0:
192,192,71840,1,0,0:0:0:0:
320,192,71882,1,0,0:0:0:0:
64,192,71923,1,0,0:0:0:0:
192,192,71965,1,0,0:0:0:0:
448,192,71965,1,0,0:0:0:0:
320,192,72006,1,0,0:0:0:0:
64,192,72048,1,0,0:0:0:0:
192,192,72089,1,0,0:0:0:0:
448,192,72130,1,0,0:0:0:0:
320,192,72172,1,0,0:0:0:0:
192,192,72213,1,0,0:0:0:0:
64,192,72255,1,0,0:0:0:0:
320,192,72296,1,0,0:0:0:0:
448,192,72338,1,0,0:0:0:0:
192,192,72379,1,0,0:0:0:0:
320,192,72421,1,0,0:0:0:0:
64,192,72462,1,0,0:0:0:0:
192,192,72503,1,0,0:0:0:0:
448,192,72545,1,0,0:0:0:0:
320,192,72586,1,0,0:0:0:0:
64,192,72628,1,0,0:0:0:0:
192,192,72669,1,0,0:0:0:0:
320,192,72711,1,0,0:0:0:0:
448,192,72752,1,0,0:0:0:0:
192,192,72793,1,0,0:0:0:0:
64,192,72835,1,0,0:0:0:0:
320,192,72876,1,0,0:0:0:0:
448,192,72918,1,0,0:0:0:0:
192,192,72959,1,0,0:0:0:0:
64,192,73001,1,0,0:0:0:0:
320,192,73042,1,0,0:0:0:0:
192,192,73083,1,0,0:0:0:0:
64,192,73125,1,0,0:0:0:0:
320,192,73166,1,0,0:0:0:0:
448,192,73208,1,0,0:0:0:0:
192,192,73249,1,0,0:0:0:0:
320,192,73291,1,0,0:0:0:0:
448,192,73332,1,0,0:0:0:0:
192,192,73374,1,0,0:0:0:0:
64,192,73415,1,0,0:0:0:0:
320,192,73456,1,0,0:0:0:0:
192,192,73498,1,0,0:0:0:0:
448,192,73539,1,0,0:0:0:0:
320,192,73581,1,0,0:0:0:0:
64,192,73622,1,0,0:0:0:0:
192,192,73664,1,0,0:0:0:0:
448,192,73705,1,0,0:0:0:0:
320,192,73746,1,0,0:0:0:0:
192,192,73788,1,0,0:0:0:0:
448,192,73829,1,0,0:0:0:0:
64,192,73871,1,0,0:0:0:0:
192,192,73912,1,0,0:0:0:0:
320,192,73954,1,0,0:0:0:0:
448,192,73954,1,0,0:0:0:0:
192,192,74037,1,0,0:0:0:0:
64,192,74119,1,0,0:0:0:0:
320,192,74202,1,0,0:0:0:0:
192,192,74285,1,0,0:0:0:0:
448,192,74285,1,0,0:0:0:0:
320,192,74340,1,0,0:0:0:0:
64,192,74396,1,0,0:0:0:0:
192,192,74451,1,0,0:0:0:0:
448,192,74451,1,0,0:0:0:0:
320,192,74506,1,0,0:0:0:0:
64,192,74561,1,0,0:0:0:0:
192,192,74617,1,0,0:0:0:0:
448,192,74617,1,0,0:0:0:0:
320,192,74658,1,0,0:0:0:0:
64,192,74700,1,0,0:0:0:0:
192,192,74741,1,0,0:0:0:0:
448,192,74782,1,0,0:0:0:0:
320,192,74824,1,0,0:0:0:0:
64,192,74865,1,0,0:0:0:0:
192,192,74907,1,0,0:0:0:0:
320,192,74948,1,0,0:0:0:0:
448,192,74948,1,0,0:0:0:0:
64,192,74990,1,0,0:0:0:0:
192,192,75031,1,0,0:0:0:0:
448,192,75072,1,0,0:0:0:0:
320,192,75114,1,0,0:0:0:0:
64,192,75155,1,0,0:0:0:0:
448,192,75197,1,0,0:0:0:0:
320,192,75238,1,0,0:0:0:0:
192,192,75280,1,0,0:0:0:0:
448,192,75321,1,0,0:0:0:0:
64,192,75362,1,0,0:0:0:0:
192,192,75404,1,0,0:0:0:0:
320,192,75445,1,0,0:0:0:0:
64,192,75487,1,0,0:0:0:0:
448,192,75528,1,0,0:0:0:0:
192,192,75570,1,0,0:0:0:0:
64,192,75611,1,0,0:0:0:0:
320,192,75611,1,0,0:0:0:0:
448,192,75653,1,0,0:0:0:0:
192,192,75694,1,0,0:0:0:0:
320,192,75735,1,0,0:0:0:0:
448,192,75777,1,0,0:0:0:0:
192,192,75818,1,0,0:0:0:0:
64,192,75860,1,0,0:0:0:0:
320,192,75901,1,0,0:0:0:0:
192,192,75943,1,0,0:0:0:0:
448,192,75943,1,0,0:0:0:0:
64,192,75984,1,0,0:0:0:0:
320,192,76025,1,0,0:0:0:0:
448,192,76067,1,0,0:0:0:0:
192,192,76108,1,0,0:0:0:0:
320,192,76150,1,0,0:0:0:0:
64,192,76191,1,0,0:0:0:0:
448,192,76233,1,0,0:0:0:0:
320,192,76274,1,0,0:0:0:0:
192,192,76316,1,0,0:0:0:0:
448,192,76357,1,0,0:0:0:0:
64,192,76398,1,0,0:0:0:0:
320,192,76440,1,0,0:0:0:0:
192,192,76481,1,0,0:0:0:0:
448,192,76523,1,0,0:0:0:0:
64,192,76564,1,0,0:0:0:0:
320,192,76606,1,0,0:0:0:0:
192,192,76688,1,0,0:0:0:0:
448,192,76771,1,0,0:0:0:0:
320,192,76854,1,0,0:0:0:0:
64,192,76937,1,0,0:0:0:0:
192,192,76937,1,0,0:0:0:0:
448,192,76992,1,0,0:0:0:0:
320,192,77048,1,0,0:0:0:0:
64,192,77103,1,0,0:0:0:0:
448,192,77158,1,0,0:0:0:0:
192,192,77213,1,0,0:0:0:0:
64,192,77269,1,0,0:0:0:0:
320,192,77269,1,0,0:0:0:0:
448,192,77310,1,0,0:0:0:0:
192,192,77351,1,0,0:0:0:0:
320,192,77393,1,0,0:0:0:0:
448,192,77434,1,0,0:0:0:0:
64,192,77476,1,0,0:0:0:0:
320,192,77517,1,0,0:0:0:0:
192,192,77559,1,0,0:0:0:0:
64,192,77600,1,0,0:0:0:0:
320,192,77641,1,0,0:0:0:0:
448,192,77683,1,0,0:0:0:0:
192,192,77724,1,0,0:0:0:0:
64,192,77766,1,0,0:0:0:0:
320,192,77766,1,0,0:0:0:0:
448,192,77807,1,0,0:0:0:0:
192,192,77849,1,0,0:0:0:0:
320,192,77890,1,0,0:0:0:0:
64,192,77932,1,0,0:0:0:0:
448,192,77973,1,0,0:0:0:0:
192,192,78014,1,0,0:0:0:0:
320,192,78056,1,0,0:0:0:0:
64,192,78097,1,0,0:0:0:0:
192,192,78139,1,0,0:0:0:0:
448,192,78180,1,0,0:0:0:0:
320,192,78222,1,0,0:0:0:0:
64,192,78263,1,0,0:0:0:0:
192,192,78263,1,0,0:0:0:0:
448,192,78304,1,0,0:0:0:0:
320,192,78346,1,0,0:0:0:0:
64,192,78387,1,0,0:0:0:0:
448,192,78429,1,0,0:0:0:0:
192,192,78470,1,0,0:0:0:0:
64,192,78512,1,0,0:0:0:0:
320,192,78553,1,0,0:0:0:0:
192,192,78595,1,0,0:0:0:0:
448,192,78595,1,0,0:0:0:0:
64,192,78636,1,0,0:0:0:0:
320,192,78677,1,0,0:0:0:0:
448,192,78719,1,0,0:0:0:0:
192,192,78760,1,0,0:0:0:0:
320,192,78802,1,0,0:0:0:0:
64,192,78843,1,0,0:0:0:0:
448,192,78885,1,0,0:0:0:0:
192,192,78926,1,0,0:0:0:0:
320,192,78926,1,0,0:0:0:0:
64,192,78967,1,0,0:0:0:0:
448,192,79009,1,0,0:0:0:0:
192,192,79050,1,0,0:0:0:0:
320,192,79092,1,0,0:0:0:0:
448,192,79133,1,0,0:0:0:0:
64,192,79175,1,0,0:0:0:0:
192,192,79216,1,0,0:0:0:0:
320,192,79258,1,0,0:0:0:0:
448,192,79258,1,0,0:0:0:0:
64,192,79299,1,0,0:0:0:0:
192,192,79340,1,0,0:0:0:0:
448,192,79382,1,0,0:0:0:0:
320,192,79423,1,0,0:0:0:0:
64,192,79465,1,0,0:0:0:0:
448,192,79506,1,0,0:0:0:0:
192,192,79548,1,0,0:0:0:0:
64,192,79589,1,0,0:0:0:0:
320,192,79589,1,0,0:0:0:0:
448,192,79630,1,0,0:0:0:0:
192,192,79672,1,0,0:0:0:0:
320,192,79713,1,0,0:0:0:0:
64,192,79755,1,0,0:0:0:0:
192,192,79796,1,0,0:0:0:0:
448,192,79838,1,0,0:0:0:0:
64,192,79879,1,0,0:0:0:0:
192,192,79921,1,0,0:0:0:0:
320,192,79921,1,0,0:0:0:0:
448,192,79962,1,0,0:0:0:0:
64,192,80003,1,0,0:0:0:0:
192,192,80045,1,0,0:0:0:0:
320,192,80086,1,0,0:0:0:0:
448,192,80128,1,0,0:0:0:0:
64,192,80169,1,0,0:0:0:0:
192,192,80211,1,0,0:0:0:0:
320,192,80252,1,0,0:0:0:0:
448,192,80252,1,0,0:0:0:0:
64,192,80335,1,0,0:0:0:0:
320,192,80418,1,0,0:0:0:0:
448,192,80418,1,0,0:0:0:0:
192,192,80473,1,0,0:0:0:0:
64,192,80528,1,0,0:0:0:0:
320,192,80583,1,0,0:0:0:0:
192,192,80639,1,0,0:0:0:0:
448,192,80694,1,0,0:0:0:0:
320,192,80749,1,0,0:0:0:0:
64,192,80804,1,0,0:0:0:0:
448,192,80860,1,0,0:0:0:0:
192,192,80915,1,0,0:0:0:0:
320,192,80970,1,0,0:0:0:0:
64,192,81025,1,0,0:0:0:0:
192,192,81081,1,0,0:0:0:0:
448,192,81136,1,0,0:0:0:0:
320,192,81191,1,0,0:0:0:0:
64,192,81246,1,0,0:0:0:0:
192,192,81302,1,0,0:0:0:0:
64,192,81357,1,0,0:0:0:0:
448,192,81412,1,0,0:0:0:0:
320,192,81467,1,0,0:0:0:0:
448,192,81523,1,0,0:0:0:0:
192,192,81578,1,0,0:0:0:0:
320,192,81633,1,0,0:0:0:0:
192,192,81688,1,0,0:0:0:0:
448,192,81744,1,0,0:0:0:0:
64,192,81799,1,0,0:0:0:0:
320,192,81854,1,0,0:0:0:0:
192,192,81909,1,0,0:0:0:0:
448,192,81909,1,0,0:0:0:0:
320,192,81992,1,0,0:0:0:0:
64,192,82075,1,0,0:0:0:0:
192,192,82075,1,0,0:0:0:0:
448,192,82158,1,0,0:0:0:0:
64,192,82241,1,0,0:0:0:0:
192,192,82241,1,0,0:0:0:0:
320,192,82241,1,0,0:0:0:0:
64,192,82572,1,0,0:0:0:0:
192,192,82572,1,0,0:0:0:0:
448,192,82572,1,0,0:0:0:0:
192,192,82738,1,0,0:0:0:0:
320,192,82738,1,0,0:0:0:0:
320,192,82904,1,0,0:0:0:0:
448,192,82904,1,0,0:0:0:0:
64,192,83070,128,0,83235:0:0:0:0:
192,192,83070,128,0,83235:0:0:0:0:
448,192,83070,128,0,83235:0:0:0:0:
192,192,83401,1,0,0:0:0:0:
320,192,83401,1,0,0:0:0:0:
64,192,83567,1,0,0:0:0:0:
192,192,83567,1,0,0:0:0:0:
64,192,83733,128,0,83898:0:0:0:0:
320,192,83733,128,0,83898:0:0:0:0:
448,192,83733,128,0,83898:0:0:0:0:
64,192,84064,128,0,84230:0:0:0:0:
192,192,84064,128,0,84230:0:0:0:0:
448,192,84064,128,0,84230:0:0:0:0:
320,192,84561,1,0,0:0:0:0:
192,192,84617,1,0,0:0:0:0:
64,192,84672,1,0,0:0:0:0:
192,192,84727,1,0,0:0:0:0:
320,192,84782,1,0,0:0:0:0:
448,192,84838,1,0,0:0:0:0:
192,192,84893,1,0,0:0:0:0:
320,192,84948,1,0,0:0:0:0:
448,192,85003,1,0,0:0:0:0:
320,192,85059,1,0,0:0:0:0:
192,192,85114,1,0,0:0:0:0:
64,192,85169,1,0,0:0:0:0:
320,192,85224,1,0,0:0:0:0:
448,192,85224,1,0,0:0:0:0:
192,192,85266,1,0,0:0:0:0:
64,192,85307,1,0,0:0:0:0:
320,192,85349,1,0,0:0:0:0:
192,192,85390,1,0,0:0:0:0:
448,192,85432,1,0,0:0:0:0:
64,192,85473,1,0,0:0:0:0:
192,192,85514,1,0,0:0:0:0:
320,192,85556,1,0,0:0:0:0:
64,192,85597,1,0,0:0:0:0:
192,192,85639,1,0,0:0:0:0:
448,192,85680,1,0,0:0:0:0:
64,192,85722,1,0,0:0:0:0:
320,192,85763,1,0,0:0:0:0:
192,192,85804,1,0,0:0:0:0:
448,192,85846,1,0,0:0:0:0:
64,192,85887,1,0,0:0:0:0:
320,192,85887,1,0,0:0:0:0:
192,192,85929,1,0,0:0:0:0:
448,192,85970,1,0,0:0:0:0:
64,192,86012,1,0,0:0:0:0:
320,192,86053,1,0,0:0:0:0:
192,192,86095,1,0,0:0:0:0:
448,192,86136,1,0,0:0:0:0:
320,192,86177,1,0,0:0:0:0:
64,192,86219,1,0,0:0:0:0:
192,192,86260,1,0,0:0:0:0:
320,192,86302,1,0,0:0:0:0:
64,192,86343,1,0,0:0:0:0:
448,192,86385,1,0,0:0:0:0:
192,192,86426,1,0,0:0:0:0:
320,192,86467,1,0,0:0:0:0:
448,192,86509,1,0,0:0:0:0:
64,192,86550,1,0,0:0:0:0:
192,192,86550,1,0,0:0:0:0:
320,192,86592,1,0,0:0:0:0:
448,192,86633,1,0,0:0:0:0:
192,192,86675,1,0,0:0:0:0:
64,192,86716,1,0,0:0:0:0:
320,192,86758,1,0,0:0:0:0:
192,192,86799,1,0,0:0:0:0:
448,192,86840,1,0,0:0:0:0:
64,192,86882,1,0,0:0:0:0:
192,192,86923,1,0,0:0:0:0:
320,192,86965,1,0,0:0:0:0:
64,192,87006,1,0,0:0:0:0:
448,192,87048,1,0,0:0:0:0:
192,192,87089,1,0,0:0:0:0:
320,192,87130,1,0,0:0:0:0:
64,192,87172,1,0,0:0:0:0:
192,192,87213,1,0,0:0:0:0:
448,192,87213,1,0,0:0:0:0:
320,192,87255,1,0,0:0:0:0:
64,192,87296,1,0,0:0:0:0:
192,192,87338,1,0,0:0:0:0:
448,192,87379,1,0,0:0:0:0:
320,192,87421,1,0,0:0:0:0:
64,192,87462,1,0,0:0:0:0:
448,192,87503,1,0,0:0:0:0:
192,192,87545,1,0,0:0:0:0:
320,192,87586,1,0,0:0:0:0:
64,192,87628,1,0,0:0:0:0:
192,192,87669,1,0,0:0:0:0:
448,192,87711,1,0,0:0:0:0:
64,192,87752,1,0,0:0:0:0:
320,192,87793,1,0,0:0:0:0:
192,192,87835,1,0,0:0:0:0:
64,192,87876,1,0,0:0:0:0:
448,192,87876,1,0,0:0:0:0:
320,192,87918,1,0,0:0:0:0:
192,192,87959,1,0,0:0:0:0:
448,192,88001,1,0,0:0:0:0:
64,192,88042,1,0,0:0:0:0:
320,192,88083,1,0,0:0:0:0:
192,192,88125,1,0,0:0:0:0:
64,192,88166,1,0,0:0:0:0:
448,192,88208,1,0,0:0:0:0:
192,192,88249,1,0,0:0:0:0:
320,192,88291,1,0,0:0:0:0:
448,192,88332,1,0,0:0:0:0:
64,192,88374,1,0,0:0:0:0:
320,192,88415,1,0,0:0:0:0:
192,192,88456,1,0,0:0:0:0:
64,192,88498,1,0,0:0:0:0:
320,192,88539,1,0,0:0:0:0:
448,192,88539,1,0,0:0:0:0:
192,192,88581,1,0,0:0:0:0:
64,192,88622,1,0,0:0:0:0:
448,192,88664,1,0,0:0:0:0:
320,192,88705,1,0,0:0:0:0:
64,192,88746,1,0,0:0:0:0:
192,192,88788,1,0,0:0:0:0:
320,192,88829,1,0,0:0:0:0:
64,192,88871,1,0,0:0:0:0:
448,192,88871,1,0,0:0:0:0:
192,192,88954,1,0,0:0:0:0:
320,192,89037,1,0,0:0:0:0:
64,192,89119,1,0,0:0:0:0:
192,192,89202,1,0,0:0:0:0:
448,192,89202,1,0,0:0:0:0:
320,192,89258,1,0,0:0:0:0:
64,192,89313,1,0,0:0:0:0:
448,192,89368,1,0,0:0:0:0:
192,192,89423,1,0,0:0:0:0:
320,192,89479,1,0,0:0:0:0:
64,192,89534,1,0,0:0:0:0:
448,192,89534,1,0,0:0:0:0:
192,192,89617,1,0,0:0:0:0:
320,192,89700,1,0,0:0:0:0:
448,192,89782,1,0,0:0:0:0:
64,192,89865,1,0,0:0:0:0:
192,192,89865,1,0,0:0:0:0:
320,192,89921,1,0,0:0:0:0:
448,192,89976,1,0,0:0:0:0:
192,192,90031,1,0,0:0:0:0:
64,192,90086,1,0,0:0:0:0:
320,192,90141,1,0,0:0:0:0:
192,192,90197,1,0,0:0:0:0:
448,192,90197,1,0,0:0:0:0:
64,192,90238,1,0,0:0:0:0:
320,192,90280,1,0,0:0:0:0:
192,192,90321,1,0,0:0:0:0:
448,192,90362,1,0,0:0:0:0:
320,192,90404,1,0,0:0:0:0:
64,192,90445,1,0,0:0:0:0:
192,192,90487,1,0,0:0:0:0:
320,192,90528,128,0,91688:0:0:0:0:
448,192,90528,128,0,91688:0:0:0:0:
